#TITLE:Lord Of The Thunder;
#SUBTITLE:;
#ARTIST:Rhapsody;
#TITLETRANSLIT:;
#SUBTITLETRANSLIT:;
#ARTISTTRANSLIT:;
#CREDIT:;
#BANNER:(cerdo_claro)Lord Of The Thunder-bn.PNG;
#BACKGROUND:(cerdo_claro)Lord Of The Thunder-bg.png;
#LYRICSPATH:;
#CDTITLE:cdtitle.png;
#MUSIC:(cerdo_claro)Lord Of The Thunder.mp3;
#OFFSET:-0.024;
#SAMPLESTART:39.793;
#SAMPLELENGTH:19.740;
#SELECTABLE:YES;
#BPMS:0.000=180.000,29.000=180.020,60.000=149.200,73.000=190.000;
#STOPS:;
#BGCHANGES:;
// cache tags:
#FIRSTBEAT:0.000;
#LASTBEAT:1012.000;
#SONGFILENAME:Songs/toune 3/(cerdo_claro) Lord Of The Thunder/(cerdo_claro)Lord Of The Thunder.sm;
#HASMUSIC:1;
#HASBANNER:1;
#MUSICLENGTH:334.059;
// end cache tags

//---------------dance-single - ----------------
#NOTES:
     dance-single:
     :
     Hard:
     12:
     1.000,1.000,1.000,0.392,0.754,1903.000,601.000,131.000,0.000,59.000:
1100
0011
1001
2001
,
0000
0000
0001
0010
0001
0100
0001
0010
,
0001
0100
3011
0000
0000
0000
0000
0000
,
0011
0110
1010
1002
,
0010
1000
0010
0100
1000
0100
0010
0100
,
1000
0010
1103
0000
0000
0000
0000
0000
,
1100
0110
0011
2001
,
0100
0010
0001
0000
0010
0100
0001
0000
,
0011
3101
0000
0000
,
0011
1010
0110
1002
,
0010
0100
0010
0000
1000
0000
1000
0000
0110
0000
0010
0100
0010
0000
1000
0000
,
1000
0010
1103
0000
0000
0000
0000
0000
,
1100
0011
1001
2001
,
0001
0010
0100
0010
0001
0000
0010
0000
0001
0000
0100
0000
0001
0000
0010
0000
,
0001
0100
3011
0000
0000
0000
0000
0000
,
0011
0110
1100
2002
,
0000
0000
0000
0000
,
0000
0000
0000
0000
,
0000
0000
3000
0000
1003
0010
0100
0001
1100
0000
0001
1000
0010
0100
0011
0000
,
1000
0010
0100
0001
1100
0000
0011
0000
0011
0000
0110
0000
0110
0000
1100
0000
,
1100
0001
1000
0010
0101
0000
0001
1000
0010
0001
0110
0000
1000
0010
0100
0001
,
1100
0000
0001
0010
0100
1000
0010
0100
0001
0010
1000
0001
1100
0001
0010
0100
,
0011
1000
0010
0100
0011
0000
1000
0010
0100
0001
1100
0000
0010
0100
0010
0100
,
0011
0000
1000
0000
1000
0000
0010
0000
0010
0000
0011
0000
0011
1000
0100
0010
,
0101
0000
1000
0010
0100
0001
0110
0000
0100
0010
0100
0010
1100
0000
0000
0000
,
1000
0010
0100
0000
0001
1000
0010
0000
1000
0010
0001
0010
1000
0001
0010
0100
,
0011
0000
0010
0100
0001
1000
0011
0000
0010
0001
0010
0001
1100
0000
0011
0000
,
0011
0000
0110
0000
0110
0000
1100
0000
1100
0001
1000
0010
0101
0000
0001
1000
,
0010
0001
0110
0000
1000
0010
0100
0001
1100
0000
0001
0010
0100
1000
0010
0100
,
0001
0010
1000
0001
1100
0001
0010
0100
0011
1000
0010
0100
0011
0000
1000
0010
,
0100
0001
1100
0000
0010
0100
0010
0100
0011
0000
1000
0000
1000
0000
0010
0000
,
0010
0000
0011
0000
0011
1000
0100
0010
0101
0000
1000
0010
0100
0001
0110
0000
,
0100
0010
0100
0010
1100
0000
0000
0000
1000
0010
0100
0000
0001
1000
0010
0000
,
1000
0010
0001
0010
1100
0000
0010
0100
0001
0000
0110
0000
1100
0000
0001
0010
,
0001
0000
1100
0000
0110
0000
0001
1000
0011
0000
0011
0000
0110
0000
0110
0000
,
1100
0000
0110
0000
0011
0000
1000
0010
0100
0000
0011
0000
1001
0000
1000
0010
,
1000
0000
0011
0000
0101
0000
0010
1000
0100
0000
0011
0000
1100
0000
0110
0000
,
0101
0000
1100
0000
0100
0010
0001
0000
0011
0000
0110
0000
1100
0000
0011
0000
,
1001
0000
0000
0000
0000
0000
1000
0000
0000
0010
0000
0000
0001
0000
0000
0000
0000
0000
0011
0000
0000
1000
0000
0000
0010
0000
0000
0000
0100
0000
0000
0000
0010
0000
0000
0000
0001
0000
0000
0000
1000
0000
0000
0000
0010
0000
0000
0000
,
1000
0010
0001
1100
0000
0000
0000
0000
0000
0011
0000
0000
,
0000
2100
0000
0000
,
0000
0000
3011
0010
0110
0100
1100
1000
,
1010
0010
0011
0001
1001
1000
1100
0100
,
0110
0010
1010
1000
1001
0001
0101
1000
,
1010
0000
0000
0011
0000
0000
1010
0000
0000
1000
0000
0000
0001
0000
0000
0010
0000
0000
1100
0000
0000
0000
0011
0000
,
0000
0000
0110
0000
0000
0000
1100
0000
0000
0100
0000
0000
0110
0000
0000
0010
0000
0000
0011
0000
0000
0001
0000
0000
,
0101
0100
1100
1000
1001
0001
0011
0010
,
0110
0100
0101
0001
1001
1000
1010
0001
,
0101
0000
0000
1100
0000
0000
0101
0000
0000
0001
0000
0000
1000
0000
0000
0100
0000
0000
0011
0000
0000
0000
1100
0000
,
0000
0000
0110
0000
0000
0000
0101
0000
0000
0001
0000
0000
1001
0000
0000
1000
0000
0000
1010
0000
0000
0010
0000
0000
,
0011
0001
0101
0100
0110
0010
1010
1000
,
1001
0001
0011
0010
0110
0100
1100
0010
,
0011
0000
0000
0101
0000
0000
0011
0000
0000
0010
0000
0000
0100
0000
0000
0001
0000
0000
1010
0000
0000
0000
0101
0000
,
0000
0000
1001
0000
0000
0000
0011
0000
0000
0010
0000
0000
0110
0000
0000
0100
0000
0000
1100
0000
0000
1000
0000
0000
,
1010
0010
0011
0001
1001
1000
1100
0100
,
0110
0010
1010
0000
0101
0000
1001
0000
,
0110
0000
0000
0000
0000
0000
2100
0000
0000
0001
0000
0000
0010
0000
0000
3100
0000
0000
1100
0000
0000
0000
0011
0000
,
0000
0000
0110
0000
0000
0000
2001
0000
0000
0000
0000
0000
0010
0000
0000
0000
0000
0000
0002
0000
0000
3003
0000
0000
,
0000
0000
0102
0000
0000
1000
2000
0000
,
3113
0010
0110
0100
,
1100
1000
1100
0100
,
0100
0000
1001
1000
0010
0100
0001
1000
,
1000
1000
0010
0001
0100
0010
1000
0010
,
1000
1000
0012
0000
0100
0000
2103
0000
,
0001
3120
1000
0231
,
0010
0000
1301
1000
0010
0100
0001
1000
,
1000
1000
0010
0001
0100
0010
1000
0010
,
1000
0000
0000
1000
0000
0000
0011
0000
1000
0000
0010
0000
0100
0000
0001
0000
1000
0000
0110
0000
0001
0000
1000
0000
,
0001
0100
0010
1100
0001
1000
0010
0100
0001
0110
1000
0010
,
0100
0001
0100
1010
0000
0101
0000
0110
0000
1100
0000
0101
,
0000
0000
0000
0000
1010
0000
0000
0000
0000
0000
0000
0000
2001
0000
0000
0010
0000
0000
0100
0000
0000
0010
0000
0000
3001
0000
0000
0010
0000
0000
0100
0000
0000
1000
0000
0000
0001
0000
0000
0010
0000
0000
0100
0000
0000
1000
0000
0000
,
0010
0100
0001
1000
0011
0000
1000
0001
0100
0000
1010
0000
1010
0000
0001
0000
,
1100
0000
0011
0000
1001
0000
0010
0100
0010
0000
1100
0000
1100
0000
0000
0000
,
0110
0000
0011
0000
1100
0000
0011
0010
,
0110
0100
1100
1000
1010
0010
0011
0001
,
1001
1000
1100
0100
0110
0010
1010
1000
,
1001
0001
0101
1000
1010
0011
1010
1000
,
0001
0000
0000
0010
0000
0000
1100
0000
0000
0000
0011
0000
0000
0000
0110
0000
0000
0000
1100
0000
0000
0100
0000
0000
,
0110
0010
0011
0001
0101
0100
1100
1000
,
1001
0001
0011
0010
0110
0100
0101
0001
,
1001
1000
1010
0001
0101
1100
0101
0001
,
1000
0000
0000
0100
0000
0000
0011
0000
0000
0000
1100
0000
0000
0000
0110
0000
0000
0000
0101
0000
0000
0001
0000
0000
,
1001
1000
1010
0010
0011
0001
0101
0100
,
0110
0010
1010
1000
1001
0001
0011
0010
,
0110
0100
1100
0010
0011
0101
0011
0010
,
0100
0000
0000
0001
0000
0000
1010
0000
0000
0000
0101
0000
0000
0000
1001
0000
0000
0000
0011
0000
0000
0010
0000
0000
,
0110
0100
1100
1000
1010
0010
0011
0001
,
1001
1000
1100
0100
0110
0010
1010
0000
,
0101
0000
1001
0000
0110
0000
2100
0001
,
0010
0000
0000
3100
0000
0000
1100
0000
0000
0000
0011
0000
0000
0000
0110
0000
0000
0000
2001
0000
0000
0000
0000
0000
,
0010
0000
0002
3003
0000
0000
0102
0000
,
0000
1000
2000
0000
3113
0000
0010
0000
,
0110
0100
1100
1000
,
1100
0000
0100
0000
0100
0000
1001
1000
,
0010
0100
0001
1000
1000
1000
0010
0001
,
0100
0010
1000
0010
1000
1000
0012
0000
,
0100
2103
0001
3120
,
1000
0000
0231
0000
0010
0000
1301
1000
,
0010
0100
0001
1000
1000
1000
0010
0001
,
0100
0000
0000
0010
0000
0000
1000
0000
0000
0010
0000
0000
1000
0000
0000
1000
0000
0000
0011
0000
1000
0000
0010
0000
,
0100
0001
1000
0110
0001
1000
0001
0100
0010
1100
0001
1000
,
0010
0100
0001
0110
1000
0010
0100
0001
0100
1010
0000
0101
,
0000
0000
0000
0000
0110
0000
0000
0000
0000
0000
0000
0000
1100
0000
0000
0000
0000
0000
0000
0000
0101
0000
0000
0000
0000
0000
0000
0000
1010
0000
0000
0000
0000
0000
0000
0000
2001
0000
0000
0010
0000
0000
0100
0000
0000
0010
0000
0000
,
3001
0010
0100
1000
0001
0010
0100
1000
0010
0100
0001
1000
0011
0000
1000
0001
,
0100
0000
1010
0000
1010
0000
0001
0000
1100
0000
0011
0000
1001
0000
0010
0100
,
0010
1100
1100
0000
0110
0000
0011
0000
,
1100
0000
2001
0000
0001
0010
3011
0000
,
1001
0000
0102
0000
0100
1000
0113
0000
,
1001
0000
0201
0000
1000
0010
0311
0000
,
0101
1010
0101
2002
,
3113
0000
0102
0000
0010
0100
1013
0000
,
0110
0000
0102
0000
0100
0100
1103
0000
,
1001
0000
0011
0000
1010
0101
2010
0000
,
0010
0001
0000
3110
,
0011
0000
0000
0000
2020
0000
0000
0000
0000
0000
3030
0000
0100
1000
0001
0010
,
0100
1000
0001
0010
1100
0000
1000
0000
1000
0000
1000
0000
0010
0000
0001
0000
,
1000
1000
0020
0000
0032
2003
3020
0000
,
0000
0000
2030
0000
3001
0001
0200
0000
,
0301
0010
2000
0000
0000
0000
3110
0000
,
0000
0010
0102
0000
0000
1003
2000
0000
,
3010
0000
0000
1000
0000
0000
0100
0000
0000
0001
0000
0000
0100
0000
0010
0000
0100
0000
2001
0000
0000
0000
0000
0000
,
0000
0000
3010
0000
0001
0000
0010
0001
,
0010
0001
0011
0000
1100
0000
1001
0000
,
0000
0000
1002
0000
0000
0000
0000
0010
,
1000
0100
0010
0100
2003
0000
0000
0000
0000
0000
3001
0000
0110
0000
0000
0000
,
0000
0001
0100
0001
0010
0100
1000
0001
,
0100
0001
2000
0000
0000
0000
3011
0000
,
1000
0100
0010
0001
2000
0000
0000
0000
0000
0000
3001
0000
0102
0000
0000
0000
,
1003
0010
0001
1000
0010
1000
0010
1000
,
0001
1000
0002
0000
0113
0000
1001
0000
,
0000
0000
1002
0000
0000
0000
0000
0010
,
1000
0100
0010
0100
2003
0000
0000
0000
0000
0000
3001
0000
0110
0000
0000
0000
,
0000
0001
0100
0001
0010
0100
1000
0001
,
0100
0001
2000
0000
0000
0001
3011
0000
,
1000
0100
0010
0001
2000
0000
0000
0000
0000
0000
3001
0000
0102
0000
0000
0000
,
1003
0010
0001
1000
0010
1000
0010
0000
,
0001
1000
0002
0000
0113
0000
1001
0010
,
0100
0001
1100
0000
0011
0000
1001
0000
,
0000
0000
0012
0003
1000
0010
0001
1000
,
0010
0001
2000
3000
0011
0000
1010
0000
,
0101
0000
0012
0003
1000
0010
0001
1000
,
0010
0001
2000
3000
0011
0000
1010
0000
,
0101
0000
0012
0003
1000
0010
0001
1000
,
0010
0001
0100
1000
0001
1000
0010
0001
,
1000
0010
0001
0100
1000
0010
0100
0001
,
1000
0010
0001
1000
0010
0100
1000
0001
,
1000
0010
2000
0000
0010
0000
0100
0000
,
0001
0000
3012
0003
1000
0010
0001
1000
,
0010
0001
2000
3000
0011
0000
1010
0000
,
0101
0000
0012
0003
1000
0010
0001
1000
,
0010
0001
2000
3000
0011
0000
1010
0000
,
0101
0000
0012
1000
1000
0000
1003
1000
,
0100
0100
0001
1000
0001
1000
0012
0000
,
0000
1000
1003
0010
0001
1000
0010
0001
,
1000
0001
0110
0000
1001
0000
1001
0000
,
0000
0000
0000
0000
0001
0010
0100
1000
0001
0010
0100
1000
0010
0100
0001
1000
,
0010
0100
0000
1000
0011
0000
0000
0001
1010
0000
0000
0010
1001
0000
0000
0100
,
0011
0000
0000
0010
2001
0000
0000
0000
0000
0000
0000
0000
3000
0000
1100
0000
,
1001
0110
2001
0000
0000
0000
3000
0001
,
1000
1000
0010
1000
1000
0010
0001
1000
,
1000
0000
0000
1000
0000
0000
0010
0000
0000
0100
0000
0000
0001
0000
0000
1000
0000
0000
0110
0000
0000
0000
0011
0000
,
0000
0000
0000
0000
1100
0000
0000
0000
0000
0000
0000
0000
0012
0000
0000
0000
0000
0000
0000
0000
0000
0000
0000
0000
1003
0000
0000
0100
0000
0000
0010
0000
0000
0001
0000
0000
1000
0000
0000
0100
0000
0000
0010
0000
0000
0001
0000
0000
,
0100
0000
0000
0010
0000
0000
1000
0000
0000
0001
0000
0000
0110
0000
0000
0000
0000
0000
1000
0000
0100
0000
0010
0000
0001
0000
0000
1000
0000
0000
0010
0000
0000
0100
0000
0000
0001
0000
0000
1000
0000
0000
0010
0000
0000
0100
0000
0000
,
0011
0000
0000
0000
0000
0000
0001
0000
0010
0000
0100
0000
1000
0000
0000
0010
0000
0000
0100
0000
0000
0001
0000
0000
1000
0000
0000
0001
0000
0000
0100
0000
0000
0010
0000
0000
1000
0000
0000
0001
0000
0000
2010
0000
0000
0000
0000
0000
,
0000
0000
0000
0000
0000
0000
0001
0100
0001
3110
0000
0000
,
0000
0110
0000
0000
1100
0001
2010
0000
,
0000
0000
0000
0000
3001
0110
1000
0012
,
0000
0000
0000
0000
0000
0000
0000
0000
0000
0000
0000
0000
0003
0000
0000
1000
0010
0100
0002
0000
0000
0000
0000
0000
,
0000
0213
1310
0012
,
0000
0113
1020
2130
,
0000
0000
0000
0000
0000
0000
0001
0000
0000
3011
0100
1000
,
0001
0000
0010
0000
0100
0000
1000
0000
0100
0000
0010
0000
0001
0000
0000
0000
0000
0000
0000
0000
0000
0000
0000
0000
0000
0000
0000
0000
0000
0000
0011
0000
0000
1000
0000
0000
0001
0000
0010
0000
0100
0000
1000
0000
0100
0000
0010
0000
,
0001
0000
0000
1000
0000
0000
0011
1000
0010
0001
0001
0100
,
0011
1000
0010
0001
0001
0100
0011
1000
0010
0001
0001
0100
,
0011
0100
1000
1000
0010
0100
1002
0000
0000
0000
0000
0000
,
0000
1000
0013
0002
0000
0000
0000
0000
,
0000
0000
0000
0000
0000
0000
0003
0000
1000
0100
0010
0001
1000
0100
0010
0001
,
2100
0000
0000
0000
3011
0000
0000
0000
0001
0010
0100
1000
0001
0010
0100
1000
,
0012
0003
0210
0000
,
0000
0000
0000
0311
1000
0001
2010
0000
0000
0000
0000
0000
,
0000
0000
0000
3000
0000
0000
1000
0000
0010
0000
0001
0000
0011
0000
1000
0000
1000
0000
0010
0000
0001
0000
0100
0000
,
1010
0001
0001
0100
0010
1000
0110
0001
0001
1000
0010
0100
,
0011
1000
0010
0100
0100
0001
0011
1000
1000
0010
0101
0010
,
1100
0001
0001
0100
0011
1000
0110
0001
0001
1000
0110
0001
,
0110
1000
0010
1000
0110
0001
0011
1100
1100
0011
0101
0110
,
1010
0101
0101
1010
0101
1010
0110
0011
0011
1100
0011
1100
,
0011
1100
1100
0011
1100
0011
1100
0001
0100
0010
1000
0001
,
0110
1000
0001
0100
0010
1000
0110
0001
1000
0010
0100
0001
,
0110
0000
0000
0000
1000
0000
0000
0000
0010
0000
0000
0000
1000
0000
0000
0000
0001
0000
0000
0000
0010
0000
0000
0000
1000
0000
0100
0000
0010
0000
0001
0000
0000
1000
0000
0000
0010
0000
0100
0000
0001
0000
1000
0000
0010
0000
0100
0000
,
0001
0000
0000
1000
0000
0000
0010
0000
0000
0100
0000
0000
0001
0000
1000
0000
0010
0000
0100
0000
0001
0000
1000
0000
0001
0000
0100
0000
0010
0000
1000
0000
0000
0010
0000
0000
0100
0000
0000
0001
1000
0000
0010
0000
0100
0000
0001
0000
,
2100
0000
0000
0000
0000
0000
0000
0000
0000
0000
0000
0000
0000
0000
0000
0000
0000
0000
0000
0000
0000
0000
0000
0000
0000
0000
0000
0000
0000
0000
0000
0000
0000
0000
0000
0000
0000
0000
0000
0000
0000
0000
0000
0000
0000
0000
0000
0000
0000
0000
0000
0000
0000
0000
0000
0000
0000
0000
0000
0000
0000
0000
0000
0000
0000
0000
0000
0000
0000
0000
0000
0000
0000
0000
0000
0000
0000
0000
0000
0000
0000
0000
0000
0000
0000
0000
0000
0000
0000
0000
0000
0000
0000
3000
0000
0000
1000
0000
0000
0000
0000
0000
0000
0000
0100
0000
0000
0000
0000
0000
0000
0000
0010
0000
0000
0000
0000
0000
0000
0000
0001
0000
0000
0000
0000
0000
0000
0000
0000
0000
0000
0000
1000
0000
0000
0000
0000
0000
0000
0000
0000
0000
0000
0000
0010
0000
0000
0000
0000
0000
0000
0000
0100
0000
0000
0000
0000
0000
0000
0000
0001
0000
0000
0000
0000
0000
0000
0000
1000
0000
0000
0000
0000
0000
0000
0000
0010
0000
0000
0000
0000
0000
0000
0000
0100
0000
0000
0000
0000
0000
0000
0000
,
0001
0000
0000
1000
0000
0000
0010
0000
0000
0100
0000
0000
0001
0000
1000
0000
0010
0000
0100
0000
0001
0000
1000
0000
0012
0000
0000
0000
0000
0000
0000
0000
0000
0000
0000
0000
0000
0000
0000
0000
0000
0000
0000
0000
0000
0000
0000
0000
,
0000
0000
0000
0003
0000
0000
0110
0000
0000
0001
0100
0010
,
2000
0000
0000
0000
0000
0000
0000
0000
3000
0000
0000
0000
1000
0000
0000
0000
0010
0000
0000
0000
0100
0000
0000
0000
0002
0000
0000
0000
0000
0000
0000
0000
0003
0000
0000
0000
0001
0000
0000
0000
0010
0000
0100
0000
0000
1000
0000
0000
,
0011
0100
0010
1000
0001
0100
0010
1000
0012
0000
0000
0000
1000
0100
0010
1000
,
0100
0010
0100
1000
0013
0100
1000
0010
0102
0000
0000
0000
0010
0100
1000
0010
,
0103
0001
1100
0000
0000
0000
0000
0000
0012
0000
0000
0000
0000
0000
0000
0000
,
0000
0000
0010
0100
1003
0010
0100
0001
1100
0000
0000
0000
0000
0000
0000
0000
,
0000
0000
2002
0000
,
0000
0000
0000
0000
0000
3103
0001
1000
,
0010
0010
0001
0220
0000
0000
0000
0330
,
0001
0000
0010
0000
0100
0000
1000
0000
0010
0000
0100
0000
0011
0000
0000
0000
0000
0000
0110
0000
0000
0110
0000
0000
,
0110
0000
0110
0000
0110
0000
0110
1000
0010
0100
0001
0010
0100
1000
0001
1000
,
0011
0100
0010
0100
0010
1000
0001
0100
0010
1000
0001
0010
0100
1000
0100
0010
,
0101
1000
0010
0100
0001
0010
0001
1000
0010
1000
0001
0100
0001
1000
0010
0100
,
1001
0100
0010
1000
0001
1000
0001
0100
0010
1000
0100
0010
0001
0010
0100
1000
,
0011
1000
0010
0100
0001
1000
0010
0100
0001
1000
0010
0100
0001
1000
0001
0100
,
1010
0100
0010
0100
0001
1000
0001
0100
0010
1000
0001
0100
0010
1000
0001
0010
,
0101
1000
0001
0010
0100
1000
0010
0100
0011
0000
0000
0000
0110
0000
0000
0000
,
1100
0000
0000
0110
0000
0000
1001
0000
0101
0000
1010
0000
,
0110
0000
0011
0000
0110
0000
2001
0000
0000
0010
0000
0000
,
0002
3003
0000
0000
0102
0000
0000
1000
,
2000
3113
0010
0110
,
0100
1100
1000
1100
,
0100
0000
0100
0000
1001
1000
0010
0100
,
0001
1000
1000
1000
0010
0001
0100
0010
,
1000
0010
1000
1000
0012
0000
0100
0000
,
2103
0001
3120
1000
,
0231
0000
0010
0000
1301
1000
0010
0100
,
0001
1000
1000
1000
0010
0001
0100
0010
,
1000
0000
0000
0010
0000
0000
1000
0000
0000
1000
0000
0000
0011
0000
1000
0000
0010
0000
0100
0000
0001
0000
1000
0000
,
0110
0001
1000
0001
0100
0010
1100
0001
1000
0010
0100
0001
,
0110
1000
0010
0100
0001
0100
1010
0000
0101
0000
0110
0000
,
1100
0000
0000
0000
0000
0000
0000
0000
0101
0000
0000
0000
0000
0000
0000
0000
1010
0000
0000
0000
0000
0000
0000
0000
2001
0000
0000
0010
0000
0000
0100
0000
0000
0010
0000
0000
3001
0000
0000
0010
0000
0000
0100
0000
0000
1000
0000
0000
,
0001
0010
0100
1000
0010
0100
0001
1000
0011
0000
1000
0001
0100
0000
1010
0000
,
1010
0000
0001
0000
1100
0000
0011
0000
1001
0000
0010
0100
0010
0000
1100
0000
,
1100
0110
0011
1100
,
2001
0000
0001
0010
3011
0000
1001
0000
,
0102
0000
0100
1000
0113
0000
1001
0000
,
0201
0000
1000
0010
0311
0000
0101
0000
,
1010
0101
2002
3113
,
0102
0000
0010
0100
1013
0000
0110
0000
,
0102
0000
0100
0100
1103
0000
1001
0000
,
0011
0000
1010
0101
2010
0000
0010
0000
,
0001
0000
3110
0011
,
2020
0000
0000
0000
0000
0000
3030
0000
0100
1000
0001
0010
0100
1000
0001
0010
,
2001
0000
0001
0010
3011
0000
1001
0000
,
0102
0000
0100
1000
0113
0000
1001
0000
,
0201
0000
1000
0010
0311
0000
0101
0000
,
1010
0101
2002
3113
,
0102
0000
0010
0100
1013
0000
0110
0000
,
0102
0000
0100
0100
1103
0000
1001
0000
,
0011
0000
1010
0101
2010
0000
0010
0000
,
0001
0000
3110
0011
,
2020
0000
0000
0000
0000
0000
3030
0000
0100
1000
0001
0010
0100
1000
0001
0010
,
1000
0010
0100
0001
1100
0000
0001
1000
0010
0100
0011
0000
1000
0010
0100
0001
,
1100
0000
0011
0000
0011
0000
0110
0000
0110
0000
1100
0000
1100
0001
1000
0010
,
0101
0000
0001
1000
0010
0001
0110
0000
1000
0010
0100
0001
1100
0000
0001
0010
,
0100
1000
0010
0100
0001
0010
1000
0001
1100
0001
0010
0100
0011
1000
0010
0100
,
0011
0000
1000
0010
0100
0001
1100
0000
0010
0100
0010
0100
0011
0000
1000
0000
,
1000
0000
0010
0000
0010
0000
0011
0000
0011
1000
0100
0010
0101
0000
1000
0010
,
0100
0001
0110
0000
0100
0010
0100
0010
1100
0000
0001
0000
1000
0010
0100
0000
,
0001
1000
0010
0000
1000
0010
0001
0010
2200
0000
0000
0000
0000
0000
0000
0000
,
3300
0000
0000
0000
;
