#TITLE:TGTMN;
#SUBTITLE:;
#ARTIST:DJ SHARPNEL;
#TITLETRANSLIT:;
#SUBTITLETRANSLIT:;
#ARTISTTRANSLIT:;
#CREDIT:;
#BANNER:TGTMN.png;
#BACKGROUND:TGTMN-bg.png;
#LYRICSPATH:;
#CDTITLE:;
#MUSIC:DJ SHARPNEL - TGTMN.mp3;
#OFFSET:-5.215;
#SAMPLESTART:75.460;
#SAMPLELENGTH:29.980;
#SELECTABLE:YES;
#BPMS:0.000=186.260,544.000=745.040,548.000=186.260;
#STOPS:232.000=1.289
,544.000=0.241
,545.000=0.243
,546.000=0.483
;
#BGCHANGES:;
// cache tags:
#FIRSTBEAT:0.000;
#LASTBEAT:680.000;
#SONGFILENAME:Songs/mongol/TGTMN/TGTMN.sm;
#HASMUSIC:1;
#HASBANNER:1;
#MUSICLENGTH:231.938;
// end cache tags

//---------------dance-single - ----------------
#NOTES:
     dance-single:
     :
     Challenge:
     12:
     0.854,1.000,1.000,0.086,0.209,1128.000,238.000,20.000,0.000,4.000:

1000
0000
0000
0000
0100
0000
0001
1000
0010
0100
0001
0000
0000
0000
0010
1000
,
0001
0000
0000
0100
0010
0000
0000
0001
1000
0001
0010
0000
0100
0000
0100
0000
,
0000
0000
0000
0000
0001
0000
1000
0001
1000
0001
1000
0000
0000
0000
0010
0100
,
0001
0000
0000
1000
0010
0000
0000
0001
0100
0000
0000
0100
0010
0000
0000
0000
,
1001
0000
1000
0000
0100
1001
0000
0000
,
0101
0000
1000
0010
1001
1000
0100
0010
,
0001
0010
0100
0010
0001
1000
0100
1000
,
0001
0000
1000
0000
0010
0000
0100
0000
0010
0000
0010
0100
0001
0100
0010
1000
,
1001
0110
0011
1100
,
0110
0011
0110
0011
,
1001
1100
1010
0101
,
0110
0000
0011
0000
1100
0000
0010
0001
,
0110
0011
0110
1100
,
1010
0101
0011
1100
,
0110
0011
1100
0110
,
0011
0000
0110
0000
1100
0000
1010
0000
0101
0000
0110
0000
1010
0000
1001
0010
,
0100
0000
0000
1000
0010
0000
0000
0010
0100
0000
0000
0001
1000
0000
0000
0010
,
0100
0000
0000
1000
0001
0000
0000
1000
0100
0000
0000
0100
0010
0000
0000
0010
,
0001
0000
0000
0010
1000
0000
0000
0001
0100
0000
0000
0100
0010
0000
0000
0010
,
0100
0000
0000
0001
1000
0000
0000
0010
0100
0000
0010
0100
1000
0000
0100
0000
,
0010
0100
1000
0001
0100
0010
0001
0010
,
0100
0001
0010
1000
0100
0010
0001
0010
,
1100
0100
0110
0001
0011
0100
0110
1000
,
0001
1000
0001
1000
0001
1000
0001
1000
0001
0100
0010
1000
0001
0100
0010
0001
,
0010
0000
0000
0000
,
1000
0100
0010
0100
0010
0001
0100
0010
1000
0001
0100
0010
0001
1000
0100
0001
,
0010
0000
1000
0001
0100
0010
0101
0000
,
1010
0000
0001
1000
0100
0010
0001
0000
,
0110
0000
0001
0010
0100
1000
1001
0000
,
1010
0000
0101
0010
0000
0001
1010
0000
,
1001
0000
0010
0100
0001
0100
0010
1000
,
1001
0000
0100
1000
0001
0010
0100
0010
,
0011
0000
0000
0000
0000
0000
0000
0000
0000
0000
0100
0010
0100
0000
0001
0000
,
1010
0101
0110
0000
,
1100
0001
0100
0110
1000
0001
1100
0001
,
0110
0001
0010
0110
0001
0100
1001
0010
,
1001
0010
0100
0101
0010
0001
1010
0001
,
0110
1000
0100
1001
0010
0001
1100
0100
,
0011
1000
0100
0110
0100
1000
0011
0001
,
1100
0010
0100
1001
0010
0100
1010
0010
,
0101
0000
1000
0000
0100
0000
0010
0000
0000
0000
0010
0100
1000
0000
0100
0000
,
0110
0000
0000
0000
1001
0000
0000
0000
1001
0000
0110
0000
1000
0100
0010
0001
,
0100
0010
0100
0000
0000
0000
1000
0100
0010
0000
0000
0000
0100
1000
0100
0000
,
0010
0100
0010
0000
0000
0000
0001
0010
0100
0000
0000
0000
0010
0100
0001
0000
,
1000
0100
0010
0000
0000
0000
0100
0010
0001
0000
0000
0000
0010
1000
0100
0000
,
1000
0100
0010
0000
0000
0000
0100
0010
1000
0000
0000
0000
0001
0100
1000
0000
,
0010
0100
0010
0000
0000
0000
1000
0010
0100
0000
0000
0000
0100
1000
0100
0000
,
0001
0010
0100
0000
0000
0000
0010
0100
1000
0000
0000
0000
0001
0010
0001
0000
,
0100
0010
0100
0000
0000
0000
0000
0000
0000
0000
0001
1000
0001
0000
0010
0000
,
0100
0010
0100
0010
0100
0010
0100
0010
,
0100
0001
1000
0010
0100
0001
1000
0010
,
0010
0001
0010
0100
0010
0001
1000
0100
,
1000
0001
1000
0010
0100
0001
1000
0010
,
0100
0001
1000
0010
0100
0001
0010
0001
,
1000
0100
1000
0001
0010
0100
0010
0001
,
0010
0100
0010
0001
1000
0010
0100
0001
,
1000
0010
0100
0001
1000
0010
0100
0001
,
0001
0100
1000
0100
0010
0100
0001
0010
,
1001
0000
0000
0000
,
1000
1000
1000
1000
0100
0100
0100
0100
,
0010
0010
0010
0010
0001
0001
0001
0001
,
0100
0100
0100
0100
0010
0010
0010
0010
,
1000
1000
1000
1000
0100
0100
0001
0000
,
0001
0001
0001
0001
0010
0010
0010
0010
,
0100
0100
0100
0100
1000
1000
1000
1000
,
0001
0001
0001
0001
0010
0010
0010
0010
,
0110
0110
0110
0110
0110
0110
0110
0110
,
0110
0001
1100
1000
0110
0100
0011
0100
,
1100
1000
0110
0100
0011
1000
0110
0010
,
1001
0100
0110
0010
1001
0100
0110
1000
,
1100
0010
0110
0001
0011
0010
0101
0100
,
1100
1000
0110
0010
0101
0001
1001
1000
,
1100
0100
0110
0100
1100
0010
0110
0001
,
0011
0010
1001
0010
1100
0001
0110
0010
,
1100
0001
0101
0001
1100
1000
0110
0100
,
1001
1000
0100
0001
0020
0000
0000
0000
,
0130
1000
0001
0010
0200
0000
0302
0000
,
0000
0013
1000
0001
0200
0000
0000
0000
,
0310
0010
0001
1000
0020
0000
0230
0000
,
0000
0301
1000
0100
0020
0000
0000
0000
,
0031
0010
0100
1000
0002
0000
0023
0000
,
0000
0031
0001
1000
0020
0000
0000
0000
,
0031
0010
0100
1000
0012
0000
1203
0000
,
0300
1001
0000
1001
0000
1001
0000
1001
,
0000
0110
0000
0110
0000
0110
0110
0000
,
0000
1100
0000
1100
0000
1100
0000
1100
,
0000
0011
0000
0011
0000
0011
0011
0000
,
0000
1010
0000
1010
0000
1010
0000
1010
,
0000
0101
0000
0101
0000
0101
0101
0000
,
0000
1001
0000
0110
0000
1001
0000
0110
,
0000
0000
1001
0000
0000
0000
0000
0000
0000
0000
1000
0100
0010
0001
0010
0100
,
1000
0000
0000
0000
0000
0000
0000
0000
0001
0000
0100
1000
0100
0000
1000
0000
,
0001
1010
0001
0110
,
0001
1100
0001
0110
,
0001
1010
0001
0110
,
0001
0000
1010
0000
0001
0100
0010
0000
,
0001
1100
0001
0110
,
0001
1100
0001
0110
,
0001
0110
1100
1010
,
1100
0000
0110
0000
1001
0000
0010
0100
,
1000
0101
1000
0110
,
1000
0110
1000
0101
,
1000
1001
1000
1010
,
0100
0110
1000
1001
,
0010
0100
0001
1000
0100
0010
0001
0010
,
0100
1000
0001
1000
0010
0100
0001
1000
,
0010
0100
1000
0001
0100
0001
0010
0100
2002
0000
0000
0000
0000
0000
0000
0000
,
3103
0000
0100
0000
0100
0000
0100
0001
,
0220
0000
0000
0000
,
1330
0000
1000
0000
0000
1000
0100
0000
0010
0000
0000
0000
0001
0000
0010
0000
,
0100
1001
0100
1001
,
0010
0100
0001
1000
0010
0100
0001
1000
,
0010
1100
0001
0011
,
0100
0010
0001
1000
0010
0100
0001
1000
,
0010
0000
0010
0100
0001
0000
0001
1000
,
0100
0000
0100
0010
0001
0000
0001
1000
,
0100
0001
0010
1000
,
0100
0000
1000
0000
0001
0000
0100
0000
0010
0000
0100
0000
0001
1000
0100
0010
,
0100
0000
0000
0000
0000
0000
0000
0000
1001
0000
0000
0000
0100
0001
1000
0001
,
0100
0001
1000
0010
0100
0001
0000
0000
,
0001
1000
0100
0010
0001
0000
0000
0000
,
0010
0000
0010
0000
1000
0000
0000
0100
0000
0000
0000
0000
0000
0000
0000
0000
,
0001
0000
0001
0000
0010
0000
0000
1000
0000
0000
0000
0000
0000
0000
0100
0000
,
0010
1000
0001
1000
0100
0000
0100
1000
,
0001
0000
0000
0010
0100
0000
0000
0001
,
0001
1000
0010
0100
0001
1000
0010
0100
,
0001
0010
0000
0010
,
1000
0000
0100
0000
0000
0000
0001
1000
,
0010
0010
0010
0010
,
0010
0100
0001
1000
0100
0010
0001
0010
,
0110
0000
1001
0000
1100
0001
1000
0010
,
0101
0000
0110
0000
0001
1000
0010
0100
,
0101
0000
0000
0000
1010
0000
0000
0000
1000
0000
0001
0000
0000
0010
0000
0000
,
0100
0000
0001
0000
1000
0010
0100
0001
,
1000
0010
0100
0001
0010
1000
0001
0100
,
0010
0000
0000
0000
,
1001
0110
1001
0000
,
1001
0100
0001
0110
1000
0100
1001
0010
,
1100
0001
0100
0011
1000
0001
0110
0010
,
1001
0100
0001
1010
0100
1000
0101
0001
,
0110
0010
0100
1001
0010
0001
1100
0100
,
0011
1000
0001
0110
0100
0010
1001
0100
,
1010
0010
1000
0101
1000
0100
0110
0010
,
1001
0000
0000
0000
0000
0000
0000
0000
0000
0000
1000
0010
0001
0000
0100
0000
,
1000
0000
0010
0000
0001
0000
0100
0010
,
0001
0010
0100
1100
0010
0100
1001
1000
,
0110
0100
0010
0101
1000
0100
1010
0010
,
1100
0001
0100
0011
1000
0100
0110
0010
,
1001
0100
0010
1010
0001
0010
0101
1000
,
0110
0100
0010
1001
0100
0010
1100
0100
,
0011
1000
1000
0110
0100
0010
1001
0000
,
1001
0000
0000
0000
0000
0000
0000
0000
0000
0000
0100
0010
1000
0000
0001
0000
,
0220
0000
0000
0000
,
1330
0001
0100
0010
1000
0001
0100
0010
,
0100
0001
0100
0010
1000
0001
1000
0100
,
0100
0010
0001
0010
0100
0010
0001
1000
,
0010
0100
0001
0100
0010
1000
0001
0001
,
0001
0001
1000
0010
0100
0001
1000
0010
,
0010
0100
0001
1000
0010
0010
0100
0100
,
0100
1000
1000
0001
0100
0010
1000
0001
,
0100
0010
1000
0001
0110
0001
1010
0001
,
1010
0001
0100
0010
0001
0100
0010
1000
,
0001
0010
0100
0010
0001
1000
0100
1000
,
1001
0001
1000
0010
0100
0001
1000
0010
,
0100
0001
0010
1000
0001
0010
1000
0001
,
1000
0100
1001
0010
0100
0001
1000
0010
,
0100
0001
1000
0100
0010
0001
0010
0100
,
0010
0001
1000
0100
1000
0001
0100
0010
,
1000
0100
0001
0010
0100
0001
1000
0100
0010
1000
0100
0001
0010
1000
0100
0010
,
2002
0000
0000
0000
,
3003
0000
0000
0000
;
