#TITLE:Beat the Drum Hard;
#SUBTITLE:(Kobaryo FTN-Remix);
#ARTIST:Sinister Souls;
#TITLETRANSLIT:;
#SUBTITLETRANSLIT:;
#ARTISTTRANSLIT:;
#CREDIT:;
#BANNER:../ban - Jawn2.png;
#BACKGROUND:../Jawn2 - bg.png;
#LYRICSPATH:;
#CDTITLE:../CDa.png;
#MUSIC:Beat the Drum Hard (Kobaryo FTN-Remix).ogg;
#OFFSET:0.009;
#SAMPLESTART:18.382;
#SAMPLELENGTH:12.000;
#SELECTABLE:YES;
#BPMS:0.000=280.000;
#STOPS:;
#BGCHANGES:;
// cache tags:
#FIRSTBEAT:32.000;
#LASTBEAT:639.500;
#SONGFILENAME:Songs/Jimmy Jawns 2/Beat the Drum Hard (Kobaryo FTN-Remix) - [Aoreo]/Beat the Drum Hard (Kobaryo FTN-Remix).sm;
#HASMUSIC:1;
#HASBANNER:1;
#MUSICLENGTH:138.357;
// end cache tags

//---------------dance-single - J. Nero----------------
#NOTES:
     dance-single:
     J. Nero:
     Challenge:
     13:
     0.974,1.000,0.087,0.788,0.466,815.000,12.000,109.000,2.000,0.000:
0000
0000
0000
0000
,
0000
0000
0000
0000
,
0000
0000
0000
0000
,
0000
0000
0000
0000
,
0000
0000
0000
0000
,
0000
0000
0000
0000
,
0000
0000
0000
0000
,
0000
0000
0000
0000
,
1000
0100
1000
0001
,
0010
0100
1000
0001
,
0100
0000
0000
0000
0000
0000
0000
0000
0000
0000
0000
0000
0000
0000
0000
0000
0010
0000
0000
0000
0000
0000
0000
0000
0000
0000
0000
0000
0000
0000
0000
0000
0100
0000
0000
0000
0000
0000
0000
0000
0000
0000
0000
0000
0000
0000
0000
0000
0002
0003
0000
0000
0000
0000
0000
0000
0000
0000
0000
0000
0000
0000
0000
0000
,
2000
3000
0000
0000
0000
0000
0000
0000
0000
0000
0000
0000
0000
0000
0000
0000
0200
0000
0300
0000
0000
0000
0000
0000
0000
0000
0000
0000
0000
0000
0000
0000
2000
0000
0000
3000
0000
0000
0000
0000
0000
0000
0000
0000
0000
0000
0000
0000
0020
0000
0000
0030
0000
0000
0000
0000
0000
0000
0000
0000
0000
0000
0000
0000
,
0200
0000
0000
0000
0300
0000
0000
0000
0000
0000
0000
0000
0000
0000
0000
0000
0002
0000
0000
0000
0003
0000
0000
0000
0000
0000
0000
0000
0000
0000
0000
0000
2000
0000
0000
0000
0000
3000
0000
0000
0000
0000
0000
0000
0000
0000
0000
0000
0200
0000
0000
0000
0000
0300
0000
0000
0000
0000
0000
0000
0000
0000
0000
0000
,
0020
0000
0000
0000
0000
0030
0000
0000
0000
0000
0000
0000
0000
0000
0000
0000
0002
0000
0000
0000
0000
0000
0000
0003
0000
0000
0000
0000
0000
0000
0000
0000
2000
0000
0000
0000
0000
0000
0000
0000
3000
0000
0000
0000
0000
0000
0000
0000
0002
0000
0000
0000
0000
0000
0000
0000
0000
0003
0000
0000
0000
0000
0000
0000
,
0200
0000
0000
0000
0000
0000
0000
0000
0000
0000
0300
0000
0000
0000
0000
0000
0020
0000
0000
0000
0000
0000
0000
0000
0000
0000
0000
0030
0000
0000
0000
0000
2000
0000
0000
0000
0000
0000
0000
0000
0000
0000
0000
0000
3000
0000
0000
0000
0200
0000
0000
0000
0000
0000
0000
0000
0000
0000
0000
0000
0000
0300
0000
0000
,
0020
0000
0000
0000
0000
0000
0000
0030
0002
0000
0000
0000
0000
0000
0000
0000
M003
0000
0000
0000
0000
0000
0000
0000
0000
0000
0000
0000
0000
0000
0000
0000
,
0000
0000
0000
0000
,
0000
0000
0000
0000
,
0000
0000
0000
0000
,
0000
0000
0000
0000
,
0000
0000
0000
0000
,
0000
0000
0000
0000
,
0000
0000
0000
0000
,
0000
0000
0000
0000
,
1000
0010
0100
0010
,
1000
0000
0100
0000
0010
0000
0002
0003
,
0100
0001
0010
0100
,
1000
0000
0000
0000
0010
0000
0100
0000
0001
1000
0001
0100
0020
0000
0030
0000
,
0100
0001
0010
0100
,
1000
0000
0010
0000
0100
0000
0002
0003
,
1000
0100
0010
0100
,
1000
0000
0010
0000
1000
0001
0100
0000
0001
0000
0000
0000
0011
0000
0000
0000
,
0010
0100
1000
0010
,
0100
0000
0010
0000
1000
0000
0200
0300
,
0010
0001
0100
0001
,
1000
0000
0000
0000
0010
0000
0100
0000
0001
1000
0001
0010
0200
0000
0300
0000
,
1000
0010
0100
0010
,
1000
0000
0100
0000
0010
0000
0002
0003
,
0100
0001
1000
0001
0040
0030
0400
0300
,
1000
0001
1000
0010
0100
0001
1000
0001
0000
0000
0000
0000
0000
0000
0000
0000
,
0000
0000
0000
0000
,
1000
0100
1000
0001
0100
0001
0010
0100
,
0010
0001
1000
0001
0100
0010
1000
0001
,
1000
0000
0100
0000
0010
0000
0001
0000
1000
0001
1000
0010
0200
0000
0300
0000
,
0001
1000
0001
0010
0100
0000
1000
0000
0010
0100
0001
1000
0001
0100
0010
1000
,
0100
0010
0001
1000
0001
0100
0010
1000
,
0100
0010
0001
1000
0001
0100
0010
1000
,
0100
0010
0004
0003
1000
0000
1010
0000
,
0010
0100
0001
0010
,
0001
0000
1000
0000
0100
0000
0020
0030
,
0001
0100
0001
1000
,
0010
0000
0000
0000
0100
0000
0001
0000
1000
0001
1000
0100
0020
0000
0030
0000
,
0001
0100
0001
0010
,
0100
0000
1000
0000
0010
0000
0200
0300
,
0001
0000
1000
0000
0100
0000
1000
0000
0010
0000
0400
0300
0010
0000
0400
0300
,
0001
1000
0001
0010
0100
0000
1000
0000
0001
1000
0001
0100
0010
1000
0001
1000
,
0000
0000
0000
0000
,
0001
0000
0102
0000
0103
0000
0010
1000
,
0100
0000
0210
0000
0310
0000
0001
1000
,
0010
0000
0000
0000
1020
0000
0000
0000
1030
0000
0010
0100
0001
0000
0010
0000
,
0100
0000
1200
0000
1300
0000
0010
0100
,
0001
0000
0012
0000
0013
0000
0100
1000
,
0010
0000
0120
0000
0130
0000
0001
1000
,
0100
0000
0000
0000
1200
0000
0000
0000
1300
0000
0001
1000
0010
0000
0100
0000
,
0001
1000
0100
0010
0000
0001
0100
0010
,
0000
1000
0100
0010
0000
0001
0100
0010
,
0000
1000
0100
0010
0000
0001
0100
0010
,
0000
0000
1000
0000
0100
0000
0010
0000
0000
0000
0001
0100
0010
0000
1000
0000
,
0000
0001
0010
0100
0000
1000
0010
0100
,
0000
0001
0010
0100
0000
1000
0010
0100
,
0000
0001
0010
0100
0000
1000
0010
0100
,
0000
0000
0001
0000
1000
0000
0010
0000
1000
0010
1000
0001
0010
0100
1000
0001
,
2000
0000
0000
0000
,
0000
0000
0000
0000
,
0000
0000
0000
0000
0000
3000
2000
0000
,
3200
0320
0032
2003
,
3002
0023
0230
2300
,
3020
0000
0000
0000
0000
0000
0000
0000
0000
0000
0000
0000
0000
0030
0000
0000
0200
0000
0000
0000
0000
0000
0000
0000
0000
0000
0000
0000
0300
0000
0000
0000
0020
0000
0000
0000
0000
0000
0000
0000
0000
0000
0000
0030
0000
0000
0000
0000
2000
0000
0000
0000
0000
0000
0000
0000
0000
0000
3000
0000
0000
0000
0000
0000
,
0200
0000
0000
0000
0000
0000
0000
0000
0000
0300
0000
0000
0000
0000
0000
0000
0020
0000
0000
0000
0000
0000
0000
0000
0030
0000
0000
0000
0000
0000
0000
0000
0002
0000
0000
0000
0000
0000
0003
0000
0000
0000
0000
0000
0000
0000
0000
0000
2000
0000
0000
0000
0000
3000
0000
0000
0000
0000
0000
0000
0000
0000
0000
0000
,
0020
0000
0000
0000
0030
0000
0000
0000
0000
0000
0000
0000
0000
0000
0000
0000
0200
0000
0000
0300
0000
0000
0000
0000
0000
0000
0000
0000
0000
0000
0000
0000
0020
0000
0030
0000
0000
0000
0000
0000
0000
0000
0000
0000
0000
0000
0000
0000
1000
0000
0000
0000
0000
0000
0000
0000
0000
0000
0000
0000
0000
0000
0000
0000
,
0002
0003
0000
0000
0000
0000
0000
0000
0000
0000
0000
0000
0000
0000
0000
0000
0200
0000
0300
0000
0000
0000
0000
0000
0000
0000
0000
0000
0000
0000
0000
0000
0002
0000
0000
0003
0000
0000
0000
0000
0000
0000
0000
0000
0000
0000
0000
0000
0020
0000
0000
0000
0030
0000
0000
0000
0000
0000
0000
0000
0000
0000
0000
0000
,
0200
0000
0000
0000
0000
0300
0000
0000
0000
0000
0000
0000
0000
0000
0000
0000
2000
0000
0000
0000
0000
0000
3000
0000
0000
0000
0000
0000
0000
0000
0000
0000
0002
0000
0000
0000
0000
0000
0000
0003
0000
0000
0000
0000
0000
0000
0000
0000
0200
0000
0000
0000
0000
0000
0000
0000
0300
0000
0000
0000
0000
0000
0000
0000
,
0020
0000
0000
0000
0000
0000
0000
0000
0000
0030
0000
0000
0000
0000
0000
0000
0200
0000
0000
0000
0000
0000
0000
0000
0000
0000
0300
0000
0000
0000
0000
0000
0002
0000
0000
0000
0000
0000
0000
0000
0000
0000
0000
0003
0000
0000
0000
0000
2000
0000
0000
0000
0000
0000
0000
0000
0000
0000
0000
0000
3000
0000
0000
0000
,
0200
0000
0000
0000
0000
0000
0000
0000
0000
0000
0000
0000
0000
0300
0000
0000
0020
0000
0000
0000
0000
0000
0000
0000
0000
0000
0000
0000
0000
0000
0030
0000
0002
0000
0000
0000
0000
0000
0000
0000
0000
0000
0000
0000
0000
0000
0000
0003
2000
0000
0000
0000
0000
0000
0000
0000
0000
0000
0000
0000
0000
0000
0000
0000
,
3020
0230
0320
2030
,
3002
0023
0230
2300
,
3020
0230
0302
2003
,
3000
0000
0000
0000
,
2002
0000
3003
0001
,
0100
0001
1000
0001
0000
0010
0100
0000
0000
1000
0000
0010
,
0100
0100
0001
1000
,
0001
0100
0001
0000
1000
0000
0001
0000
0000
0000
0100
0000
0010
0000
0000
0000
0000
0000
1000
0000
0000
0000
0001
0010
,
0200
0000
1300
0001
,
0100
0001
1000
0001
0000
0010
0100
0000
0000
1000
0000
0010
,
0200
0000
0000
0000
0301
1000
0100
1000
,
0010
0000
0000
0000
0000
0000
0100
0000
0000
0001
0000
0000
0100
0000
0000
0000
0000
0000
0001
0000
0000
0000
0000
0000
0010
0000
0000
0000
0100
0000
0000
0000
1000
0000
0000
0000
0001
0000
0000
0000
0000
0000
0000
0000
0000
0000
0000
0000
,
2000
0000
3001
0100
,
0001
1000
0001
0010
0000
0100
1000
0000
0000
0010
0000
0100
,
0001
0001
1000
0010
,
0100
0001
0100
0000
0010
0000
1000
0000
0000
0000
0001
0000
0010
0000
0000
0000
0000
0000
0100
0000
0000
0000
1000
0100
,
0020
0000
0031
1000
,
0010
0100
0001
0010
0000
0100
1000
0000
0000
0001
0000
0100
,
0010
0010
0000
0000
,
0000
0000
0000
0000
,
1000
0001
1000
0000
0100
0000
0010
0000
0001
0000
0100
0000
0010
0000
1000
0000
,
0001
0100
0001
0000
0010
0000
0100
0000
1000
0000
0010
0000
0100
0000
0010
0000
,
1000
0001
1000
0000
0100
0000
0010
0000
0001
0000
1000
0000
0010
0000
0100
0000
,
0001
0000
0010
0000
0001
0000
0000
0000
1000
0000
0000
0000
0010
0000
0000
0000
0100
0000
0000
0000
0020
0030
0000
0000
2000
0000
0000
3000
0200
0000
0300
0000
,
1000
0010
1000
0000
0001
0000
0100
0000
0001
0000
1000
0000
0100
0000
0010
0000
,
0001
0100
0001
0000
1000
0000
0010
0000
0100
0000
0010
0000
1000
0000
0001
0000
,
1000
0100
1000
0000
0010
0000
1000
0000
0001
0000
0010
0000
0100
0000
1000
0000
,
0001
0100
0001
0000
1000
0000
0001
0000
0100
0000
0000
0000
0001
0000
0000
0000
,
1000
0010
0100
0000
0001
0000
0010
0000
0100
0000
1000
0000
0010
0000
0100
0000
,
0001
0010
0100
0000
1000
0000
0010
0000
1000
0000
0001
0000
0100
0000
0001
0000
,
1000
0010
0100
0000
0001
0000
1000
0000
0010
0000
1000
0000
0100
0000
0010
0000
,
0001
0000
1000
0000
0100
0000
0000
0000
1000
0000
0000
0000
0010
0000
0000
0000
0100
0000
0000
0000
0002
0003
0000
0000
0020
0000
0000
0030
0002
0000
0003
0000
,
1000
0100
0010
0000
0001
0000
0100
0000
0001
0000
1000
0000
0010
0000
0100
0000
,
0001
1000
0100
0000
0010
0000
0100
0000
1000
0000
0010
0000
0100
0000
0001
0000
,
1000
0010
0100
0000
0001
0000
0010
0000
0001
0000
1000
0000
0100
0000
0010
0000
,
0001
0100
0001
1000
0000
0010
0100
0000
,
0001
0000
0000
0000
1000
0000
0100
0000
0000
0000
1000
0000
0001
0100
0001
1000
,
0100
0000
0010
0001
0000
1000
0001
0000
,
1000
0001
1000
0100
0010
0000
0001
0000
1000
0000
0010
0000
0100
0010
1000
0001
,
1000
0000
0001
0100
0001
0000
0010
0000
0100
0000
1000
0000
0010
0000
0100
0000
,
0002
0000
0000
0000
0000
0000
0000
0000
1003
0100
1000
0001
0100
0000
0010
0000
,
1000
0000
0001
0100
0000
0001
0010
0000
,
0100
1000
0001
1000
0010
0000
0000
0000
0100
0000
0010
0000
1000
0001
1000
0100
,
0010
0000
0001
1000
0001
0000
1000
0000
0010
0000
0100
0000
0001
0100
0001
0010
,
0200
0000
0000
0000
1300
0001
1000
0010
,
0100
0000
0001
1000
0001
0010
0100
1000
0001
0000
1000
0000
0010
0000
0100
0000
,
0001
1000
0100
0000
0010
0000
0001
0000
1000
0000
0010
0100
0010
0000
1000
0000
,
0001
0000
0010
0100
1000
0000
0001
0100
0010
0000
1000
0000
0100
0000
0000
0000
,
0020
0000
0000
0030
0011
0000
0000
0000
0000
0000
0001
0000
1000
0000
0001
0000
,
0100
0000
0010
1000
0010
0100
0001
1000
0001
0000
0010
0000
0100
0000
1000
0000
,
0001
0100
0010
0000
1000
0000
0001
0000
0100
0000
0001
0010
0100
0000
1000
0000
,
0001
0100
0001
1000
0100
0000
0010
0000
0001
1000
0001
0100
0010
0100
0001
1000
,
0002
0000
0000
0000
0000
0000
0000
0000
0000
0000
0000
0000
1003
0100
1000
0001
,
0100
0000
0001
0000
0010
0000
0200
0300
,
1000
0010
0100
0001
,
1000
0000
0000
0000
0100
0000
1000
0000
0001
0100
0001
1000
0020
0000
0030
0000
,
1000
0100
1000
0010
,
0100
0000
0001
0000
0010
0000
0200
0300
,
1000
0001
0100
0001
,
0010
0000
0100
0000
1000
0000
0001
0100
0010
0000
0000
0000
0100
0000
0000
0000
,
2020
0000
0000
0000
0000
0000
0000
0000
3030
0000
0000
0000
0010
1000
0001
1000
,
0100
0000
0010
0000
0001
0000
2000
3000
,
0001
0100
0010
0100
,
0001
0000
0000
0000
0010
0000
0100
0000
1000
0001
1000
0010
0200
0000
0300
0000
,
0001
0010
0001
1000
,
0100
0000
0010
0000
0001
0000
2000
3000
,
0001
0000
0100
0000
0001
0000
0010
0000
0100
0000
4000
3000
0010
0000
4000
3000
,
0001
0100
0001
1000
0100
0000
0010
0000
0001
1000
0001
0100
0010
0000
0000
0000
,
0000
0000
0000
0000
,
0000
0000
0000
0000
,
0000
0000
0000
0000
,
0000
0000
0000
0000
,
0000
0000
0000
0000
,
0000
0000
0000
0000
,
0000
0000
0000
0000
,
0000
0000
0000
0000
0000
0000
0000
M000
;
