#TITLE:Nazgul;
#SUBTITLE:;
#ARTIST:DJ G-I-S;
#TITLETRANSLIT:;
#SUBTITLETRANSLIT:;
#ARTISTTRANSLIT:;
#CREDIT:;
#BANNER:NAZGUL-BN.jpg;
#BACKGROUND:NAZGUL-BG-1.jpg;
#LYRICSPATH:;
#CDTITLE:!cattitle.png;
#MUSIC:DJ_G-I-S - Nazgul (cut).mp3;
#OFFSET:-30.459;
#SAMPLESTART:32.394;
#SAMPLELENGTH:12.000;
#SELECTABLE:YES;
#DISPLAYBPM:180.000;
#BPMS:0.000=180.000,256.000=22.500;
#STOPS:;
#BGCHANGES:0.000=NAZGUL-BG-2.jpg=1.000=1=0=1,
4.000=NAZGUL-BG-3.jpg=1.000=1=0=1,
8.000=NAZGUL-BG-4.jpg=1.000=1=0=1,
12.000=NAZGUL-BG-5.jpg=1.000=1=0=1,
16.000=NAZGUL-BG-6.jpg=1.000=1=0=1,
20.000=NAZGUL-BG-7.jpg=1.000=1=0=1,
24.000=NAZGUL-BG-8.jpg=1.000=1=0=1,
28.000=NAZGUL-BG-9.jpg=1.000=1=0=1,
32.000=NAZGUL-BG-2.jpg=1.000=1=0=1,
36.000=NAZGUL-BG-8.jpg=1.000=1=0=1,
40.000=NAZGUL-BG-4.jpg=1.000=1=0=1,
44.000=NAZGUL-BG-7.jpg=1.000=1=0=1,
48.000=NAZGUL-BG-6.jpg=1.000=1=0=1,
52.000=NAZGUL-BG-5.jpg=1.000=1=0=1,
56.000=NAZGUL-BG-9.jpg=1.000=1=0=1,
60.000=NAZGUL-BG-3.jpg=1.000=1=0=1,
64.000=NAZGUL-BG-2.jpg=1.000=1=0=1,
68.000=NAZGUL-BG-3.jpg=1.000=1=0=1,
72.000=NAZGUL-BG-4.jpg=1.000=1=0=1,
76.000=NAZGUL-BG-5.jpg=1.000=1=0=1,
80.000=NAZGUL-BG-6.jpg=1.000=1=0=1,
84.000=NAZGUL-BG-7.jpg=1.000=1=0=1,
88.000=NAZGUL-BG-8.jpg=1.000=1=0=1,
92.000=NAZGUL-BG-9.jpg=1.000=1=0=1,
96.000=NAZGUL-BG-2.jpg=1.000=1=0=1,
100.000=NAZGUL-BG-8.jpg=1.000=1=0=1,
104.000=NAZGUL-BG-4.jpg=1.000=1=0=1,
108.000=NAZGUL-BG-7.jpg=1.000=1=0=1,
112.000=NAZGUL-BG-6.jpg=1.000=1=0=1,
116.000=NAZGUL-BG-5.jpg=1.000=1=0=1,
120.000=NAZGUL-BG-9.jpg=1.000=1=0=1,
124.000=NAZGUL-BG-3.jpg=1.000=1=0=1,
128.000=NAZGUL-BG-2.jpg=1.000=1=0=1,
132.000=NAZGUL-BG-3.jpg=1.000=1=0=1,
136.000=NAZGUL-BG-4.jpg=1.000=1=0=1,
140.000=NAZGUL-BG-5.jpg=1.000=1=0=1,
144.000=NAZGUL-BG-6.jpg=1.000=1=0=1,
148.000=NAZGUL-BG-7.jpg=1.000=1=0=1,
152.000=NAZGUL-BG-8.jpg=1.000=1=0=1,
156.000=NAZGUL-BG-9.jpg=1.000=1=0=1,
160.000=NAZGUL-BG-2.jpg=1.000=1=0=1,
164.000=NAZGUL-BG-8.jpg=1.000=1=0=1,
168.000=NAZGUL-BG-4.jpg=1.000=1=0=1,
172.000=NAZGUL-BG-7.jpg=1.000=1=0=1,
176.000=NAZGUL-BG-6.jpg=1.000=1=0=1,
180.000=NAZGUL-BG-5.jpg=1.000=1=0=1,
184.000=NAZGUL-BG-9.jpg=1.000=1=0=1,
188.000=NAZGUL-BG-3.jpg=1.000=1=0=1,
192.000=NAZGUL-BG-2.jpg=1.000=1=0=1,
196.000=NAZGUL-BG-3.jpg=1.000=1=0=1,
200.000=NAZGUL-BG-4.jpg=1.000=1=0=1,
204.000=NAZGUL-BG-5.jpg=1.000=1=0=1,
208.000=NAZGUL-BG-6.jpg=1.000=1=0=1,
212.000=NAZGUL-BG-7.jpg=1.000=1=0=1,
216.000=NAZGUL-BG-8.jpg=1.000=1=0=1,
220.000=NAZGUL-BG-9.jpg=1.000=1=0=1,
224.000=NAZGUL-BG-2.jpg=1.000=1=0=1,
228.000=NAZGUL-BG-8.jpg=1.000=1=0=1,
232.000=NAZGUL-BG-4.jpg=1.000=1=0=1,
236.000=NAZGUL-BG-7.jpg=1.000=1=0=1,
240.000=NAZGUL-BG-6.jpg=1.000=1=0=1,
244.000=NAZGUL-BG-5.jpg=1.000=1=0=1,
248.000=NAZGUL-BG-9.jpg=1.000=1=0=1,
252.000=NAZGUL-BG-3.jpg=1.000=1=0=1,
256.000=NAZGUL-BG-1.jpg=1.000=1=0=1,
99999=-nosongbg-=1.000=0=0=0 // don't automatically add -songbackground-
;
// cache tags:
#FIRSTBEAT:0.000;
#LASTBEAT:258.000;
#SONGFILENAME:Songs/Community Keyboard Megapack - Volume 3/(Cat[S]) NAZGUL/Nazgul.sm;
#HASMUSIC:1;
#HASBANNER:1;
#MUSICLENGTH:138.292;
// end cache tags

//---------------dance-single - Cat =)----------------
#NOTES:
     dance-single:
     Cat =):
     Hard:
     12:
     1.000,0.886,1.000,0.072,0.940,756.000,280.000,10.000,0.000,1.000:
1000
0000
0010
0000
1100
0000
0011
0100
1000
0010
0001
0100
1010
0000
1100
0000
,
0011
0000
0100
0000
0011
0000
1100
0010
0100
0001
0010
0100
1010
0000
1010
0000
,
0101
0000
1000
0000
0110
0000
0011
0100
1000
0100
0001
0010
0101
0000
1100
0000
,
0011
0000
1000
0000
0011
0000
1100
0010
0001
0100
1000
0010
0101
0000
1010
0000
,
0101
0000
1000
0000
0101
0000
0110
1000
0010
0100
0001
1000
1100
0000
1010
0000
,
1100
0000
0010
0000
0101
0000
1010
0100
0001
0010
1000
0100
1010
0000
1100
0000
,
0011
0000
0100
0000
0101
0000
0110
0001
1000
0010
0100
0010
1001
0000
0101
0000
,
1010
0000
0100
0000
1001
0000
1010
0100
0001
0100
1000
0010
0101
0000
1100
0000
,
0011
0000
0100
0000
1010
0000
0101
0010
1000
0001
0100
0010
1001
0000
0110
0000
,
0101
0000
0010
0000
1010
0000
0101
1000
0010
1000
0001
0100
1010
0000
0101
0000
,
1010
0000
0100
0000
1100
0000
0011
0100
0001
0010
0100
1000
0101
0000
1010
0000
,
1001
0000
0010
0000
1100
0000
0101
1000
0010
0001
0100
1000
0011
0000
1100
0000
,
0011
0000
1000
0000
0110
0000
1010
0100
0001
0100
0010
1000
0101
0000
1010
0000
,
0101
0000
0010
0000
1010
0000
0101
0010
1000
0010
0100
0001
1010
0000
0101
0000
,
1001
0000
0010
0000
0110
0000
1010
0100
0001
1000
0010
0001
1010
0000
0110
0000
,
0001
0100
0010
1000
0010
0001
0010
1000
0100
0001
0100
0010
1000
0100
0010
0001
,
1010
0000
0000
0000
0000
0000
0001
0000
0000
0000
0000
0000
0101
0000
0000
1000
0000
0000
0010
0000
0000
0100
0000
0000
0001
0000
0000
0010
0000
0000
0100
0000
0000
1000
0000
0000
0101
0000
0000
0000
0000
0000
0010
0000
0100
0000
0010
0000
,
1001
0100
1000
0010
1100
0001
0010
1000
0010
0001
0100
0010
1100
0000
0011
1000
,
0101
0000
0000
0000
0000
0000
1000
0000
0000
0000
0000
0000
0011
0000
0000
1000
0000
0000
0010
0000
0000
0100
0000
0000
0001
0000
0000
0010
0000
0000
0100
0000
0000
1000
0000
0000
0110
0000
0000
0000
0000
0000
1000
0000
0100
0000
0010
0000
,
0101
0010
1000
0100
1010
0100
0001
1000
0100
0001
0010
0100
1001
0000
1010
0001
,
1010
0000
0000
0000
0000
0000
0001
0000
0000
0000
0000
0000
0101
0000
0000
0010
0000
0000
1000
0000
0000
0001
0000
0000
0010
0000
0000
1000
0000
0000
0010
0000
0000
0001
0000
0000
1100
0000
0000
0000
0000
0000
0010
0000
1000
0000
0001
0000
,
1010
0100
0001
1000
0110
0001
0100
0010
1000
0001
0100
0010
0101
0000
0101
0010
,
1100
0000
0000
0000
0000
0000
0001
0000
0000
0000
0000
0000
0101
0000
0000
1000
0000
0000
0010
0000
0000
0100
0000
0000
0001
0000
0000
0010
0000
0000
1000
0000
0000
0010
0000
0000
0101
0000
0000
0000
0000
0000
1000
0000
0100
0000
0001
0000
,
1010
0001
0010
0100
1010
0100
0001
1000
0010
0100
0001
0010
1001
0000
1010
1000
,
0101
0000
1000
0000
1010
0001
0100
0010
1000
0010
0001
0010
1010
0000
0101
0010
,
1010
0100
0001
0010
1100
0010
0001
1000
0010
0001
0100
1000
0011
0000
1100
0000
,
0011
0000
1000
0000
0101
0010
1000
0001
0100
0010
1000
0001
1100
0000
1100
0100
,
0011
1000
0010
0100
0011
1000
0010
0100
0001
0010
0100
1000
0110
0000
1100
0000
,
0011
0000
1000
0000
0101
0010
1000
0001
0010
1000
0001
0010
1100
0000
0011
1000
,
0101
0010
1000
0001
1100
0010
0100
0001
0100
1000
0010
0001
1010
0000
0101
0000
,
1010
0000
0001
0000
1010
0100
0001
0100
1000
0100
0001
0100
1010
0000
1010
0001
,
0101
0000
1000
0001
0010
0100
1000
1000
,
0022
0000
0000
0000
,
0000
0000
0000
0000
0033
0200
2300
3002
0023
2230
0000
3300
,
1010
0000
0001
0000
0101
0000
1010
0100
0001
1000
0010
0100
1001
0000
0100
0000
,
1010
0000
0100
0000
0011
0000
0101
1000
0010
0100
0001
0010
1100
0000
0001
0000
,
1010
0000
0001
0000
0101
0000
1010
0100
0001
0100
1000
0010
0101
0000
1000
0000
,
1010
0000
0100
0000
1001
0000
1010
0100
0001
1000
0010
0001
1100
0000
0010
0000
,
0101
0000
0010
0000
0101
0000
1010
0100
0001
1000
0010
0100
1001
0000
0010
0000
,
1001
0000
0100
0000
1010
0000
0101
0010
1000
0010
0001
0100
1010
0000
0100
0000
,
0101
0000
0010
0000
1001
0000
0101
0010
1000
0010
0001
0100
1010
0000
0001
0000
,
0101
0000
0010
0000
1001
0000
1010
0100
0001
0010
1000
0100
1001
0000
0010
0000
,
0101
0000
1000
0000
0101
0000
1010
0100
0001
1000
0010
0100
1001
0000
0010
0000
,
0101
0000
0010
0000
1010
0000
0101
0010
1000
0010
0001
0100
1010
0000
0100
0000
,
1001
0000
0010
0000
0101
0000
1010
0100
0001
0010
1000
0100
0011
0000
0010
0000
,
0110
0000
1000
0000
0101
0000
1010
0100
0001
1000
0010
0001
1100
0000
0100
0000
,
1001
1001
1001
1001
,
1001
0000
0110
0000
1001
0000
0110
0000
1001
0110
1001
0110
1001
0110
1001
0110
,
1001
0000
0000
0000
0000
0000
0011
0000
0000
0000
0000
0000
1010
0000
0000
0000
0000
0000
0101
0000
0000
0010
0000
0000
1000
0000
0000
0010
0000
0000
0001
0000
0000
0100
0000
0000
1010
0000
0000
0000
0000
0000
0100
0000
0010
0000
0001
0000
,
1010
0000
0101
0000
1010
0000
0101
1000
0010
0100
0001
0010
1100
0000
0101
0010
,
1001
0000
0000
0000
0000
0000
0101
0000
0000
0000
0000
0000
0011
0000
0000
0000
0000
0000
1010
0000
0000
0100
0000
0000
0001
0000
0000
0010
0000
0000
1000
0000
0000
0100
0000
0000
0011
0000
0000
0000
0000
0000
1000
0000
0010
0000
0100
0000
,
1001
0000
0101
0000
1100
0000
0101
0010
1000
0100
0001
0010
1001
0000
0101
0010
,
1001
0000
0000
0000
0000
0000
1010
0000
0000
0000
0000
0000
0101
0000
0000
0000
0000
0000
1010
0000
0000
0100
0000
0000
0001
0000
0000
1000
0000
0000
0010
0000
0000
0001
0000
0000
1010
0000
0000
0000
0000
0000
0100
0000
1000
0000
0010
0000
,
0101
0000
1010
0000
0011
0000
1001
0100
0010
1000
0100
0001
1010
0000
1100
0010
,
1001
0000
0000
0000
0000
0000
1010
0000
0000
0000
0000
0000
0011
0000
0000
0000
0000
0000
1010
0000
0000
0100
0000
0000
0001
0000
0000
0010
0000
0000
1000
0000
0000
0010
0000
0000
0101
0000
0000
0000
0000
0000
0010
0000
0100
0000
1000
0000
,
0101
0000
1010
0000
1001
0000
0110
1000
0001
0010
1000
0010
0101
0000
1010
0100
,
1001
0000
0000
0000
0000
0000
0101
0000
0000
0000
0000
0000
0110
0000
0000
0000
0000
0000
1010
0000
0000
0100
0000
0000
0001
0000
0000
0010
0000
0000
1000
0000
0000
0100
0000
0000
0011
0000
0000
0000
0000
0000
1000
0000
0010
0000
0100
0000
,
1001
0000
0101
0000
1010
0000
0101
1000
0010
0100
0001
0010
1100
0000
0101
0010
,
1010
0000
0000
0000
0000
0000
0101
0000
0000
0000
0000
0000
1001
0000
0000
0000
0000
0000
1010
0000
0000
0100
0000
0000
0001
0000
0000
0010
0000
0000
1000
0000
0000
0100
0000
0000
0011
0000
0000
0000
0000
0000
1000
0000
0010
0000
0100
0000
,
1001
0000
0101
0000
1001
0000
1100
0010
0001
0100
1000
0100
0011
0000
1010
0100
,
1001
0000
0000
0000
0000
0000
0110
0000
0000
0000
0000
0000
0101
0000
0000
0000
0000
0000
1010
0000
0000
0100
0000
0000
0001
0000
0000
0010
0000
0000
1000
0000
0000
0100
0000
0000
0011
0000
0000
0000
0000
0000
1000
0000
0100
0000
0001
0000
,
1010
0000
0110
0000
1010
0000
0101
0010
1000
0001
1000
0010
0101
0000
1010
0100
,
0011
0000
0110
0000
1001
0000
0101
0010
1000
0100
0001
0010
1100
0000
1100
0000
,
1000
0100
0001
0010
1000
0100
0001
0100
1000
0010
0001
0100
0010
1000
0100
0010
,
0002
2003
3000
0000
;
