#TITLE:Soldiers of the Wasteland;
#SUBTITLE:Sonic Firestorm;
#ARTIST:Dragonforce;
#TITLETRANSLIT:;
#SUBTITLETRANSLIT:;
#ARTISTTRANSLIT:;
#CREDIT:;
#BANNER:soldiers-banner.png;
#BACKGROUND:soldiers-bg.png;
#LYRICSPATH:;
#CDTITLE:melonman67.PNG;
#MUSIC:Dragonforce - Sonic Firestorm - 07 - Soldiers of the Wasteland.mp3;
#OFFSET:1.120;
#SAMPLESTART:12.881;
#SAMPLELENGTH:12.000;
#SELECTABLE:YES;
#BPMS:0.000=200.000,880.000=130.020,890.000=130.000,1168.000=199.980;
#STOPS:;
#BGCHANGES:;
// cache tags:
#FIRSTBEAT:6.000;
#LASTBEAT:1796.500;
#SONGFILENAME:Songs/CMDKDF Pack/Soldiers of the Wasteland (Melonman67)/soldiers.sm;
#HASMUSIC:1;
#HASBANNER:1;
#MUSICLENGTH:585.743;
// end cache tags

//---------------dance-single - ----------------
#NOTES:
     dance-single:
     :
     Challenge:
     14:
     1.000,1.000,0.157,0.159,1.000,4300.000,92.000,93.000,0.000,0.000:


0000
0000
0000
0000
,
0000
0000
0000
0000
,
0000
0000
0000
0000
,
0000
0000
0000
0000
,
0000
0000
0000
0000
,
0000
0000
0000
0000
,
0000
0000
0000
0000
,
0000
0000
0000
0000
,
0000
0000
0000
0000
,
0000
0000
0000
0000
,
1000
0000
0001
1000
0001
0000
1000
0010
,
0100
0000
0001
0000
0010
0100
1000
0100
,
1000
0000
0001
1000
0010
0000
0100
0001
,
0100
0001
0010
0001
2000
0000
0000
0000
,
3001
0000
1000
0010
1000
0000
0100
0010
,
0001
0000
0010
0000
0100
1000
0100
1000
,
0001
0000
1000
0010
0100
0000
0001
0100
,
0010
0100
0001
0100
0020
0000
0000
0000
,
1030
0000
0001
1000
0010
0000
0100
0001
,
0010
0000
0100
0000
1000
0100
0010
0001
,
1000
0000
0001
0100
0010
0000
1000
0001
,
0200
1000
0001
0010
0320
0000
0000
0000
,
1030
0000
0001
0010
0100
0000
0100
0010
,
0001
0000
1000
0000
0001
1000
0010
1000
,
0001
0000
0010
0100
1000
0000
0001
0010
,
0100
0001
0100
1000
0001
0000
0000
0000
,
1001
1000
0000
0001
0000
0001
0010
0000
,
0100
1000
0000
1000
0000
1000
0001
0000
,
0100
0010
0000
1000
0000
0001
0010
0000
,
0110
1100
1001
1010
,
1000
0010
0000
0010
0000
0010
1000
0000
,
0001
0100
0000
0100
0000
0001
0010
0000
,
0100
1000
0000
1000
0000
1000
0001
0000
,
1010
0101
1010
1001
,
0001
1000
0001
1000
0001
1000
0010
0000
,
0100
0001
0100
0001
0100
0001
0010
0000
,
0100
1000
0010
1000
0010
1000
0001
0000
,
1000
1010
0110
1010
,
1000
0100
0010
0001
0100
0010
1000
0000
,
0001
0010
0100
1000
0010
0100
0001
0000
,
2002
0000
0000
3003
,
1000
0001
0100
0001
0010
0100
1000
0001
0010
0001
1000
0100
1000
0010
0100
0001
,
1000
0000
0100
0000
0010
0001
0010
0000
0100
0000
1000
0000
0001
1000
0010
0000
,
0100
0000
0001
0000
0010
0100
1000
0000
0001
0000
0010
0000
0100
0000
1000
0000
,
0001
0000
1000
0000
0010
0100
0001
0000
1000
0000
0100
0000
0010
0001
0010
0000
,
0100
0000
1000
0000
0001
1000
0010
0000
1000
0000
0010
0000
0100
0000
0001
0000
,
1000
0000
0001
0000
1000
0010
0100
0000
0001
0000
1000
0000
0100
1000
0100
0000
,
1000
0000
0001
0000
0100
0010
1000
0000
0001
0000
1000
0000
0010
0000
0100
0000
,
0001
0100
0010
1000
0010
0100
0001
1000
,
0100
0010
0001
0010
0100
0010
0001
1000
,
0001
0000
0010
0000
0100
1000
0100
0000
0010
0000
0001
0000
1000
0001
0100
0000
,
0010
0000
1000
0000
0100
0010
0001
0000
1000
0000
0100
0000
0010
0000
0001
0000
,
1000
0000
0001
0000
0100
0010
1000
0000
0001
0000
0010
0000
0100
1000
0100
0000
,
0010
0000
0001
0000
1000
0001
0100
0000
0001
0000
0100
0000
0010
0000
1000
0000
,
0001
0000
1000
0000
0001
0100
0010
0000
1000
0000
0001
0000
0010
0001
0010
0000
,
0001
0000
1000
0000
0010
0100
0001
0000
1000
0000
0001
0000
0100
0000
0010
0000
,
1000
0010
0100
0001
0100
0010
1000
0001
,
0010
0100
1000
0100
0010
0100
1000
0001
,
1000
0100
0010
0001
1000
0001
0100
0001
0010
0100
0010
0001
1000
0010
0100
0010
,
0100
0001
0010
0100
1000
0010
0100
0001
0010
0100
1000
0001
1000
0100
0010
0001
,
1000
0001
1000
0010
0100
0001
0100
0010
0100
0001
0010
0100
1000
0001
0010
0100
,
1000
0100
1000
0010
0100
0010
1000
0100
0010
0001
1000
0100
1000
0010
0100
0010
,
1000
0000
0001
0000
1000
0001
0010
0000
0100
0000
1000
0000
0001
1000
0010
0000
,
0100
0000
0001
0000
1000
0010
1000
0000
0100
0000
0010
0000
0001
0000
0010
0000
,
0100
0000
1000
0000
0001
1000
0010
0000
1000
0000
0010
0000
0100
0001
0100
0000
,
0001
0100
0010
1000
0001
0100
0010
1000
0001
0100
0010
1000
0001
0100
0010
1000
,
0001
0010
0100
1000
0010
0100
0010
0100
0001
1000
0001
0100
0001
0010
0100
1000
,
0100
0010
0001
1000
0100
1000
0010
0100
0001
0100
0001
0010
0001
1000
0010
1000
,
0001
0100
0010
1000
0100
1000
0001
0100
0001
0010
0100
0010
0001
1000
0100
1000
,
0001
0100
0001
0010
0100
1000
0100
0010
0100
1000
0001
0100
0010
1000
0010
0100
,
0001
0010
0001
1000
0100
1000
0001
0100
0010
0100
0001
0010
0100
1000
0001
0010
,
0100
1000
0100
1000
0010
0100
0001
1000
0010
0100
0010
1000
0100
0010
0001
1000
,
0001
0010
0100
1000
0001
0100
0010
1000
0001
0010
0100
1000
0001
0100
0010
1000
,
0002
1000
1000
1000
,
1003
0000
1000
1000
0001
0001
0001
0001
,
0010
0010
0010
0010
0100
0100
0100
0100
,
1000
1000
1000
1000
0010
0010
0010
0010
,
0100
0100
0100
0100
0001
0001
0001
0001
,
0010
0010
0010
0010
0100
0100
0100
0100
,
1000
1000
1000
1000
0001
0001
0001
0001
,
2002
0000
0000
3003
,
2002
0000
0000
3003
,
1010
0000
0101
0000
0001
0001
0011
0000
,
0110
0000
1100
0000
1000
1000
1010
0000
,
0101
0000
0011
0000
0001
0001
1001
0000
,
0110
0000
0101
0000
0010
0010
1010
0000
,
1100
0000
0011
0000
1000
1000
1010
0000
,
0101
0000
0011
0000
0010
0010
0110
0000
,
0100
1000
0001
1000
0010
0100
0001
0010
0001
1000
0100
1000
0010
0100
0001
1000
,
0002
0000
0000
0000
,
1003
0100
0010
0100
0010
0001
1000
0100
1000
0100
0010
0100
0010
0001
1000
0010
,
0100
0010
0100
0010
1000
0100
1000
0001
0100
0001
0010
0100
1000
0001
0010
0001
,
1000
0010
0100
0010
1000
0001
0010
0001
1000
0100
1000
0100
0010
0001
0010
0001
,
0020
0000
0000
0000
0000
0000
0000
0030
,
0010
0001
1000
0001
0010
0100
1000
0100
1000
0010
1000
0100
1000
0100
0010
0001
,
1000
0100
1000
0010
0100
0001
0010
0001
0010
0001
0010
0100
1000
0100
0010
0100
,
0010
0100
1000
0100
1000
0001
0100
0010
1000
0010
1000
0100
0010
0100
1000
0100
,
2000
0000
0000
0000
0000
0000
0000
3000
,
1000
0000
0010
0000
1000
0100
1000
0000
0100
0000
0010
0000
0001
1000
0001
0000
,
0100
0000
0010
0000
1000
0001
1000
0000
0010
0000
0100
0000
0001
1000
0100
0000
,
0010
0000
0001
0000
1000
0001
1000
0000
0001
0000
0100
0000
0010
0100
0001
0000
,
0010
0000
0100
0000
1000
0100
0010
0000
0100
0000
1000
0000
0001
1000
0001
0000
,
1000
0000
0001
0000
0100
0001
0010
0000
0100
0000
0010
0000
0001
0010
0001
0000
,
1000
0000
0001
0000
0100
0010
0100
0000
0001
0000
0010
0000
0100
1000
0100
0000
,
1000
0000
0001
0000
1000
0010
0100
0000
0010
0000
1000
0000
0001
1000
0001
1000
,
0100
0010
0001
1000
0001
1000
0100
0010
0001
1000
0001
1000
0100
0010
0001
1000
,
0001
0000
0011
0000
1100
0100
0110
0000
,
1100
0000
1001
0000
0101
0001
1001
0000
,
1010
0000
0101
0000
0011
0001
0101
0000
,
0110
0000
0101
0000
0011
0001
1001
0000
,
1010
0000
1000
0000
0001
0100
0010
0000
1000
0000
0100
0000
0010
0001
1000
0000
,
0001
0000
1000
0000
0010
1000
0100
0000
0010
0000
0001
0000
0010
0100
1000
0000
,
0001
0000
0100
0000
0010
1000
0010
0000
1000
0000
0100
0000
1000
0010
1000
0000
,
0010
1000
0100
1000
0001
0010
0100
1000
0010
0100
0010
1000
0100
0010
0001
1000
,
0001
1000
0010
1000
0100
0010
0001
1000
0100
1000
0010
0100
0001
0010
0100
0010
,
0001
1000
0100
1000
0001
0100
0001
0010
0001
1000
0100
1000
0010
0100
0001
0100
,
0010
1000
0100
0010
0001
1000
0100
0010
0100
0010
0001
0010
0001
1000
0010
0100
,
0010
0100
0001
0010
0001
1000
0100
1000
0001
0100
0010
1000
0001
0100
0010
0100
,
0001
0010
0100
1000
0001
0100
0010
0100
0001
1000
0100
1000
0010
0100
0001
0010
,
0001
1000
0100
1000
0010
0100
0001
0010
0001
0010
0100
1000
0001
0010
0100
1000
,
0001
1000
0010
0100
0010
0100
0001
0100
0001
0010
0100
1000
0100
1000
0010
0100
,
0002
0000
1003
0001
,
1000
0000
0000
0010
0000
0000
0100
0000
,
0001
0000
0000
0010
0000
0000
0100
0000
,
1000
0000
0000
0001
0000
0000
1000
0000
,
2020
3030
0100
0001
,
0010
0000
0000
0100
0000
0000
1000
0000
,
0001
0000
0000
1000
0000
0000
0100
0000
,
0010
0000
0001
1000
0000
0000
0001
0000
,
0022
0033
0001
1000
,
0001
1000
0010
0100
0010
0100
0001
0010
,
1000
0010
0001
1000
0010
0100
0001
0100
,
1000
0100
0001
0010
0100
1000
0010
0100
,
0001
0010
0100
1000
0001
1000
0010
1000
,
0100
1000
0001
0100
0010
1000
0010
0100
,
0010
1000
0100
0010
0001
0010
0001
1000
,
0100
0000
0100
0010
0000
0000
0001
0000
,
2002
0000
0000
3003
,
1000
0001
1000
0001
1000
0000
0001
0000
0010
0001
0010
0001
0010
0001
0010
0100
,
1000
0001
1000
0100
0010
0001
0010
0100
,
1000
0000
0001
1000
0001
0000
1000
0000
0010
0100
0001
0100
0010
1000
0100
0010
,
0001
1000
0001
0100
0010
1000
0020
0000
,
0130
0001
0100
0001
0100
0000
0001
0000
0010
0100
0001
0100
0010
1000
0001
0100
,
0001
0010
0001
0100
0001
1000
0001
1000
,
0010
0000
1000
0010
0100
0000
0001
0000
0010
0100
1000
0001
1000
0010
0100
0001
,
1000
0100
0010
0001
0020
0000
0230
0000
,
1300
0100
0010
0100
0010
0001
0010
0001
1000
0100
0010
0100
0010
0001
0010
0001
,
1000
0100
0010
0100
0010
0001
0010
0001
1000
0100
0010
0100
0010
0001
0010
0001
,
2000
0000
3002
0000
,
1003
0000
0100
0010
0001
0010
0100
0000
1000
0000
0001
0010
0100
0010
0001
0000
,
1000
0000
0000
0000
0000
0000
0001
1000
0001
1000
0001
1000
0001
0000
0000
0000
0000
0000
0001
0000
0000
0000
0000
0000
,
1000
0000
0001
0010
0001
0010
0100
0010
,
0100
1000
0100
1000
0001
0010
0100
1000
,
0001
1000
0100
0010
0001
1000
0010
0100
,
0010
1000
0100
0010
0001
1000
0001
0100
,
0010
1000
0010
0100
0001
0010
0100
1000
,
0001
0100
0001
0010
0100
1000
0100
0010
,
0001
1000
0001
1000
0010
0100
0010
1000
,
0100
0010
0001
0010
0100
1000
0001
1000
,
0001
0010
0100
0010
0001
1000
0001
0010
0100
0010
0001
1000
0001
1000
0010
0100
,
0010
1000
0001
1000
0010
0100
0010
1000
0100
0010
0001
0010
0100
1000
0100
0010
,
0001
1000
0001
0100
0001
1000
0010
0100
0010
1000
0010
0100
0001
0010
0001
1000
,
0002
0000
0000
0000
0000
0000
0000
0003
,
0001
0010
0100
1000
0100
0010
0100
1000
0010
0100
0001
0100
0010
0100
0001
0010
,
0100
1000
0100
1000
0001
1000
0010
1000
0100
0010
0001
0100
0010
1000
0001
0100
,
0010
1000
0001
0010
0001
1000
0100
1000
0010
0100
0001
1000
0001
0100
0010
1000
,
0002
0000
0000
0000
0000
0000
0000
0003
,
0001
1000
0100
0010
0001
1000
0001
0010
0100
0010
0001
1000
0001
1000
0010
0100
,
0010
1000
0001
1000
0010
0100
0010
1000
0100
0010
0001
0010
0100
1000
0100
0010
,
0001
1000
0001
0100
0001
1000
0010
0100
0010
1000
0010
0100
0001
0010
0100
0010
,
0200
0000
0000
0000
0000
0000
0000
0300
,
0100
0010
0100
1000
0100
0010
0100
1000
0010
0100
0001
0100
0010
0100
0001
0010
,
0100
1000
0100
1000
0001
1000
0010
1000
0100
0010
0001
0100
0010
1000
0001
0100
,
0010
1000
0001
0010
0001
1000
0100
1000
0010
0100
0001
1000
0001
0100
0010
1000
,
0100
0010
0001
0010
0001
1000
0100
0010
0001
1000
0010
1000
0001
0100
0010
1000
,
0001
0010
0100
1000
,
0100
0010
0001
0100
,
1000
0100
0001
0100
,
0010
1000
0010
0100
,
0001
0000
0010
0000
0100
1000
0001
0000
1000
0000
0001
0000
0010
0100
1000
0000
,
0001
0000
1000
0000
0010
0100
0010
0000
1000
0000
0100
0000
0010
0100
1000
0000
,
0001
0000
0100
0000
0001
1000
0010
0000
0100
0000
0001
0000
0010
0001
1000
0000
,
0001
1000
0010
0100
0001
0000
0010
0100
1000
0001
1000
0001
0100
0000
0000
0000
,
0001
1000
0001
1000
,
0010
0100
0001
0010
,
0001
1000
0100
1000
,
0100
0010
0001
1000
,
0001
1000
0001
0100
0001
0010
0100
1000
0100
0010
0001
1000
0010
0100
0001
1000
,
0001
0100
0001
0010
0001
1000
0100
0010
0001
0010
0001
1000
0100
1000
0010
0100
,
0001
0010
0001
1000
0100
1000
0010
0100
0001
1000
0010
1000
0100
0010
0001
1000
,
0001
0010
0100
1000
0100
0010
0001
1000
0001
0100
0001
1000
0010
0100
0001
1000
,
0001
0010
0001
1000
0010
0100
0001
1000
,
0001
1000
0100
0010
0001
0100
1000
0100
,
0001
0010
0100
1000
0100
1000
0010
0100
,
0002
0000
1003
0100
,
0010
0001
1000
0001
0100
0010
1000
0100
,
0010
0001
0010
0100
1000
0001
0100
0001
,
1000
0000
0100
0010
0000
0000
0001
0000
,
2002
3003
1000
0001
,
0100
0000
0000
0001
0000
0000
0010
0000
,
0100
0000
0000
1000
0000
0000
0001
0000
,
1000
0000
0000
0010
0000
0000
0100
0000
,
0002
0000
1003
0100
,
0010
0000
0000
0001
0000
0000
0010
0000
,
0001
0000
0000
1000
0000
0000
0001
0000
,
1000
0000
0100
0010
0000
0000
0001
0000
,
0022
0000
0000
0033
,
0001
1000
0001
1000
0001
0000
1000
0000
0100
1000
0100
1000
0100
1000
0100
0010
,
0001
1000
0001
0010
0100
1000
0100
0010
,
0001
0000
1000
0001
1000
0000
0001
0000
0100
0010
1000
0010
0100
0001
0010
0100
,
1000
0001
1000
0010
0100
0001
0200
0000
,
0310
1000
0010
1000
0010
0000
1000
0000
0100
0010
1000
0010
0100
0001
1000
0010
,
1000
0100
1000
0010
1000
0001
1000
0001
,
0100
0000
0001
0100
0010
0000
1000
0000
0100
0010
0001
1000
0001
0100
0010
1000
,
0001
0010
0100
1000
0200
0000
0310
0000
,
0011
0110
1100
1001
,
0101
0011
1100
1001
,
0110
0000
0010
0000
0101
0101
0000
0000
,
2020
0000
0000
3030
,
0101
0011
0101
1010
,
1001
0000
0000
0000
,
0000
0000
0000
0000
,
0000
0000
1001
0000
,
0000
0000
0000
0000
,
0000
0000
0000
0000
,
0000
0000
0000
0000
,
0000
0000
0000
0000
,
0000
0000
0000
0000
,
1000
0000
0100
0000
0010
0001
0010
0001
,
0010
0000
0100
0000
1000
0100
1000
0100
,
1000
0000
0001
0000
1000
0001
1000
0001
,
1000
0000
0000
0000
0000
0000
0000
0000
0010
0000
0000
0000
0000
0000
0000
0000
0100
0000
0000
0000
0001
0100
0001
0100
0001
0000
0000
0000
0100
0000
0000
0000
,
0001
0000
0010
0000
0100
1000
0100
1000
,
0100
0000
0010
0000
0001
0010
0001
0010
,
0001
0000
0100
0000
0010
1000
0010
1000
,
0010
0000
0000
0000
1000
0010
1000
0010
1000
0000
0000
0000
1000
0000
0000
0000
0100
0000
0000
0000
0001
0000
0000
0000
0100
0000
0000
0000
1000
0000
0000
0000
,
0100
0000
0010
0000
0001
1000
0010
0100
,
0001
0000
1000
0000
0010
1000
0100
1000
,
0001
0000
0010
0000
0100
1000
0001
1000
,
0001
0000
0000
0000
0000
0000
0000
0000
0100
0000
0000
0000
0000
0000
0000
0000
0010
0000
0000
0000
1000
0100
0010
0001
1000
0000
0000
0000
0100
0000
0000
0000
,
0010
0000
0001
0000
1000
0010
0100
0001
,
1000
0000
0001
0000
1000
0100
0001
0100
,
1000
0000
0001
0000
1000
0010
0001
0010
,
1000
0000
0000
0000
0100
0010
0100
0010
0001
0000
0000
0000
1000
0000
0000
0000
0001
0000
0010
0000
0001
0000
0010
0000
0100
0000
0010
0000
0100
0000
1000
0000
,
1001
0001
1000
0010
0100
0001
0100
0001
0010
0100
1000
0100
1000
0001
0010
0001
,
1000
0100
0010
0001
0010
0001
1000
0100
0010
0001
0010
1000
0010
0001
1000
0010
,
0100
0001
0100
0010
0100
0001
0010
0100
1000
0010
0100
0001
0010
0100
1000
0001
,
1000
0001
0100
0010
1000
0100
1000
0001
0100
0001
0010
0001
1000
0100
0010
0001
,
1000
0010
0100
0010
1000
0100
0010
0001
0010
0001
1000
0100
1000
0010
0100
0001
,
0010
0001
1000
0100
1000
0010
0100
0001
1000
0001
0100
0001
0010
0001
1000
0100
,
0010
0001
1000
0001
1000
0010
0100
0001
1000
0001
0100
0001
0010
0100
0001
0100
,
1000
0010
0100
0001
0010
0001
1000
0100
1000
0010
0100
0001
1000
0001
1000
0001
,
1000
0010
0100
0001
1000
0100
0010
0001
1000
0010
0100
0001
0100
0001
0010
0001
,
1000
0010
0100
0001
0100
0010
1000
0001
0010
0100
0010
0001
1000
0001
0010
0100
,
1000
0100
0010
0001
0010
0001
1000
0100
1000
0010
0100
0010
1000
0100
0010
0001
,
1000
0001
0100
0001
0010
0001
1000
0010
0100
0010
1000
0100
0010
0001
0010
0100
,
0010
0001
1000
0001
0100
0001
0010
0001
0010
0100
1000
0001
0010
0100
1000
0001
,
1000
0001
0100
0010
1000
0010
0100
0001
0100
0001
0010
0100
0001
0100
1000
0100
,
0001
0100
1000
0010
0100
0001
0010
1000
0010
0001
1000
0010
0100
0001
1000
0001
,
0100
0001
0100
0010
1000
0100
0010
0001
0100
0010
1000
0100
1000
0001
0010
0100
,
1000
0001
1000
0010
0100
0001
0100
0001
0010
0100
1000
0100
1000
0001
0010
0001
,
1000
0100
0010
0001
0010
0001
1000
0100
0010
0001
0010
1000
0010
0001
1000
0010
,
0100
0001
0100
0010
0100
0001
0010
0100
1000
0010
0100
0001
0010
0100
1000
0001
,
1000
0001
0100
0010
1000
0100
1000
0001
0100
0001
0010
0001
1000
0100
0010
0001
,
1000
0010
0100
0010
1000
0100
0010
0001
0010
0001
1000
0100
1000
0010
0100
0001
,
0010
0001
1000
0100
1000
0010
0100
0001
1000
0001
0100
0001
0010
0001
1000
0100
,
0010
0001
1000
0001
1000
0010
0100
0001
1000
0001
0100
0001
0010
0100
0001
0100
,
1000
0010
0100
0001
0010
0001
1000
0100
1000
0010
0100
0001
1000
0001
1000
0001
,
1000
0010
0100
0001
1000
0100
0010
0001
1000
0010
0100
0001
0100
0001
0010
0001
,
1000
0010
0100
0001
0100
0010
1000
0001
0010
0100
0010
0001
1000
0001
0010
0100
,
1000
0100
0010
0001
0010
0001
1000
0100
1000
0010
0100
0010
1000
0100
0010
0001
,
1000
0001
0100
0001
0010
0001
1000
0010
0100
0010
1000
0100
0010
0001
0010
0100
,
0010
0001
1000
0001
0100
0001
0010
0001
0010
0100
1000
0001
0010
0100
1000
0001
,
1000
0001
0100
0010
1000
0010
0100
0001
0100
0001
0010
0100
0001
0100
1000
0100
,
0001
0100
1000
0010
0100
0001
0010
1000
0010
0001
1000
0010
0100
0001
1000
0001
,
1000
0100
0010
0001
0010
0100
1000
0001
0100
0010
0100
0001
1000
0001
0010
0100
0010
0001
1000
0001
0100
0001
0010
0100
,
1000
0000
0000
0100
0000
0000
0010
0000
0001
0000
0000
1000
0000
0000
0001
0000
,
0010
0000
0000
0100
0000
0000
1000
0000
0010
0000
0000
0100
0000
0000
0001
0000
,
0011
0000
0000
0010
0000
0000
0100
0000
1000
0000
0000
0001
0000
0000
1000
0000
,
0020
0000
0030
0000
,
1000
0000
0000
0001
0000
0000
0010
0000
0100
0000
0000
1000
0000
0000
0100
0000
,
0010
0000
0000
0000
0000
0000
0001
0000
0000
0000
0000
0000
1000
0000
0000
0000
0001
0000
0000
0000
0000
1000
0000
0000
0000
0000
0000
0010
0000
0000
0000
0100
,
0000
0000
0000
0000
0000
0001
0000
0000
0000
0000
0000
0010
0000
0000
0000
0100
0000
0000
0000
0000
0000
1000
0000
0000
0000
0000
0000
0001
0000
0000
0000
2000
,
0000
0000
3000
0000
,
1001
0000
0000
0001
0000
0000
1000
0000
0010
0000
0000
0100
0000
0000
0001
0000
,
0010
0000
0000
0100
0000
0000
1000
0000
0000
0100
0000
0000
0010
0000
0001
0000
,
0000
0000
1000
0000
0000
0000
0000
0000
0001
0000
0000
0000
0000
0000
1000
0000
0000
0000
0010
0000
0000
0000
0000
0000
0100
0000
0000
0000
0000
0001
0000
0000
,
0000
0000
0000
2000
0000
0000
0000
0000
0000
0000
0000
0000
0000
0000
0000
0000
0000
0000
0000
0000
0000
0000
0000
0000
3001
0000
0000
0000
0010
0000
0000
0000
0100
0000
0000
0000
1000
0000
0000
0000
0100
0000
0000
0000
0010
0000
0000
0000
,
0001
0000
0000
0010
0000
0000
0100
0000
1000
0000
0000
0001
0000
0000
1000
0000
,
0010
0000
0000
0100
0000
0000
0001
0000
0010
0000
0000
0100
0000
0000
1000
0000
,
0001
0000
0000
1000
0000
0000
0001
0000
1000
0000
0000
0010
0000
0000
0100
0000
,
0002
0000
0000
0003
,
1000
0100
0010
0001
1000
0100
0010
0001
1000
0001
0100
0010
1000
0001
0100
0010
,
1000
0001
0010
0100
1000
0001
0010
0100
1000
0001
0010
0001
0100
0010
1000
0100
,
0010
0001
1000
0001
0100
0010
1000
0100
0010
0001
0100
0010
1000
0001
0010
0001
,
1000
0001
0100
0010
1000
0100
0010
0001
1000
0001
0100
0010
1000
0010
0100
0001
,
0010
0001
1000
0100
0010
0001
0100
0010
1000
0100
1000
0001
1000
0001
0100
0001
,
1000
0010
1000
0100
0010
0001
0010
0001
0100
0010
0100
0010
1000
0001
1000
0010
,
0100
0001
0010
0001
0010
0100
1000
0100
1000
0001
0010
0001
0010
0100
1000
0001
,
1000
0010
0100
0001
0010
0001
1000
0100
1000
0010
0100
0001
1000
0001
0100
0001
,
0010
0100
1000
0001
1000
0010
0100
0001
1000
0010
0100
0001
1000
0001
0010
0100
,
1000
0001
0010
0100
1000
0001
0010
0100
1000
0001
0010
0001
0100
0010
1000
0100
,
0010
0001
1000
0001
0100
0010
1000
0100
0010
0001
0100
0010
1000
0001
0010
0001
,
1000
0001
0100
0010
1000
0100
0010
0001
1000
0001
0100
0010
1000
0010
0100
0001
,
0010
0001
1000
0100
0010
0001
0100
0010
1000
0100
1000
0001
1000
0001
0100
0001
,
1000
0010
1000
0100
0010
0001
0010
0001
0100
0010
0100
0010
1000
0001
1000
0010
,
0100
0001
0010
0001
0010
0100
1000
0100
1000
0001
0010
0001
0010
0100
1000
0001
,
1000
0010
0100
0001
0010
0001
1000
0100
1000
0010
0100
0001
1000
0001
0100
0001
,
1000
0100
0010
0100
1000
0001
0010
0100
0010
0001
1000
0010
0100
0010
1000
0001
,
0010
0100
0010
0001
1000
0100
1000
0001
0100
0001
0010
0100
1000
0010
0100
0001
,
0010
0100
1000
0010
0100
0010
0100
0001
0100
0001
0010
0001
1000
0100
0010
0001
,
1000
0010
0100
0001
0100
0010
0100
0001
0010
0100
1000
0001
1000
0001
0100
0010
,
0100
0001
0010
0100
1000
0100
0010
0100
1000
0001
0100
0001
0010
0001
1000
0100
,
1000
0010
0100
0001
0010
0001
1000
0100
0010
0001
1000
0100
1000
0010
0100
0001
,
1000
0001
0100
0001
0010
0001
1000
0100
1000
0010
1000
0001
1000
0010
0100
0001
,
0010
0110
1100
1001
,
0001
0010
0001
0010
0100
0010
0100
1000
0100
1000
0001
1000
0001
1000
0010
0100
,
0001
0000
0010
0000
0100
1000
0001
0100
0002
0000
0000
0000
0000
0000
0000
0000
,
1003
0100
0010
0100
0010
0001
1000
0001
0100
0001
1000
0010
0100
0010
1000
0100
,
0010
0001
0010
0001
1000
0100
1000
0010
0100
0001
0010
0001
1000
0100
0010
0001
,
1000
0000
0100
0010
0001
0010
0001
0000
1000
0001
0100
0010
1000
0000
0001
0010
,
0001
0010
0100
1000
0001
0000
0010
0000
0100
0000
0010
0000
0001
0000
1000
0000
,
0001
0010
0001
0010
0100
0010
0001
0010
0100
0010
0100
0010
0100
1000
0100
0010
,
0001
0000
1000
0001
0000
0000
1000
0000
0001
0000
1000
0010
0000
0000
0100
0000
,
0002
0000
0000
2003
0000
0000
3020
0000
,
0230
0000
0000
0000
0300
0001
0010
0100
,
2000
0000
0000
3020
0000
0000
0130
0000
,
0001
0000
1000
0001
0000
0000
0000
0000
,
1000
0010
0000
0101
0000
0001
0010
0100
,
1000
0001
0000
1001
0000
0001
1000
0001
,
0100
0001
0010
0001
1000
0100
0010
0001
1000
0010
0100
0001
1000
0100
0010
0001
,
1000
0001
0100
0001
0010
0001
1000
0100
0010
0001
1000
0001
1000
0010
1000
0100
,
1000
0100
0010
0001
0010
0001
0010
0100
1000
0001
0010
0100
1000
0100
1000
0100
,
0010
0001
1000
0100
1000
0010
0100
0001
0010
0001
1000
0100
0010
0001
1000
0001
,
0100
0001
1000
0001
0010
0100
1000
0100
0010
0001
1000
0001
0010
0100
0010
0001
,
1000
0100
0010
0001
1000
0100
1000
0001
2000
0000
3000
0000
2000
0000
0000
0000
,
3001
0010
0001
0010
0100
0000
0000
0000
1000
0001
0100
0001
0010
0100
1000
0100
,
1000
0100
0010
0001
1000
0001
1000
0001
0020
0000
0000
0000
0000
0000
0000
0000
,
0031
0001
1000
1000
0010
0010
1000
1000
,
0100
0010
0001
0010
0200
0000
0000
0000
,
2300
0000
3001
0001
0001
1000
0001
0010
,
0200
0000
1000
2300
0000
0000
3000
0001
,
0010
0000
0100
0100
0100
1000
0001
0100
,
0002
0000
1003
0020
0000
0000
0000
0000
,
1030
0100
0010
0100
1000
0001
0010
0100
0010
0001
1000
0100
0010
0100
1000
0001
,
0010
0100
0010
0001
1000
0001
0100
0001
1000
0010
0100
0001
1000
0000
0001
0000
,
2000
0000
0000
3001
,
2000
0000
0000
3000
,
0001
1000
0010
0100
0001
0010
0100
0010
0001
1000
0100
1000
0010
0100
0001
0010
,
0001
1000
0100
1000
0010
1000
0100
0010
0001
1000
0001
0010
0001
0010
0100
1000
,
0001
0010
0100
1000
0001
1000
0001
1000
0010
0100
0010
1000
0100
0010
0001
1000
,
0001
0010
0001
0010
0100
0010
0100
1000
0100
1000
0001
1000
0002
0000
0000
0000
,
0013
0100
0010
0001
1000
0100
0010
0001
1000
0001
0100
0001
0010
0100
1000
0001
,
1000
0010
0100
0001
1000
0001
0100
0001
0010
0100
0010
0001
1000
0100
0010
0100
,
1000
0100
0010
0001
1000
0010
1000
0001
0010
0001
1000
0010
0100
0001
0010
0001
,
1000
0100
0010
0001
0010
0001
1000
0100
1000
0010
0100
0001
0010
0001
0100
0001
,
2000
0000
0000
0000
0000
0000
0000
0000
0000
0000
0000
0000
3000
0000
0001
1000
,
0020
0000
0000
0000
,
1030
0100
0010
0001
0010
0100
1000
0010
0100
0001
0100
0010
1000
0001
0010
0001
,
1000
0100
1000
0010
1000
0001
0010
0001
0100
0001
1000
0001
2000
0000
0000
0000
,
3001
0000
1000
0100
0010
0001
1000
0001
1000
0000
0001
1000
0010
0100
0001
1000
,
0001
0010
0100
1000
0100
1000
0100
1000
0010
0100
0001
0010
0001
1000
0010
1000
,
0002
0000
2003
0000
,
3001
1000
0010
0100
0001
0010
0100
1000
0100
0010
0100
0010
,
0001
0010
0001
1000
0100
1000
0010
0100
0001
0010
0001
1000
0100
1000
0010
0100
,
0001
0100
0001
0010
0100
1000
0100
0010
0001
1000
0010
0100
0010
0100
0001
0100
,
0001
1000
0010
0100
0001
0010
0001
1000
0100
0010
0001
1000
0010
0100
0010
1000
,
0001
0100
0001
0010
0001
1000
0100
1000
0002
0000
0000
0000
2003
0000
0000
0000
,
3001
1000
0001
0100
0001
1000
0001
0010
0001
1000
0100
0010
0100
1000
0001
0100
,
0001
0010
0001
1000
0100
1000
0010
1000
0100
1000
0001
0100
0001
0010
0100
1000
,
0001
1000
0010
0100
0001
0010
0001
1000
0100
1000
0010
1000
0001
1000
0100
0010
,
0001
0010
0001
1000
0100
1000
0010
0100
0001
0010
0001
1000
0100
1000
0010
0100
,
0001
0000
0000
1000
0000
0000
0001
0000
0000
0000
1000
0010
1000
0010
1000
0001
,
1000
0000
0000
0100
0000
0000
0010
0000
0000
0000
0001
0010
0001
0100
0010
1000
,
0001
0000
0000
0010
0000
0000
0001
0000
0000
0000
1000
0010
0100
0010
1000
0100
,
0010
0000
0000
0001
0000
0000
0010
0000
0000
0000
0100
1000
0100
0010
0001
0010
,
0100
0000
0000
0000
0010
0001
1000
0001
1000
0010
0100
0001
0100
0010
1000
0100
,
0010
0001
1000
0001
0010
0100
0010
0001
1000
0100
0010
0001
1000
0001
1000
0010
,
1000
1000
1000
0100
0100
0100
0010
0001
,
0200
0000
0000
0001
0301
1000
0002
0000
,
1003
0100
0010
0001
1000
0100
0010
0001
1000
0010
0100
0001
1000
0010
0100
0001
,
1000
0001
0100
0001
1000
0001
0100
0001
1000
0001
0010
0100
2000
0000
0000
0000
,
3001
0010
0100
1000
0100
0010
0001
0100
,
0010
0000
0000
1000
0000
0000
0010
0000
0000
0100
0000
0000
0002
0000
0000
0000
0000
0000
1003
0001
1000
0001
1000
0001
,
1000
0010
1000
0010
1000
0100
1000
0100
1000
0001
1000
0001
1000
0010
1000
0010
,
1000
0100
0010
0001
0010
0100
1000
0100
0010
0001
0010
0100
1000
0100
0010
0001
,
1000
0100
0010
0001
1000
0001
2000
0000
,
3001
0000
0000
1000
0000
0001
0010
0100
1000
0010
0200
0000
0000
0000
0300
0000
,
0002
0000
0000
0023
0000
0000
0230
0000
,
2300
0000
0000
0000
3001
0000
1000
0010
0100
0010
1000
0001
2000
0000
0000
0000
,
3001
0000
0001
1000
0000
1001
0000
1000
,
0010
0100
0001
0010
0001
1000
0100
0010
0001
1000
0010
0100
0001
0000
0010
0000
,
0100
1000
0001
1000
0010
0100
0001
0010
0002
0000
0000
0000
1003
0010
0100
0010
,
1000
0001
0010
0001
1000
0100
0010
0001
1000
0010
0100
0001
0100
0010
0100
0001
,
0010
0001
0010
0100
0010
0001
0010
0100
1000
0100
0010
0100
2000
0000
0000
0000
0000
0000
3200
0000
0000
0000
0000
0000
,
0310
0001
1000
0010
0100
0001
0010
0100
1000
0010
0100
0001
0100
0010
1000
0001
0100
0010
1000
0001
0010
0100
1000
0001
,
0010
0100
0010
0001
0010
0100
1000
0001
1000
0010
1000
0100
0010
0001
0100
0001
,
0100
0010
1000
0100
1000
0001
0010
0001
0100
0010
1000
0100
1000
0001
0010
0001
,
1000
0100
1000
0001
0010
0001
0100
0010
0100
0001
0010
0100
1000
0001
0010
0100
,
1000
0000
0000
0000
0001
0010
0100
1000
0002
0000
0000
0000
0003
0000
0000
0000
,
1000
0010
1000
0010
0100
0001
0010
0001
1000
0100
1000
0010
0100
0010
0100
0001
,
0010
0001
1000
0100
1000
0010
0100
0001
0010
0001
1000
0001
1000
0001
0100
0010
,
1000
0001
0100
0010
1000
0001
0010
0001
0100
0001
0100
0010
0100
0010
0100
0001
,
0010
0100
1000
0010
0100
0001
1000
0001
0010
0100
0010
0001
0010
0100
1000
0001
,
1000
0000
0000
0000
,
0000
0000
0000
0000
,
1001
0000
0000
0000
,
0000
0000
0000
0000
,
1000
0001
0010
0001
1000
0010
0100
0001
0010
0001
1000
0001
0100
0010
1000
0001
,
0010
0100
1000
0010
0100
0010
0100
0001
1000
0001
0100
0001
0010
0100
0010
0001
,
1000
0100
0010
0001
1000
0010
1000
0100
0010
0100
1000
0001
0100
0001
0010
0100
,
1000
0100
0010
0001
0100
0010
1000
0100
0010
0001
0100
0010
1000
0100
0010
0001
,
1000
0000
0100
0000
0010
0001
1000
0000
0001
0000
0100
0000
0010
1000
0100
0000
,
0010
0000
0001
0000
1000
0010
1000
0000
0001
0000
1000
0000
0010
0100
0001
0000
,
0010
0000
0100
0000
1000
0001
1000
0000
0001
0000
0100
0000
0010
1000
0001
0000
,
1000
0000
0010
0000
0100
0001
0010
0000
0100
0000
1000
0000
0001
1000
0001
0000
,
1000
0000
0010
0000
0100
0001
0010
0000
0001
0000
1000
0000
0010
0100
0001
0000
,
0010
0000
0100
0000
1000
0100
0010
0000
0001
0000
0010
0000
0100
1000
0001
0000
,
1000
0000
0010
0000
0100
0001
0010
0000
0100
0000
1000
0000
0001
1000
0001
0000
,
1000
0100
0010
0001
0100
0010
1000
0001
0100
0010
1000
0100
0010
0001
0010
0100
,
1000
0100
0010
0001
0010
0100
1000
0001
,
1000
0010
0100
0001
1000
0100
1000
0100
,
1000
0010
0100
0001
0010
1000
0010
0001
,
1000
0010
0100
0001
0100
1000
0100
0001
,
0010
0001
1000
0100
0010
0001
0010
1000
,
0010
0100
1000
0100
0001
0010
0001
1000
,
0010
0000
0100
0001
0000
0000
0001
0000
,
0202
0303
0100
0010
,
1000
0000
0000
0010
0000
0000
0100
0000
,
0001
0000
0000
0010
0000
0000
0100
0000
,
1000
0000
0000
0100
0000
0000
0010
0000
,
0001
0000
1000
0010
,
0100
0000
0000
0001
0000
0000
0100
0000
,
0001
0000
0000
0010
0000
0000
0100
0000
,
1000
0000
0001
1000
0000
0000
0011
0000
,
2200
0000
0000
3300
,
1000
0100
0010
0001
0010
0000
0001
0000
1000
0001
0100
0001
1000
0001
0100
0001
,
0010
0100
1000
0100
0010
0001
1000
0010
,
1000
0000
0100
0010
0001
0000
0010
0000
0001
0010
0100
1000
0100
0010
0001
1000
,
0001
0010
0100
0010
1000
0010
0002
0000
,
1003
0001
1000
0010
0100
0000
0001
0000
0010
0100
0010
0001
1000
0100
0010
0001
,
1000
0010
0100
0010
1000
0100
0010
0001
,
0010
0000
0001
0010
0100
0000
1000
0000
0001
0100
0010
1000
0001
0100
0010
1000
,
0100
0010
0001
0010
0200
0000
2300
0000
,
3001
0100
0010
1000
0100
1000
0001
0010
0001
0100
0010
1000
0100
1000
0001
0010
,
0100
1000
0001
0010
0100
1000
0001
0100
0010
1000
0010
0100
0001
1000
0010
1000
,
0100
0010
0100
1000
0001
0010
0001
1000
0010
1000
0001
0100
0010
1000
0100
1000
,
0001
1001
1100
1010
,
0101
0000
0000
0101
0000
0000
1010
0000
0000
0202
0000
0000
0000
0000
0000
0000
,
0000
0303
0000
0000
0000
0000
0000
0000
0000
0000
0000
0000
0000
0000
0000
0000
;

//---------------dance-single - ----------------
#NOTES:
     dance-single:
     :
     Edit:
     14:
     0.000,0.000,0.000,0.000,0.000,0.000,0.000,0.000,0.000,0.000:
;

//---------------dance-single - ----------------
#NOTES:
     dance-single:
     :
     Hard:
     12:
     0.728,1.000,0.251,0.162,0.198,2743.000,147.000,95.000,0.000,0.000:

0000
0000
0000
0000
,
0000
0000
1000
0000
,
1001
0000
0001
0000
,
1001
0000
1000
0000
,
1010
0000
0010
0000
,
1010
0000
1000
0000
,
1100
0000
0100
0000
,
1100
0000
1000
0000
,
1001
0000
0110
0000
,
2002
0000
0000
3003
,
1000
0000
0100
0010
0001
0000
0001
0010
,
0100
0000
1000
0000
0001
0010
0100
1000
,
0001
0000
1000
0010
0100
0000
0100
0010
,
1000
0010
1000
0010
0200
0000
0000
0000
,
0301
0000
1000
0100
0010
0000
0010
0100
,
1000
0000
0001
0000
0001
0010
0100
1000
,
0001
0000
1000
0010
0100
0000
0100
0010
,
1000
0100
1000
0100
2000
0000
0000
0000
,
3001
0000
1000
0001
0010
0000
0010
0001
,
1000
0000
0001
0000
1000
0100
0010
0001
,
1000
0000
0001
0010
0100
0000
0100
0010
,
0001
0100
1000
0100
0002
0000
0000
0000
,
1003
0000
0001
0010
0100
0000
0100
0010
,
0001
0000
1000
0000
0001
0010
0100
1000
,
0001
0000
0100
0010
1000
0000
1000
0010
,
0100
0001
0100
0010
0200
0000
0000
0000
,
0301
1000
0000
1001
0000
1000
0001
0000
,
0001
1000
0000
1001
0000
1000
0001
0000
,
0001
1000
0000
1001
0000
1000
0001
0000
,
0011
1100
0110
0011
,
0001
0010
0000
0011
0000
0010
0001
0000
,
0001
0010
0000
0011
0000
0010
0001
0000
,
0001
0010
0000
0011
0000
0010
0001
0000
,
0101
1010
0110
0101
,
0001
0100
0010
0100
0001
0100
0010
0000
,
0010
1000
0010
0100
0010
1000
0010
0000
,
1000
0100
1000
0001
1000
0100
1000
0000
,
1001
1100
0011
1001
,
0001
0100
0001
1000
0001
0100
0001
0000
,
0010
0100
0010
0001
0010
0100
0010
0000
,
0022
0000
0000
0000
,
0000
0000
0000
0033
,
0001
0100
0010
1000
0001
0100
0010
1000
,
0001
0100
0010
1000
0001
0010
0100
1000
,
0001
0100
0010
1000
0001
0100
0010
1000
,
0001
0100
0010
1000
0001
0010
0100
1000
,
0001
0100
0001
0010
0001
1000
0001
0100
,
0001
0010
0001
1000
0001
0010
0100
1000
,
0001
0010
0001
0010
0100
1000
0100
1000
,
0100
0010
0001
0010
0100
1000
0010
0100
,
0001
0100
0001
0010
0001
0100
0001
1000
,
0001
0100
0001
0010
0001
0100
0010
1000
,
0001
1000
0010
1000
0100
1000
0001
1000
,
0010
1000
0100
1000
0001
1000
0100
1000
,
0001
0010
0100
1000
0001
0010
0100
1000
,
0001
0010
0100
1000
0001
0100
0010
1000
,
0001
0010
0100
0010
0001
0010
0100
1000
,
0100
0010
0001
0010
0100
1000
0100
1000
,
0001
0100
0010
1000
0001
0100
0001
0010
,
0100
1000
0100
0010
0001
1000
0100
1000
,
0001
0100
0010
0100
0001
0010
0001
1000
,
0100
0010
0100
0010
0001
1000
0100
0010
,
0001
0100
0010
1000
0001
0100
0010
1000
,
0001
0100
0010
1000
0001
0010
0100
1000
,
0001
0100
0010
1000
0001
0100
0010
1000
,
0001
0001
0010
0010
0100
0100
1000
1000
,
0001
1000
0100
0010
0001
0100
0010
1000
,
0100
0010
0001
1000
0010
0100
0001
0010
,
0001
1000
0010
0100
0001
0010
0100
1000
,
0100
0010
0001
0100
0010
0100
0001
0010
,
0100
1000
0100
0010
0100
1000
0001
0100
,
0010
1000
0010
0100
0001
0010
0001
0010
,
0001
0010
1000
0010
0001
0100
1000
0100
,
0002
0000
0000
0000
,
0013
0000
0001
0010
0001
0010
0001
0010
,
0001
1000
0001
1000
0001
1000
0001
1000
,
0010
1000
0010
1000
0010
1000
0010
1000
,
0100
1000
0100
1000
0100
1000
0100
1000
,
0010
1000
0010
1000
0010
1000
0010
1000
,
0001
1000
0001
1000
0001
1000
0001
1000
,
2002
0000
0000
3003
,
2002
0000
0000
3003
,
1000
0000
0001
0000
0100
0001
0100
0000
,
0010
0000
1000
0000
0100
0010
0001
0000
,
0010
0000
0100
0000
0010
0001
1000
0000
,
0001
0000
0100
0000
0010
1000
0010
0000
,
1000
0000
0001
0000
0100
0001
0010
0000
,
0100
0000
1000
0000
0100
0010
0001
0000
,
0001
1000
0001
1000
0001
1000
0001
1000
,
2002
0000
0000
3003
,
1000
0001
1000
0001
1000
0000
0001
0000
0100
0000
0010
0000
1000
0000
0100
0000
,
1000
0100
0010
0001
0010
0100
1000
0100
,
0010
0001
1000
0001
0100
0010
1000
0001
,
2000
0000
0000
3000
,
0001
1000
0001
1000
0001
0000
0010
0000
0100
0000
0010
0000
0001
0000
1000
0000
,
0100
0010
0100
1000
0001
0010
0100
1000
,
0001
0010
0100
1000
0001
0100
0010
1000
,
0002
0000
0000
0003
,
0001
0010
0001
0010
0001
0000
0010
0000
0100
0000
1000
0000
0100
0000
0010
0000
,
0100
0010
0001
1000
0010
0100
0001
0010
,
0100
1000
0010
0100
0001
0010
0100
1000
,
0002
0000
0000
0003
,
1000
0010
1000
0010
1000
0000
0010
0000
0100
0000
0001
0000
0100
0000
0010
0000
,
1000
0100
0010
0001
0100
0010
0100
0001
,
0100
0010
1000
0001
0100
0010
1000
0100
,
0020
0000
0000
0030
,
0011
0011
0110
0110
,
1100
1100
0110
0110
,
0011
0011
1001
1001
,
1010
1010
0101
0101
,
0001
0100
0001
0100
0001
1000
0001
1000
,
0001
0010
0001
0010
0001
1000
0001
1000
,
0001
0100
0001
0100
0001
0010
0001
0010
,
0001
0010
0100
1000
0001
0010
0100
1000
,
1100
1100
0110
0110
,
1100
1100
1001
1001
,
1100
1100
1010
1010
,
1100
0110
0011
1100
,
1000
0100
0010
0001
0100
0010
1000
0100
,
0010
0001
1000
0010
0100
0001
0100
0001
,
1000
0001
1000
0001
1000
0001
1000
0001
,
1000
0001
1000
0001
1000
0001
1000
0001
1000
0000
0000
0000
0100
0000
0000
0000
,
0010
0000
0000
0001
0000
0000
0010
0000
,
0100
0000
0000
1000
0000
0000
0001
0000
,
0100
0000
0000
0010
0000
0000
1000
0000
,
1010
0000
0010
0100
,
0001
0000
0000
0010
0000
0000
0100
0000
,
1000
0000
0000
0100
0000
0000
0010
0000
,
0001
0000
1000
0001
0000
0000
1000
0000
,
2002
3003
0001
1000
,
0001
0000
0000
0010
0000
0000
0001
0000
,
0010
0000
0000
0001
0000
0000
1000
0000
,
0010
0000
0000
0100
0000
0000
0010
0000
,
1010
0000
1000
0100
,
0010
0000
0000
0001
0000
0000
1000
0000
,
0100
0000
0000
0010
0000
0000
0001
0000
,
1000
0000
0010
0100
0000
0000
0101
0000
,
2020
0000
0000
3030
,
1000
1000
1000
0001
1000
0100
0010
0001
,
0100
0010
1000
0100
0010
0001
1000
0001
,
0010
0010
0010
0001
1000
0010
0100
0001
,
0010
0100
1000
0100
0010
0001
2000
0000
,
3100
0100
0100
0010
0001
0010
0100
1000
,
0001
1000
0010
0100
0001
0010
0001
1000
,
0001
0001
0001
1000
0010
1000
0100
0010
,
0001
1000
0100
0010
0110
0000
0110
0000
,
0010
0100
0010
0100
0010
0000
0000
0000
0100
0010
0100
0010
0100
0000
0000
0000
,
0010
0100
0010
0100
0010
0000
0000
0000
0100
0010
0100
0010
0100
0000
0000
0000
,
0020
0000
0032
0000
,
0013
0011
0010
0011
,
1001
1010
0101
0110
,
1010
0000
0010
1000
0001
1000
0010
1000
,
0100
1000
0010
1000
0001
1000
0001
0100
,
0001
0010
0001
0100
0001
1000
0001
0100
,
0001
0010
0001
0100
0001
1000
0001
1000
,
0001
0000
1000
0100
1000
0001
1000
0010
,
1000
0100
1000
0010
1000
0001
1000
0001
,
0100
0010
0100
0001
0100
0010
0100
0001
,
2000
0000
0000
3000
,
0001
1000
0001
1000
0001
0000
0100
0000
0010
0000
0100
0000
0001
0000
0010
0000
,
0100
1000
0100
0010
0001
1000
0010
0100
,
0001
0100
0010
1000
0001
0100
0001
0010
,
0002
0000
0000
0003
,
1000
0100
1000
0100
1000
0000
0001
0000
0100
0000
0001
0000
1000
0000
0100
0000
,
1000
0010
0100
0001
0010
0100
1000
0100
,
0010
0001
1000
0100
0010
0001
0100
0010
,
2000
0000
0000
3000
,
0010
1000
0010
1000
0010
0000
0100
0000
0001
0000
0010
0000
0100
0000
1000
0000
,
0100
0010
0001
0010
0100
1000
0001
1000
,
0001
0010
0100
0010
0001
0010
0100
1000
,
0200
0000
0000
0300
,
0010
0100
0010
0100
0010
0000
0001
0000
0010
0000
0100
0000
1000
0000
0010
0000
,
0100
0001
0010
0100
1000
0100
0010
0001
,
0010
0100
1000
0010
0100
0001
0010
0100
,
2000
0000
0000
3000
,
1010
0110
0101
0011
,
0101
0110
1010
1100
,
0110
0011
0101
0011
,
0110
1100
0110
0011
,
2002
0000
0000
0000
,
0000
0000
0000
3003
,
2020
0000
0000
0000
,
0000
0000
0000
3030
,
1010
0101
0110
1010
,
1100
0011
0110
1100
,
1001
0101
0110
1001
,
1100
0011
1100
0011
,
0001
0010
0100
1000
0001
0100
0010
1000
,
0001
0100
0001
1000
0100
1000
0100
0010
,
0001
1000
0100
0010
0001
1000
0010
0100
,
0010
0100
0010
0100
0010
0100
0010
0100
0010
0000
0000
0000
1000
0000
0000
0000
,
0100
0000
0000
0010
0000
0000
0001
0000
,
0010
0000
0000
0001
0000
0000
1000
0000
,
0001
0000
0000
0100
0000
0000
0010
0000
,
1000
0000
0001
1000
,
0010
0000
0000
1000
0000
0000
0100
0000
,
0010
0000
0000
0001
0000
0000
0010
0000
,
0001
0000
1000
0001
0000
0000
1001
0000
,
1010
0000
1000
0100
,
0010
0000
0000
0001
0000
0000
0010
0000
,
0100
0000
0000
1000
0000
0000
0100
0000
,
0010
0000
0000
0001
0000
0000
0100
0000
,
0010
0000
1000
0010
,
0100
0000
0000
0001
0000
0000
0100
0000
,
0010
0000
0000
1000
0000
0000
0100
0000
,
0010
0000
0001
1000
0000
0000
1100
0000
,
0022
0000
0000
0033
,
0001
0010
0001
0010
0001
0000
0010
0000
0100
0000
1000
0000
0100
0000
0010
0000
,
0001
1000
0001
1000
0010
0100
0001
1000
,
0001
0000
1000
0001
1000
0000
0100
0000
0010
0000
0001
0000
0010
0000
0100
0000
,
1000
0001
0100
0010
1000
0001
1000
0000
,
0001
1000
0001
1000
0001
0000
0010
0000
0100
0000
1000
0000
0100
0000
0010
0000
,
0001
0010
0100
1000
0001
0100
0010
1000
,
0010
0000
1000
0010
1000
0000
0010
0000
0100
0000
0001
0000
1000
0000
0100
0000
,
0010
0100
1000
0100
1100
0000
1100
0000
,
1000
0100
0010
0001
1000
0100
0010
0001
,
1000
0100
0010
0001
1000
0100
0010
0001
,
0011
0000
0000
0000
1001
1001
0000
0000
,
2002
0000
0000
3003
,
1001
1100
0110
0011
,
2002
0000
0000
0000
,
0000
0000
0000
0000
,
0000
0000
3003
0000
,
0000
0000
0000
0000
,
0000
0000
0000
0000
,
0000
0000
0000
0000
,
0000
0000
0000
0000
,
0000
0000
0000
0000
,
1000
0000
0001
0000
1000
0001
1000
0001
,
1000
0000
0001
0000
1000
0001
1000
0001
,
1000
0000
0001
0000
1000
0001
1000
0001
,
1000
0000
0001
0000
1000
0001
1000
0001
,
0100
0000
0001
0000
0100
0001
0100
0001
,
0100
0000
0001
0000
0100
0001
0100
0001
,
0100
0000
0001
0000
0100
0001
0100
0001
,
0100
0010
0100
0001
0100
0010
0100
0001
,
1000
0000
0001
0000
1000
0001
1000
0001
,
1000
0000
0001
0000
1000
0001
1000
0001
,
1000
0000
0001
0000
1000
0001
1000
0001
,
1000
0000
0001
0000
1000
0001
1000
0100
,
1000
0000
0100
0000
1000
0100
1000
0100
,
1000
0000
0100
0000
1000
0100
1000
0100
,
1000
0000
0100
0000
1000
0100
1000
0100
,
1000
0000
0100
0000
0010
0000
0100
0000
1000
0100
1000
0100
1000
0001
1000
0001
,
1000
0100
1000
0100
0010
0100
0010
0100
,
1000
0100
1000
0100
0010
0100
0010
0100
,
1000
0001
1000
0001
0100
0001
0100
0001
,
1000
0001
1000
0001
0100
0001
0100
0001
,
0100
0010
0100
0010
0100
1000
0100
1000
,
0100
0010
0100
0010
0100
1000
0100
1000
,
0100
0001
0100
1000
0100
0001
0100
1000
,
0100
0001
0100
1000
0100
0001
0100
1000
,
0100
0000
0000
0000
0001
0000
0100
0001
0100
0000
0001
1000
0001
0000
1000
0010
,
1000
0000
0100
1000
0100
0000
1000
0001
1000
0000
0001
0100
0001
0000
1000
0010
,
1000
0000
0000
0000
0001
0000
1000
0010
1000
0000
0100
1000
0100
0000
1000
0001
,
1000
0000
0001
0100
0001
0000
1000
0100
1000
0000
0001
0010
0001
0000
1000
0001
,
1000
0000
0000
0000
0100
0000
1000
0100
1000
0000
0010
1000
0010
0000
0100
0010
,
0100
0000
0001
0100
0001
0000
1000
0001
1000
0000
0010
1000
0010
0000
1000
0001
,
1000
0000
0000
0000
0001
0000
0100
0010
0100
0000
0001
0100
0001
0000
1000
0001
,
1000
0000
1000
0000
1000
0001
0000
0000
1001
0000
0000
0000
0001
0010
0100
1000
,
0001
0010
0001
0010
0001
1000
0001
1000
,
0001
0010
0001
0010
0001
1000
0001
1000
,
0010
1000
0010
1000
0010
0001
0010
0001
,
0010
1000
0010
1000
0010
0100
0010
0100
,
0001
0100
0001
0100
0001
0010
0001
0010
,
0001
1000
0001
1000
0001
0100
0001
0100
,
0001
0000
0010
0000
0001
0000
0010
0000
0001
0000
0100
0000
0001
0000
0100
0001
,
0100
0000
0001
0000
0100
0001
0000
0000
0101
0000
0000
0000
0001
0100
0010
1000
,
0001
0100
0001
0100
0001
1000
0001
1000
0001
0100
0001
0100
0001
1000
0001
1000
,
0001
0100
0001
0100
0001
1000
0001
1000
0001
0100
0001
0100
0001
1000
0001
1000
,
0001
0100
0001
0100
0001
0010
0001
0010
0001
0100
0001
0100
0001
0010
0001
0010
,
0001
0100
0001
0100
0001
0010
0001
0010
0001
0100
0001
0100
0001
0010
0001
0010
,
0001
1000
0001
1000
0100
0010
0100
0010
0001
1000
0001
1000
0100
0010
0100
0010
,
0001
1000
0001
1000
0100
0010
0100
0010
0001
1000
0001
1000
0100
0010
0100
0010
,
0001
0010
0001
0010
0100
1000
0100
1000
0001
0010
0001
0010
0100
1000
0100
1000
,
0001
0010
0001
0010
0100
1000
0100
1000
0001
0010
0001
0010
0100
1000
0100
1000
,
0002
0000
0000
0000
,
0000
0000
0000
0000
,
2003
0000
0000
0000
,
0000
0000
0000
0000
,
3200
0000
0000
0000
,
0000
0000
0000
0000
,
0320
0000
0000
0000
,
0000
0000
0000
0000
,
0032
0000
0000
0000
,
0000
0000
0000
0000
,
2003
0000
0000
0000
,
0000
0000
0000
0000
,
3002
0000
0000
0000
,
0000
0000
0000
0000
,
0203
0000
0000
0000
,
0000
0000
0000
0300
,
0001
0100
0001
0100
0001
1000
0001
1000
,
0001
0010
0001
0010
0001
0010
0100
1000
,
0001
0010
0001
0010
0001
1000
0001
1000
,
0001
0100
0001
0100
0001
0010
0100
1000
,
0001
0100
0001
0100
0001
1000
0001
1000
,
0001
0100
0001
0100
0001
0010
0100
1000
,
0001
0010
0001
0010
0001
0100
0001
0100
,
0001
1000
0001
1000
0001
0010
0100
1000
,
0001
0010
0100
1000
0010
0100
0001
0010
,
0100
1000
0100
0010
0001
1000
0010
0100
,
0001
0010
0001
1000
0100
1000
0010
0100
,
0001
0010
0100
1000
0010
0100
0010
1000
,
0001
0100
0010
1000
0100
0010
0001
0010
,
0100
1000
0100
0010
0100
1000
0001
0010
,
0001
1000
0100
0010
0100
1000
0010
0100
,
0001
0010
0100
0010
0001
1000
0100
1000
,
0001
0010
0100
1000
0010
0100
0001
0010
,
0100
1000
0100
0010
0001
1000
0010
0100
,
0001
0010
0001
1000
0100
1000
0010
0100
,
0001
0010
0100
1000
0010
0100
0010
1000
,
0001
0100
0010
1000
0100
0010
0001
0010
,
0100
1000
0100
0010
0100
1000
0001
0010
,
0001
1000
0100
0010
0100
1000
0010
1000
,
1010
1010
1010
0101
,
0001
0100
0001
0100
0001
0000
0100
0000
0001
0000
0100
0000
0001
0000
0100
0000
,
0001
0000
0010
0000
0001
0010
0001
0010
0002
0000
0000
0000
0003
0000
0000
0000
,
0001
0010
0100
1000
0010
0100
0010
1000
,
0100
0010
0001
0010
0001
1000
0100
0010
,
0001
0000
0010
0001
0010
0001
0010
0000
0001
0010
0001
0010
0001
0000
0010
0001
,
0010
0100
1000
0100
0010
0001
0010
0100
,
1000
0100
1000
0010
1000
0010
1000
0001
,
1000
0000
0001
0100
0000
0000
0001
0000
1000
0000
0001
0010
0000
0000
0001
0000
,
2000
0000
0000
3200
0000
0000
0320
0000
,
0032
0000
0000
0000
0003
0001
0010
0100
,
2000
0000
3000
2020
0000
3030
1000
0000
,
2200
3300
1000
0020
0000
0000
0000
0030
,
0100
0001
0000
0101
0000
0001
0100
0010
,
1000
0001
0000
0011
0000
1000
0100
0010
,
0001
0010
0100
1000
0010
0100
0001
0010
,
0100
1000
0010
0100
0001
0010
0100
1000
,
0001
0100
0001
0100
0001
0100
0001
0010
0001
0010
0001
0010
0001
0000
0010
0000
,
0001
0010
0100
1000
0001
0010
0100
1000
,
0001
0100
0010
1000
0001
0100
0010
1000
,
0001
1000
0010
1000
0002
0000
0000
0003
,
1000
0001
1000
0001
1000
0000
0001
0000
0100
0000
0010
0000
1000
0000
0001
0000
,
0100
0010
1000
0100
2000
0000
3000
0000
,
1000
1000
0010
0010
0100
0100
0001
0001
,
1000
0100
0010
0001
2000
0000
0000
3000
,
0001
0000
0010
0001
0010
0001
0010
0100
,
1000
0000
1000
0200
0000
0000
0300
0010
,
0001
0000
1000
0001
1000
0001
1000
0010
,
0200
0000
0301
0020
0000
0000
0000
0030
,
0100
0010
0100
0010
0100
0000
0010
0000
0001
0000
1000
0000
0100
0000
0010
0000
,
0001
0100
0010
1000
0010
0100
0001
1000
,
0002
0000
0000
0000
0000
0003
0010
0000
,
0200
0000
0000
0300
,
1000
0100
1000
0100
1000
0000
0100
0000
0010
0000
0001
0000
1000
0000
0100
0000
,
0010
0100
0010
0100
0010
0000
0001
0000
1000
0000
0100
0000
0010
0000
0001
0000
,
0010
0001
0010
0001
0010
0000
0001
0000
1000
0000
0100
0000
0010
0000
0001
0000
,
1000
0100
0001
0100
1000
0001
1000
0000
,
1000
0100
1000
0100
1000
0000
0100
0000
0010
0000
0001
0000
1000
0000
0100
0000
,
0010
0100
0010
0100
0010
0000
0001
0000
1000
0000
0100
0000
0010
0000
0001
0000
,
0010
0001
0010
0001
0010
0000
0001
0000
1000
0000
0100
0000
0010
0000
0001
0000
,
1000
0100
0001
0100
1000
0100
0010
0001
,
0020
0000
0000
0000
0000
0000
0000
0000
0000
0000
0000
0000
0030
0000
0001
0010
,
0002
0000
0000
0000
,
1003
0100
1000
0100
0010
0100
0010
0001
,
0010
0001
0010
0100
1000
0100
0010
0001
,
1000
0010
1000
0010
1000
0100
1000
0100
,
1000
0100
0010
0001
0100
0010
1000
0100
,
0020
0000
0032
0000
,
1003
0001
1000
0001
0100
0001
0100
0010
0100
0010
1000
0010
,
1000
0010
1000
0100
0010
0100
1000
0001
,
0010
0100
1000
0100
0010
0100
1000
0001
,
0010
0100
0010
0001
1000
0100
1000
0001
,
0100
0001
0100
0010
0200
0000
0302
0000
,
1003
0100
1000
0010
0100
0001
0100
0010
,
1000
0100
0010
0001
1000
0100
0010
0001
,
0010
0100
0010
0001
0010
0100
1000
0100
,
1000
0100
0010
0001
1000
0010
0100
0001
,
1000
0000
0000
0001
0000
0000
1000
0000
0000
0000
0001
1000
0001
1000
0001
1000
,
0001
0000
0000
1000
0000
0000
0001
0000
0000
0000
1000
0001
1000
0001
1000
0001
,
1000
0000
0000
0010
0000
0000
1000
0000
0000
0000
0010
1000
0010
1000
0010
1000
,
0010
0000
0000
1000
0000
0000
0100
0000
0000
0000
1000
0100
1000
0100
1000
0100
,
1000
0100
0010
0001
0010
0100
1000
0010
,
0100
0001
0010
0100
1000
0001
0100
0001
,
1000
0010
1000
0010
0100
0010
0100
0001
,
0200
0000
0000
0310
1000
0010
0200
0000
,
0301
0010
0100
1000
0100
1000
0001
0010
,
0001
1000
0010
0100
0001
0100
0002
0000
,
1003
0010
0100
0010
1000
0010
0100
0010
,
1000
0100
0010
0001
2000
0000
0001
0000
,
3001
0100
0010
0100
0001
0100
0010
1000
,
0010
0100
0010
1000
0100
0010
0001
0010
,
0100
0010
0001
0010
0100
1000
0001
0000
,
1000
0000
0100
0010
0002
0000
0003
0000
,
1000
0000
0000
0100
0000
0000
0010
0000
,
0001
0000
0000
0000
1000
0000
0001
0100
0010
0000
1000
0000
0001
0000
0000
0000
,
0010
0000
0100
1000
0000
1100
0000
1000
,
0001
0100
0010
1000
0010
0100
0001
1000
,
0001
0010
0100
0010
0002
0000
0023
0000
,
0130
1000
0100
0010
0100
1000
0100
0010
,
0001
0010
0100
0010
0002
0000
2003
0000
,
3001
0100
0010
1000
0001
0100
0010
1000
,
0001
0010
0100
1000
0100
0010
0001
1000
,
0010
0100
0001
0010
0001
1000
0100
1000
,
0010
0100
0001
0010
0100
1000
0100
0010
,
0001
0010
0100
1000
0002
0000
0000
0000
,
1003
0001
1000
0001
1000
0001
1000
0001
1000
0000
0001
0000
1000
0000
0001
0000
,
1000
0010
1000
0010
1000
0010
1000
0010
1000
0000
0100
0000
1000
0000
0100
0000
,
1000
0100
1000
0100
1000
0100
1000
0100
0010
0000
0100
0000
0010
0000
0100
0000
,
0010
0001
0010
0001
0010
0001
0010
0001
0010
0100
1000
0100
0010
0001
0010
0100
,
1000
0000
0000
0000
,
0000
0000
0000
0000
,
1000
0000
0000
0000
,
0000
0000
0000
0000
,
1000
0100
0010
0001
1000
0001
0100
0001
,
0010
0001
1000
0010
0100
0001
0100
0010
,
1000
0001
0100
0001
0010
0001
1000
0100
,
0010
0010
0010
0010
,
0001
0010
0100
1000
0010
0100
0001
0100
,
0010
0100
0001
1000
0010
0100
0001
0100
,
0010
1000
0100
0010
0001
0010
0100
1000
,
0001
1000
0010
1000
0100
1000
0100
0010
,
0100
0010
0001
1000
0001
0100
0010
0100
,
0001
0010
0100
1000
0100
0001
0100
1000
,
0001
0010
0100
0010
0001
0010
0100
0010
,
0100
1000
0100
0010
0100
1000
0100
0010
,
0002
0000
0000
0000
,
0000
0000
0000
0000
,
0023
0000
0000
0000
,
0000
0000
0000
0000
,
0230
0000
0000
0000
,
0000
0000
0000
0000
,
2300
0000
0000
0000
,
0000
0000
0000
0000
,
3002
0000
0000
0000
,
0000
0000
0000
0000
,
0023
0000
0000
0000
,
0000
0000
0000
0000
,
0230
0000
0000
0000
,
0000
0000
0000
0000
,
2300
0000
0000
0000
,
0000
0000
0000
0000
,
3001
1000
0001
1000
0001
0000
1000
0000
0100
0000
0010
0000
0001
0000
1000
0000
,
0001
0100
0010
0100
0001
0010
0100
1000
,
0100
0000
0010
0001
0010
0000
0100
0000
1000
0000
0001
0000
0100
0000
0010
0000
,
0100
0001
0100
0010
1000
0001
0200
0000
,
0301
0100
0001
0100
0001
0000
0100
0000
0010
0000
1000
0000
0001
0000
0100
0000
,
0010
1000
0100
0010
0001
0010
0100
1000
,
0001
0000
1000
0001
1000
0000
0010
0000
0100
0000
0001
0000
0010
0000
0100
0000
,
1000
0001
0100
0001
0101
0000
0101
0000
,
0100
0001
0100
0001
0100
0000
0000
0000
0010
0100
0010
0100
0010
0000
0000
0000
,
1000
0010
1000
0010
1000
0000
0000
0000
0001
1000
0001
1000
0001
0000
0000
0000
,
1000
0100
0010
0001
0100
0010
1000
0100
,
0110
0011
0110
1100
,
1001
0000
0000
1001
0000
0000
0110
0000
0000
2002
0000
0000
0000
0000
0000
0000
,
0000
3003
0000
0000
0000
0000
0000
0000
;
