#TITLE:Red Lucifer Rising;
#SUBTITLE:;
#ARTIST:Saitama Saishuu Heiki;
#TITLETRANSLIT:;
#SUBTITLETRANSLIT:;
#ARTISTTRANSLIT:;
#CREDIT:;
#BANNER:../banner.png;
#BACKGROUND:../bg.png;
#LYRICSPATH:;
#CDTITLE:;
#MUSIC:Red Lucifer Rising.ogg;
#OFFSET:1.262;
#SAMPLESTART:92.470;
#SAMPLELENGTH:20.200;
#SELECTABLE:YES;
#BPMS:0.000=192.051;
#STOPS:;
#BGCHANGES:;
// cache tags:
#FIRSTBEAT:4.000;
#LASTBEAT:750.000;
#SONGFILENAME:Songs/Cirque du Lykan/Red Lucifer Rising - [Zaia]/Red Lucifer Rising.sm;
#HASMUSIC:1;
#HASBANNER:1;
#MUSICLENGTH:238.705;
// end cache tags

//---------------dance-single - Zaia - 13(low)----------------
#NOTES:
     dance-single:
     Zaia - 13(low):
     Hard:
     13:
     1.000,1.000,0.021,0.335,0.974,1838.000,5.000,80.000,0.000,2.000:
0000
0000
0000
0000
,
0101
0100
0010
0100
0001
0010
0100
1000
,
0001
0100
0010
2000
0000
0000
0000
3000
,
1100
0100
0010
0100
1000
0010
0100
0001
,
1000
0000
0100
0000
0010
0000
0001
0000
1000
0000
0010
0100
0001
0000
1000
0000
,
1100
0100
0010
0001
0001
1000
0010
0010
,
0100
0000
0001
0000
0001
0000
2000
0000
0000
0000
3010
0100
0001
0000
0000
0000
,
1000
0010
1000
0001
1000
0010
1000
0001
,
1000
0010
0100
0001
1000
0001
1000
0100
0010
0001
1000
0001
2000
0000
0000
0000
,
3010
0100
0001
1000
0100
0010
0001
0010
,
0100
1000
0010
0100
0001
0100
0001
0100
,
0001
1000
0100
0010
0001
1000
0010
0100
,
0010
0000
1000
0000
0100
0000
0010
0000
0001
0000
1000
0010
0100
0000
0001
0000
,
0100
0010
1000
0001
0010
0100
1000
0100
,
0010
0001
0100
0010
1000
0010
1000
0010
,
1000
0001
0010
0100
1000
0001
0100
0010
,
0100
0000
0001
0000
0010
0000
0100
0000
1000
0000
0001
0100
0010
0000
1000
0000
,
0001
0100
0001
0000
1000
0000
0001
0010
0001
0000
1000
0000
0010
1000
0001
0100
,
0010
1000
0010
1000
0001
0010
0100
1000
0001
1000
0010
0000
1000
0000
0002
0000
,
0000
0000
1003
0010
1000
0010
0100
0010
,
0100
0001
0100
0001
1000
0001
0010
0100
,
1000
0000
0001
1000
0001
0000
0100
0000
0010
0000
1000
0000
0100
0000
1000
0000
,
0001
0000
0100
0000
0010
0000
1000
0000
0001
0000
1000
0100
1000
0000
0001
0000
,
0000
1000
0001
0010
0001
0010
0100
0010
,
0001
0100
0001
1000
0010
1000
0001
2000
,
0000
3100
0010
0100
1000
0001
0100
0020
,
0000
1030
0001
0100
0010
1000
0100
0010
,
0000
0000
0100
0010
0001
0000
1000
0000
0001
0000
1000
0000
0010
0000
1000
0000
,
0001
0100
0001
1000
0100
1000
0001
0200
,
0000
0000
0310
1000
0001
0000
0100
0000
0010
0000
1000
0000
0001
0000
1000
0000
,
0001
0100
0001
0100
0010
1000
0010
1000
0001
1000
0001
1000
0001
0010
0200
0000
,
0000
0310
0001
0100
0001
0100
0010
1000
,
0001
0010
0001
1000
0100
1000
0001
2000
,
0000
3001
0010
0100
0010
0001
0100
0020
,
0000
0000
1030
0000
0010
0000
0100
0010
1000
0001
1000
0001
0010
0000
0200
0000
,
0000
0310
0001
0100
0010
0100
0001
0020
,
0000
0130
1000
0001
1000
0010
0100
0002
,
0000
0000
1003
0000
0010
0000
0100
0000
0010
0000
1000
0000
0001
0000
0100
0010
,
0100
0000
0010
0000
1000
0000
0001
0100
0001
0000
0100
0000
0010
0000
2000
0000
,
0000
3001
0010
0100
1000
0100
0010
0002
,
0000
0103
0010
0100
0001
0010
0100
2000
,
0000
0000
3001
0100
0010
1000
0001
1000
0001
0010
0100
1000
0001
0100
0010
0000
,
0000
0000
1000
0100
0010
0001
1000
0001
1000
0010
0100
0001
1000
0001
0020
0000
,
0000
0130
1000
0001
1000
0100
0010
0001
,
1000
0001
1000
0010
0100
0010
1000
0100
,
0010
0100
1000
0100
0010
0100
1000
0100
,
0010
0001
0010
0100
1000
0001
0100
0020
,
0000
0000
0130
0001
1000
0000
0100
0000
1000
0000
0001
0000
0100
0000
0010
0000
,
0100
0001
0100
0001
1000
0001
1000
0100
,
0010
0100
0010
0100
0010
0100
1000
0001
,
1000
0010
0100
0001
1000
0001
1000
0100
0010
0001
1000
0001
0100
0000
0002
0000
,
0000
0103
0001
1000
0001
0100
0010
1000
,
0001
1000
0001
0010
0100
0010
0001
0100
,
0010
0100
0001
0100
0010
0100
0001
0100
,
0010
0000
1000
0000
0010
0000
0100
0000
0001
0000
1000
0100
1000
0000
0010
0000
,
0000
0100
0001
1000
0001
1000
0100
0010
,
0100
1000
0100
1000
0001
1000
0001
0100
,
0010
0100
0010
0100
0010
0100
0001
1000
,
0001
0010
0001
0000
1000
0000
0001
0100
0001
0000
1000
0000
0010
0100
0001
1000
,
0001
0100
0010
0100
0001
1000
0010
0100
0010
0100
0001
1000
0100
0010
0100
1000
,
0001
0000
0001
0000
1000
0100
1000
0000
0001
0000
0100
0010
0100
0000
0001
0000
,
1000
0000
0001
0000
1000
0100
0010
0001
1000
0100
0010
0000
0001
0000
1000
0010
,
0100
0001
1000
0010
0100
0001
1000
0000
0001
0000
1000
0000
0001
0000
1000
0000
,
0001
0010
0001
0000
1000
0000
0001
0100
0001
0000
1000
0000
0010
0100
0010
0100
,
0001
1000
0001
0000
0010
0000
0001
1000
0001
0000
0100
0000
0010
1000
0010
0000
,
1000
0000
0001
0010
0100
1000
0001
0010
0100
0000
1000
0000
0001
0000
1000
0001
,
0100
0000
0000
0010
0000
0000
1000
0000
0000
0001
0000
0000
0100
0000
0000
0010
0000
0000
1000
0000
0000
0000
0000
0000
0001
0000
0000
0000
0100
0000
0000
0000
0010
0000
0000
0000
1000
0000
0000
0000
0100
0000
0000
0000
1000
0000
0000
0000
,
0001
0010
0001
0000
1000
0010
1000
0000
0001
0010
0001
0000
1000
0010
1000
0000
,
0001
0100
0001
0000
1000
0100
1000
0000
0001
0000
1000
0001
1000
0001
0100
0010
,
0100
0001
1000
0100
1000
0001
0010
0001
1000
0001
0100
0010
1000
0001
0100
0001
,
0010
0100
0010
0001
1000
0001
0100
0010
1000
0001
1000
0001
1000
0010
0100
0010
,
1000
0000
2000
0000
0000
0000
3001
0100
0002
0000
0000
0000
1003
0000
2000
0000
,
0000
3001
0002
0000
0013
0000
0100
0000
,
0010
0100
1000
0100
0010
0001
0100
0010
,
1000
0010
0100
0001
1000
0001
1000
0100
0010
0001
1000
0001
1000
0010
0100
0001
,
0100
0010
1000
0001
0001
1000
0100
0100
,
0010
0001
1000
0020
0000
0000
0000
0000
,
0131
0000
0100
0000
0010
0000
1000
0000
1000
0000
0001
0000
1000
0000
0001
0010
,
0001
1000
0001
1000
0010
0100
0001
1000
0100
1000
0100
0010
0001
1000
0010
1000
,
0010
0000
0100
0000
0001
0000
0100
0000
0100
0000
0010
0000
1000
0000
0100
1000
,
0001
0000
0000
0000
0000
0000
0000
0000
1000
0000
0000
0000
0000
0000
0000
0000
0001
0000
0000
0000
0000
0000
0000
0000
1000
0000
0000
0010
0000
0000
0100
0000
0000
0001
0000
0000
1000
0000
0000
0010
0000
0000
0100
0000
0000
0000
0000
0000
,
0001
0000
1000
0100
1000
0000
0001
0000
1000
0010
1000
0000
0010
0000
1000
0000
,
0001
0100
0001
0100
0010
1000
0001
0010
0100
1000
0001
1000
0001
1000
0010
0100
,
0001
1000
0001
0100
0001
0010
0001
1000
,
0100
1000
0010
1000
0001
0010
0100
1000
,
0001
0010
0001
0100
0001
1000
0010
1000
,
0100
0000
1000
0000
0001
0000
1000
0000
0010
0100
0001
0100
0010
0100
0001
0100
,
0010
1000
0001
0100
0001
1000
0100
1000
0001
0100
0001
1000
,
0100
0000
0000
0000
0010
0000
0000
0000
0001
0000
0000
0000
1000
0000
0000
0000
0010
0000
0000
0000
0100
0000
0000
0000
0001
0000
0000
1000
0000
0000
0100
0000
0000
1000
0000
0000
0100
0000
0000
0010
0000
0000
0001
0000
0000
0010
0000
0000
,
0001
1000
0001
0000
0010
0100
0010
0000
0100
1000
0100
0000
1000
0001
1000
0000
,
0010
0100
0010
0100
0001
0000
1000
0001
1000
0001
0010
0000
0100
0000
1000
0000
,
0001
0100
0010
0000
1000
0001
0010
0000
0100
0000
1000
0000
0001
0000
0100
0000
,
0010
0100
0001
1000
0100
0010
0100
1000
,
0001
0100
0100
0010
1000
1000
0001
0010
,
0010
0000
0000
0100
0000
0000
1000
0000
0000
1000
0000
0000
0001
0000
0100
0000
0010
0000
1000
0000
0001
0000
0100
0000
,
0010
1000
0010
0000
0100
0001
0100
0000
0010
1000
0010
0000
1000
0001
1000
0000
,
0001
0010
0001
0000
1000
0100
1000
0000
0001
0100
0001
0000
1000
0010
1000
0000
,
0001
0100
0010
1000
0001
0010
0100
1000
0001
0100
0010
1000
0100
1000
0001
0010
,
0001
1000
0001
1000
0010
0100
0001
1000
0001
0010
0100
1000
0001
1000
0001
0100
,
0020
0000
1030
0002
0000
1003
0002
0000
,
1003
0020
0000
0130
0002
0000
2003
0000
,
3001
0000
1000
0000
0010
0100
0001
0100
0010
1000
0001
1000
0100
1000
0001
1000
,
0001
0100
0010
1000
0001
1000
0001
0010
0100
1000
0001
1000
0001
0100
0010
1000
,
0001
0010
0100
1000
0010
0100
0001
1000
0100
1000
0001
0010
0001
1000
0010
0100
,
0001
0010
0100
1000
0010
0100
0001
0100
0010
1000
0100
0010
0001
1000
0002
0000
,
0000
1003
0020
0000
1030
0020
0000
1032
,
0000
0000
0000
0000
0000
0000
0003
0000
1000
0000
0000
0000
0100
0000
0000
0000
0010
0000
0000
0000
0001
0000
0000
0000
1000
0000
0000
0000
0010
0000
0000
0000
1000
0000
0000
0000
0001
0000
0000
0000
0000
0000
0100
0000
0000
0010
0000
0000
,
0100
0000
0001
0100
0001
0000
1000
0001
1000
0000
0100
1000
0100
0000
0010
0100
,
0010
0000
0001
0010
0001
0000
1000
0010
1000
0000
0001
0100
0001
0000
1000
0100
,
0010
0000
0100
1000
0100
1000
0001
0000
0100
0001
0100
0001
1000
0000
0100
0010
,
0001
1000
0010
0100
0001
1000
0001
0020
,
0000
0000
0000
0000
0130
0000
1000
0000
0001
0000
0100
0000
0002
0000
0000
0003
0100
0000
0001
0000
1000
0000
0100
0000
2000
0000
0000
0000
3010
0000
0100
0000
,
0001
1000
0200
0000
0310
0001
1000
0100
2000
0000
3010
0100
0001
1000
0200
0000
,
0300
1000
0001
0100
0001
0100
0010
0100
,
0010
1000
0010
1000
0001
1000
0100
0010
,
0001
0000
1000
0001
1000
0000
0010
0000
0100
0000
0001
0000
0010
0000
0001
0000
,
1000
0000
0010
0000
0100
0000
0001
0000
1000
0001
1000
0001
0010
0000
0200
0000
,
0000
1300
0001
0010
0001
0010
0100
0010
,
0001
0000
0100
0000
0001
0000
1000
0000
0010
0000
1000
0010
0100
0000
0002
0000
,
0000
0013
0100
0010
0001
1000
0010
0200
,
0000
0301
1000
0010
0100
0001
0010
0100
,
0000
0000
0010
0100
1000
0000
0001
0000
1000
0000
0001
0000
0100
0000
0001
0000
,
1000
0010
1000
0001
0010
0001
1000
0020
,
0000
0000
0130
0001
1000
0000
0010
0000
0100
0000
0001
0000
1000
0000
0001
0000
,
1000
0001
1000
0001
1000
0100
1000
0100
0010
0001
0010
0001
1000
0001
0020
0000
,
0000
0130
1000
0010
1000
0010
0100
0001
,
1000
0000
0100
0000
1000
0000
0001
0000
0010
0000
0001
0000
0010
0100
2000
0000
,
0000
3001
0010
0100
0010
0001
0100
0020
,
0000
0000
1030
0000
0010
0000
0100
0010
1000
0100
0010
0001
1000
0000
0200
0000
,
0000
0310
0001
0100
0010
0100
0001
0020
,
0000
0130
1000
0001
1000
0010
0100
0002
,
0000
0000
1003
0000
0010
0000
0100
0000
0010
0000
1000
0000
0001
0000
0100
0010
,
0100
0000
0010
0000
1000
0000
0001
0100
0001
0000
0100
0000
0010
0000
2000
0000
,
0000
3001
0010
0100
1000
0100
0010
0002
,
0000
0103
0010
0100
0001
0010
0100
2000
,
0000
0000
3001
0100
0010
1000
0001
1000
0001
0010
0100
1000
0001
1000
0001
0000
,
0000
0000
1000
0100
1000
0000
0001
0000
1000
0010
1000
0000
0001
0000
0200
0000
,
0000
0000
0310
1000
0100
0000
1000
0000
0001
0000
0010
0000
0100
0000
1000
0000
,
0001
1000
0001
0100
0010
0100
0001
0010
,
0100
0010
0001
0010
0100
0010
0001
0010
,
0100
1000
0100
0010
0001
1000
0010
0100
,
0000
0001
1000
0010
1000
0001
0010
0100
,
0010
0001
0010
0001
1000
0001
1000
0010
,
0100
0010
0100
0010
0100
0010
1000
0001
,
1000
0100
0010
0001
1000
0001
1000
0010
0100
0001
1000
0001
0010
0000
0002
0000
,
0000
0013
0001
1000
0001
0010
0100
1000
,
0001
1000
0001
0100
0010
0100
0001
0010
,
0100
0010
0001
0010
0100
0010
0001
0010
,
0100
0000
1000
0000
0100
0000
0010
0000
0001
0000
1000
0010
1000
0000
0200
0000
,
0000
0310
0001
1000
0001
1000
0010
0100
,
0010
1000
0010
1000
0001
1000
0001
0010
,
0100
0010
0100
0010
0100
0010
0001
1000
,
0001
0100
0010
1000
0001
1000
0001
0100
0010
1000
0001
1000
0001
0010
0100
0010
,
0002
0000
0000
2003
0000
0000
3200
0000
,
1300
0000
0001
0000
1000
0010
1000
0000
0001
0000
0010
0100
0010
0000
0001
0000
,
1000
0000
0001
0010
0001
0000
1000
0000
0001
0100
0001
0000
1000
0000
0010
1000
,
0001
1000
0100
0010
0001
1000
0001
1000
0100
1000
0001
0100
0010
1000
0001
1000
,
0100
0000
0010
0000
0100
0000
0000
0000
0010
0000
0000
0000
0001
0000
1000
0010
,
0100
0010
1000
0000
0001
0010
0100
0010
0001
0000
1000
0001
0100
0010
1000
0000
,
0001
0000
1000
0100
0010
0100
1000
0010
0100
0001
0010
0100
1000
0100
0010
0001
,
0100
0000
0000
0010
0000
0000
1000
0000
0000
0100
0000
0000
1000
0000
0000
0010
0000
0000
0100
0000
0000
0001
0000
0000
1000
0000
0000
0000
0010
0000
0000
0000
0100
0000
0000
0000
0001
0000
0000
0000
0010
0000
0000
0000
0100
0000
0000
0000
,
1000
0001
1000
0000
0001
0100
0001
0000
1000
0100
1000
0000
0001
0010
0001
0000
,
1000
0010
1000
0000
0001
0100
0001
0000
1000
0001
0100
0001
0100
0010
1000
0100
,
0010
0001
1000
0010
1000
0001
0100
0001
1000
0001
0010
0100
1000
0001
0010
0001
,
1000
0010
1000
0001
1000
0001
0010
0100
1000
0010
0100
0001
1000
0100
0010
0100
,
1000
0000
2000
0000
0000
0000
3001
0100
0020
0000
0000
0000
1030
0000
2000
0000
,
0000
3001
0002
0000
0103
0000
0010
0000
,
0100
0001
0100
0010
1000
0001
1000
0100
0010
0001
1000
0001
0010
0100
1000
0001
,
1000
0100
1000
0000
0001
0000
1000
0010
1000
0000
0001
0000
0010
0100
1000
0000
,
0200
0000
0310
0200
0000
0310
0200
0000
,
1300
0002
0000
0013
0200
0000
0000
0000
,
1300
0010
0100
0001
0100
0001
1000
0010
0100
0001
1000
0001
1000
0010
0100
0001
,
0010
0001
1000
0010
0100
0001
0010
0001
0010
0100
1000
0100
0010
0100
1000
0001
,
1000
0010
1000
0000
0001
0010
0001
0000
1000
0100
1000
0000
0001
0100
0001
0000
,
1000
0010
1000
0010
0100
0001
1000
0010
1000
0100
1000
0001
0020
0000
0031
1000
,
0010
1000
0002
0000
1003
0100
0010
0100
1000
0001
1000
0010
0100
0001
0010
0100
,
1000
0010
0100
0010
1000
0100
0010
0001
0100
0010
0100
0001
1000
0000
0000
0000
,
0100
1000
0001
0100
0010
0100
0001
0010
,
0200
0000
1300
0001
1000
0010
2000
0000
3100
0010
0001
1000
0001
0000
0200
0000
,
0000
0000
0301
2000
0000
3200
0000
0320
,
0000
0000
0130
0000
1000
0000
0010
0000
1000
0100
0010
0001
1000
0000
0001
0000
,
0100
0010
1000
0000
0001
0010
0001
0000
1000
0100
1000
0000
0001
0100
0001
0000
,
1000
0001
0010
0100
0010
0001
1000
0010
1000
0001
0010
0001
1000
0010
0100
0001
,
0010
0100
1000
0100
0010
0001
1000
0010
1000
0001
1000
0100
0010
0100
1000
0001
,
0100
0010
0100
0001
1000
0010
1000
0001
0010
0001
1000
0001
0010
0100
1000
0001
,
2000
0000
0000
0000
0000
0000
3020
0000
0000
0000
0000
0000
0230
0000
0301
1000
,
0001
1000
0100
1000
0001
0100
0010
1000
0100
0010
0001
0000
0100
0000
0020
0000
,
0000
0000
0000
0000
0000
0000
0130
0001
1000
0000
0000
0000
0000
0000
0000
0000
;

//---------------dance-single - Zaia - 11(high)----------------
#NOTES:
     dance-single:
     Zaia - 11(high):
     Medium:
     11:
     0.969,0.903,0.021,0.339,0.339,1533.000,5.000,81.000,0.000,2.000:
0000
0000
0000
0000
,
0101
0100
0010
0100
0001
0010
0100
1000
,
0001
0100
0010
2000
0000
0000
0000
3000
,
1100
0100
0010
0100
1000
0010
0100
0001
,
1000
0000
0100
0000
0010
0000
0001
0000
1000
0000
0010
0100
0001
0000
1000
0000
,
1100
0100
0010
0001
0001
1000
0010
0010
,
0100
0000
0001
0000
0001
0000
2000
0000
0000
0000
3010
0100
0001
0000
0000
0000
,
1000
0010
1000
0001
1000
0010
1000
0001
,
1000
0010
1000
0000
0001
0000
0100
0001
0100
0000
0010
0000
2000
0000
0000
0000
,
3010
0100
0001
1000
0100
0010
0001
0010
,
0100
1000
0010
0100
0001
0100
0001
0100
,
0001
1000
0100
0010
0001
1000
0010
0100
,
0010
0000
1000
0000
0100
0000
0010
0000
0001
0000
1000
0010
0100
0000
0001
0000
,
0100
0010
1000
0001
0010
0100
1000
0100
,
0010
0001
0100
0010
1000
0010
1000
0010
,
1000
0001
0010
0100
1000
0001
0100
0010
,
0100
0000
0001
0000
0010
0000
0100
0000
1000
0000
0001
0100
0010
0000
1000
0000
,
0001
0100
0001
0000
1000
0000
0001
0010
0001
0000
1000
0000
0010
0000
0100
0010
,
0100
0000
0001
0000
1000
0100
1000
0000
0001
0000
0100
0000
0001
0000
2000
0000
,
0000
0000
3001
0100
0001
0100
0010
0100
,
0010
1000
0010
1000
0001
1000
0100
0010
,
0001
0000
1000
0001
1000
0000
0010
0000
0100
0000
0001
0000
0010
0000
0001
0000
,
1000
0000
0010
0000
0100
0000
0001
0000
1000
0000
0001
0010
0001
0000
1000
0000
,
0000
0001
1000
0100
1000
0100
0010
0100
,
1000
0010
1000
0001
0100
0001
1000
0002
,
0000
0013
0100
0010
0001
1000
0010
0200
,
0000
0301
1000
0010
0100
0001
0010
0100
,
0000
0000
0010
0100
1000
0000
0001
0000
1000
0000
0001
0000
0100
0000
0001
0000
,
1000
0010
1000
0001
0010
0001
1000
0020
,
0000
0000
0130
0001
1000
0000
0010
0000
0100
0000
0001
0000
1000
0000
0001
0000
,
1000
0010
0100
0001
0010
0100
1000
0020
,
0000
0130
0001
0010
0001
0010
0100
1000
,
0001
0010
0001
1000
0100
1000
0001
2000
,
0000
3001
0010
0100
0010
0001
0100
0020
,
0000
0000
1030
0000
0010
0000
0100
0010
1000
0000
0001
0000
0010
0000
0200
0000
,
0000
0310
0001
0100
0010
0100
0001
0020
,
0000
0130
1000
0001
1000
0010
0100
0002
,
0000
0000
1003
0000
0010
0000
0100
0000
0010
0000
1000
0000
0001
0000
0100
0010
,
0100
0000
0010
0000
1000
0000
0001
0100
0001
0000
0100
0000
0010
0000
2000
0000
,
0000
3001
0010
0100
1000
0100
0010
0002
,
0000
0103
0010
0100
0001
0010
0100
2000
,
0000
0000
3001
0000
1000
0100
1000
0000
0001
0000
1000
0010
1000
0000
0001
0000
,
0000
1000
0100
0010
0001
1000
0010
0200
,
0000
0310
1000
0001
1000
0100
0010
0001
,
1000
0001
1000
0010
0100
0010
1000
0100
,
0010
0100
1000
0100
0010
0100
1000
0100
,
0010
0001
0010
0100
1000
0001
0100
0020
,
0000
0000
0130
0001
1000
0000
0100
0000
1000
0000
0001
0000
0100
0000
0010
0000
,
0100
0001
0100
0001
1000
0001
1000
0100
,
0010
0100
0010
0100
0010
0100
1000
0001
,
1000
0010
1000
0000
0001
0000
1000
0100
1000
0000
0010
0000
0100
0000
0002
0000
,
0000
0103
0001
1000
0001
0100
0010
1000
,
0001
1000
0001
0010
0100
0010
0001
0100
,
0010
0100
0001
0100
0010
0100
0001
0100
,
0010
0000
1000
0000
0010
0000
0100
0000
0001
0000
1000
0100
1000
0000
0010
0000
,
0000
0100
0001
1000
0001
1000
0100
0010
,
0100
1000
0100
1000
0001
1000
0001
0100
,
0010
0100
0010
0100
0010
0100
0001
1000
,
0001
0010
0001
0000
1000
0000
0001
0100
0001
0000
1000
0000
0010
0000
0100
0000
,
0001
1000
0100
1000
0001
0100
0010
1000
,
0001
0000
0001
0000
1000
0100
1000
0000
0001
0000
0100
0010
0100
0000
0001
0000
,
1000
0000
0001
0000
1000
0100
1000
0000
0010
0000
0100
0000
0001
0000
1000
0010
,
1000
0100
0010
0001
1000
0001
1000
0001
,
1000
0100
1000
0000
0001
0000
1000
0010
1000
0000
0001
0000
0100
0010
0100
0000
,
0001
1000
0001
0000
0010
0000
0001
1000
0001
0000
0100
0000
0010
1000
0010
0000
,
1000
0000
0001
0010
0001
0000
0100
0000
0010
0000
1000
0000
0001
0000
1000
0010
,
1000
0000
0000
0100
0000
0000
0010
0000
0000
0001
0000
0000
1000
0000
0010
0000
1000
0000
0001
0000
0010
0000
0001
0000
,
1000
0100
1000
0000
0001
0100
0001
0000
1000
0100
1000
0000
0001
0100
0001
0000
,
1000
0010
1000
0000
0001
0010
0001
0000
1000
0000
0001
0000
0100
0000
0010
0000
,
0100
0001
0010
0100
1000
0010
1000
0100
,
0010
0100
1000
0010
0100
0001
1000
0100
,
0010
0000
0002
0000
0000
0000
1003
0010
2000
0000
0000
0000
3001
0000
0002
0000
,
0000
1003
2000
0000
3100
0000
0010
0000
,
0100
0010
0001
0010
0100
1000
0010
0100
,
0001
0010
0001
0000
1000
0000
0001
0100
0001
0000
1000
0000
0100
0010
0001
0000
,
0010
0100
1000
0001
0001
1000
0100
0100
,
0010
0001
1000
0020
0000
0000
0000
0000
,
0131
0000
0100
0000
0010
0000
1000
0000
1000
0000
0001
0000
1000
0000
0001
0010
,
0001
1000
0010
0100
0001
0010
0100
1000
,
0010
0000
0100
0000
0001
0000
0100
0000
0100
0000
0010
0000
1000
0000
0100
1000
,
0001
0000
0000
0000
0000
0000
0000
0000
1000
0000
0000
0000
0000
0000
0000
0000
0001
0000
0000
0000
0000
0000
0000
0000
1000
0000
0000
0010
0000
0000
1000
0000
0000
0000
0000
0000
0001
0000
0000
0000
0000
0000
0100
0000
0000
0000
0000
0000
,
0001
0000
1000
0100
1000
0000
0001
0000
1000
0010
1000
0000
0010
0000
1000
0000
,
0001
1000
0001
0000
0010
0000
0100
0010
0100
0000
1000
0000
0001
0000
0010
0000
,
0001
1000
0001
0100
0001
0010
0001
1000
,
0100
1000
0010
1000
0001
0010
0100
1000
,
0001
0010
0001
0100
0001
1000
0010
1000
,
0100
0000
0000
1000
0000
0000
0001
0000
0000
1000
0000
0000
0010
0000
0100
0000
0001
0000
0100
0000
0010
0000
1000
0000
,
0010
1000
0001
1000
0001
1000
0100
1000
0001
0010
0001
1000
,
0100
0000
0010
0000
0001
0000
1000
0000
0100
0000
0010
0000
0001
0000
0000
1000
0000
0000
0001
0000
0000
1000
0000
0000
,
0010
0100
0001
0100
0010
1000
0001
0100
,
0001
1000
0100
1000
0001
0100
0010
1000
,
0001
0100
0010
0000
1000
0001
0010
0000
0100
0000
1000
0000
0001
0000
0100
0000
,
0010
0100
0001
1000
0100
0010
0100
1000
,
0001
0100
0100
0010
1000
1000
0001
0010
,
0010
0000
0000
0100
0000
0000
1000
0000
0000
1000
0000
0000
0001
0000
0100
0000
0010
0000
1000
0000
0001
0000
0100
0000
,
0010
1000
0010
1000
0001
0100
0001
0100
,
0001
0010
0001
0010
0100
1000
0100
1000
,
0001
0010
0001
0000
1000
0010
1000
0000
0001
0100
0001
0000
1000
0100
1000
0000
,
0001
0100
0100
0001
1000
1000
0100
0010
,
0200
0000
1300
0002
0000
1003
0002
0000
,
1003
0020
0000
0130
0002
0000
2003
0000
,
3001
1000
0010
0100
0001
0010
0001
0100
,
0001
1000
0100
1000
0010
1000
0001
0010
,
0100
1000
0010
1000
0100
1000
0001
0010
,
0001
0100
0010
1000
0001
0010
0100
2000
,
0000
3001
0200
0000
0301
0200
0000
2301
,
0000
0000
0000
0000
0000
0000
3000
0000
0001
0000
0000
0000
0010
0000
0000
0000
0100
0000
0000
0000
1000
0000
0000
0000
0001
0000
0000
0000
0100
0000
0000
0000
0001
0000
0000
0000
1000
0000
0000
0000
0000
0000
0010
0000
0000
0100
0000
0000
,
0010
0000
1000
0010
1000
0000
0001
1000
0001
0000
0010
0001
0010
0000
0100
0010
,
0100
0000
1000
0100
1000
0000
0001
0100
0001
0000
1000
0010
1000
0000
0001
0010
,
0100
1000
0001
1000
0010
0100
0001
1000
,
0001
1000
0010
0100
0001
1000
0001
0020
,
0000
0130
1000
0002
0103
0010
2000
3100
,
1000
0020
0130
0001
2000
3001
0010
0200
,
0300
1000
0001
0100
0001
0100
0010
0100
,
0010
1000
0010
1000
0001
1000
0100
0010
,
0001
0000
1000
0001
1000
0000
0010
0000
0100
0000
0001
0000
0010
0000
0001
0000
,
1000
0010
0100
0001
1000
0001
0010
0200
,
0000
1300
0001
0010
0001
0010
0100
0010
,
0001
0000
0100
0000
0001
0000
1000
0000
0010
0000
1000
0010
0100
0000
0002
0000
,
0000
0013
0100
0010
0001
1000
0010
0200
,
0000
0301
1000
0010
0100
0001
0010
0100
,
0000
0000
0010
0100
1000
0000
0001
0000
1000
0000
0001
0000
0100
0000
0001
0000
,
1000
0010
1000
0001
0010
0001
1000
0020
,
0000
0000
0130
0001
1000
0000
0010
0000
0100
0000
0001
0000
1000
0000
0001
0000
,
1000
0100
1000
0000
0001
0100
0001
0000
1000
0100
1000
0000
0001
0000
0020
0000
,
0000
0130
1000
0010
1000
0010
0100
0001
,
1000
0000
0100
0000
1000
0000
0001
0000
0010
0000
0001
0000
0010
0100
2000
0000
,
0000
3001
0010
0100
0010
0001
0100
0020
,
0000
1030
0010
1000
0010
0100
0001
0200
,
0000
0310
1000
0010
0100
0010
1000
0200
,
0000
0310
0001
1000
0001
0100
0010
2000
,
0000
0000
3001
0000
0100
0000
0010
0000
0100
0000
0001
0000
1000
0000
0010
0100
,
0010
0000
0100
0000
0001
0000
1000
0010
1000
0000
0010
0000
0100
0000
0002
0000
,
0000
1003
0100
0010
0001
0010
0100
2000
,
0000
3010
0100
0010
1000
0100
0010
0002
,
0000
0000
1003
0010
1000
0000
0001
0000
1000
0100
1000
0000
0010
0000
1000
0000
,
0000
0000
0001
0010
0001
0000
1000
0000
0001
0100
0001
0000
1000
0000
0020
0000
,
0000
0000
0130
0001
0010
0000
0001
0000
1000
0000
0100
0000
0010
0000
0001
0000
,
1000
0001
1000
0010
0100
0010
1000
0100
,
0010
0100
1000
0100
0010
0100
1000
0100
,
0010
0001
0010
0100
1000
0001
0100
0010
,
0000
1000
0001
0100
0001
1000
0100
0010
,
0100
1000
0100
1000
0001
1000
0001
0100
,
0010
0100
0010
0100
0010
0100
0001
1000
,
0001
0010
0001
0000
1000
0000
0001
0100
0001
0000
0010
0000
0100
0000
2000
0000
,
0000
3100
1000
0001
1000
0100
0010
0001
,
1000
0001
1000
0010
0100
0010
1000
0100
,
0010
0100
1000
0100
0010
0100
1000
0100
,
0010
0000
0001
0000
0010
0000
0100
0000
1000
0000
0001
0100
0001
0000
0020
0000
,
0000
0130
1000
0001
1000
0001
0100
0010
,
0100
0001
0100
0001
1000
0001
1000
0100
,
0010
0100
0010
0100
0010
0100
1000
0001
,
1000
0010
1000
0000
0001
0000
0010
0100
0010
0000
0001
0000
1000
0100
0010
0000
,
0002
0000
0000
2003
0000
0000
3200
0000
,
1300
0000
0001
0000
1000
0010
1000
0000
0001
0000
0010
0100
0010
0000
0001
0000
,
1000
0000
0001
0010
0001
0000
1000
0000
0001
0100
0001
0000
1000
0000
0010
0000
,
1000
0100
0010
0100
1000
0010
0100
0001
,
0100
0000
0010
0000
0100
0000
0000
0000
0010
0000
0000
0000
1000
0000
0001
0100
,
0001
0000
1000
0000
0100
0010
0100
0000
1000
0000
0010
0100
0010
0000
1000
0000
,
0001
0010
0001
0000
1000
0000
0001
0000
0010
0000
0100
0000
0010
0000
0001
0000
,
1000
0000
0000
0010
0000
0000
0100
0000
0000
0010
0000
0000
1000
0000
0001
0000
0100
0000
0001
0000
1000
0000
0100
0000
,
1000
0001
1000
0000
0001
0100
0001
0000
1000
0100
1000
0000
0001
0010
0001
0000
,
1000
0010
1000
0000
0001
0100
0001
0000
1000
0001
0100
0000
0010
0000
1000
0000
,
0100
0010
0001
1000
0010
0100
0010
1000
,
0001
0010
0001
0100
0010
1000
0001
0010
,
0100
0000
2000
0000
0000
0000
3001
0100
0020
0000
0000
0000
1030
0000
2000
0000
,
0000
3001
0002
0000
0103
0000
0010
0000
,
0100
0001
1000
0100
0010
0001
0100
0010
,
1000
0100
1000
0000
0001
0000
1000
0010
1000
0000
0001
0000
0010
0100
1000
0000
,
0200
0000
0310
0200
0000
0310
0200
0000
,
1300
0002
0000
0013
0200
0000
0000
0000
,
1300
0001
1000
0000
0010
0000
1000
0001
1000
0000
0100
0000
0010
0001
0010
0000
,
0001
0000
1000
0010
1000
0000
0001
0000
0100
0000
0010
0000
1000
0000
0100
0000
,
1000
0001
1000
0000
0001
0010
0001
0000
1000
0100
1000
0000
0001
0100
0001
0000
,
1000
0000
0010
0000
0100
0000
0001
0000
1000
0000
0001
0000
0020
0000
0031
1000
,
0010
0000
0200
0000
0301
1000
0010
0000
0200
0000
0310
0000
1000
0000
0001
0000
,
0010
0001
1000
0001
0100
0010
1000
0000
,
0100
1000
0001
0100
0010
0100
0001
0010
,
0200
0000
1300
0000
1000
0000
0002
0000
1003
0010
1000
0000
0001
0000
0200
0000
,
0000
0000
0301
2000
0000
3200
0000
0320
,
0000
0130
1000
0010
1000
0100
1000
0001
,
0100
0010
1000
0000
0001
0010
0001
0000
1000
0100
1000
0000
0001
0100
0001
0000
,
1000
0010
1000
0001
0010
0100
0010
0001
,
1000
0001
0100
0010
1000
0100
0010
0001
,
0100
0010
0100
0001
1000
0100
0010
0001
,
2000
0000
0000
0000
0000
0000
3020
0000
0000
0000
0000
0000
0230
0000
0301
1000
,
0001
0000
0100
0000
0001
1000
0001
0000
0010
0000
0001
0000
0100
0000
0020
0000
,
0000
0000
0000
0000
0000
0000
0130
0001
1000
0000
0000
0000
0000
0000
0000
0000
;

//---------------dance-single - Zaia - 14(high)----------------
#NOTES:
     dance-single:
     Zaia - 14(high):
     Challenge:
     14:
     1.000,1.000,0.021,0.310,1.000,2023.000,5.000,74.000,0.000,2.000:
0000
0000
0000
0000
,
0101
0100
0010
0100
0001
0010
0100
1000
,
0001
0100
0010
2000
0000
0000
0000
3000
,
1100
0100
0010
0100
1000
0010
0100
0001
,
1000
0000
0100
0000
0010
0000
0001
0000
1000
0000
0010
0100
0001
0000
1000
0000
,
1100
0100
0010
0001
0001
1000
0010
0010
,
0100
0000
0001
0000
0001
0000
2000
0000
0000
0000
3010
0100
0001
0000
0000
0000
,
1000
0010
1000
0001
1000
0010
1000
0001
,
1000
0010
0100
0001
0010
0001
1000
0010
0100
0001
0010
0100
2000
0000
0000
0000
,
3010
0100
0001
1000
0100
0010
0001
0010
,
0100
1000
0010
0100
0001
0100
0001
0100
,
0001
1000
0100
0010
0001
1000
0010
0100
,
0010
0000
1000
0000
0100
0000
0010
0000
0001
0000
1000
0010
0100
0000
0001
0000
,
0100
0010
1000
0001
0010
0100
1000
0100
,
0010
0001
0100
0010
1000
0010
1000
0010
,
1000
0001
0010
0100
1000
0001
0100
0010
,
0100
0000
0001
0000
0010
0000
0100
0000
1000
0000
0001
0100
0010
0000
1000
0000
,
0001
0100
0001
1000
0001
1000
0100
1000
0001
0010
0100
0010
0001
1000
0001
0010
,
0100
1000
0010
0100
0001
0010
0100
1000
0001
0100
0010
0000
1000
0000
0002
0000
,
0000
0000
1003
0010
1000
0010
0100
0010
,
0100
0001
0100
0001
1000
0001
0010
0100
,
1000
0000
0001
1000
0001
0000
0100
0000
0010
0000
1000
0000
0100
0000
1000
0000
,
0001
0000
0100
0000
0010
0000
1000
0000
0001
0000
1000
0100
1000
0000
0001
0000
,
0000
1000
0001
0010
0001
0010
0100
0010
,
0001
0100
0001
1000
0010
1000
0001
2000
,
0000
3100
0010
0100
1000
0001
0100
0020
,
0000
1030
0001
0100
0010
1000
0100
0010
,
0000
0000
0100
0010
0001
0000
1000
0000
0001
0000
1000
0000
0010
0000
1000
0000
,
0001
0100
0001
1000
0100
1000
0001
0200
,
0000
0000
0310
1000
0001
0000
0100
0000
0010
0000
1000
0000
0001
0000
1000
0000
,
0001
0010
0001
1000
0010
1000
0001
0100
0010
1000
0001
0100
0001
0010
0200
0000
,
0000
0310
0001
0100
0001
0100
0010
1000
,
0001
0010
0001
1000
0100
1000
0001
2000
,
0000
3001
0010
0100
0010
0001
0100
0020
,
0000
0000
1030
0000
0010
0000
0100
0010
1000
0001
0010
0001
1000
0000
0200
0000
,
0000
0310
0001
0100
0010
0100
0001
0020
,
0000
0130
1000
0001
1000
0010
0100
0002
,
0000
0000
1003
0000
0010
0000
0100
0000
0010
0000
1000
0000
0001
0000
0100
0010
,
0100
0000
0010
0000
1000
0000
0001
0100
0001
0000
0100
0000
0010
0000
2000
0000
,
0000
3001
0010
0100
1000
0100
0010
0002
,
0000
0103
0010
0100
0001
0010
0100
2000
,
0000
0000
3001
0100
0010
1000
0100
1000
0001
0100
0010
1000
0100
1000
0001
0000
,
0000
0000
1000
0100
0010
0001
0100
0001
1000
0100
0010
0001
0100
0001
0020
0000
,
0000
0130
1000
0001
1000
0100
0010
0001
,
1000
0001
1000
0010
0100
0010
1000
0100
,
0010
0100
1000
0100
0010
0100
1000
0100
,
0010
0001
0010
0100
1000
0001
0100
0020
,
0000
0000
0130
0001
1000
0000
0100
0000
1000
0000
0001
0000
0100
0000
0010
0000
,
0100
0001
0100
0001
1000
0001
1000
0100
,
0010
0100
0010
0100
0010
0100
1000
0001
,
1000
0010
0100
0001
0010
0001
1000
0010
0100
0001
0010
0001
0100
0000
0002
0000
,
0000
0103
0001
1000
0001
0100
0010
1000
,
0001
1000
0001
0010
0100
0010
0001
0100
,
0010
0100
0001
0100
0010
0100
0001
0100
,
0010
0000
1000
0000
0010
0000
0100
0000
0001
0000
1000
0100
1000
0000
0010
0000
,
0000
0100
0001
1000
0001
1000
0100
0010
,
0100
1000
0100
1000
0001
1000
0001
0100
,
0010
0100
0010
0100
0010
0100
0001
1000
,
0001
0010
0100
1000
0001
0100
0001
0010
0100
1000
0001
0100
0001
1000
0001
1000
,
0010
0100
0010
0100
0001
1000
0010
0100
0010
0100
0001
1000
0100
0010
0100
1000
,
0001
0000
0001
0000
1000
0100
1000
0000
0001
0000
0100
0010
0100
0000
0001
0000
,
1000
0100
0010
0100
1000
0010
0100
0001
0010
0100
1000
0001
0100
0001
1000
0100
,
0010
0001
0100
0010
1000
0100
1000
0001
0010
0001
1000
0010
0100
0001
0010
0001
,
1000
0100
1000
0000
0001
0000
1000
0010
1000
0000
0001
0000
0100
0010
0100
0010
,
1000
0001
1000
0000
0100
0000
1000
0001
1000
0000
0010
0000
0100
0001
0100
0000
,
0001
0000
1000
0100
0010
0001
0100
0001
1000
0100
0010
0001
0100
0001
1000
0010
,
1000
0000
0000
0001
0000
0000
0010
0000
0000
0100
0000
0000
1000
0000
0000
0010
0000
0000
0100
0000
0000
0001
0000
0000
1000
0000
0000
0000
0010
0000
0000
0000
0100
0000
0000
0000
0001
0000
0000
0000
0010
0000
0000
0000
0001
0000
0000
0000
,
1000
0100
0010
0001
1000
0010
0100
0001
1000
0100
0010
0001
1000
0010
0100
0001
,
1000
0100
0010
0001
1000
0010
0100
0001
1000
0100
0010
0001
0010
0100
1000
0010
,
0100
0001
1000
0100
1000
0001
0010
0001
1000
0001
0100
0010
1000
0001
0100
0001
,
0010
0100
0010
0001
1000
0001
0100
0010
1000
0100
0010
0001
1000
0010
0100
0010
,
1000
0000
2000
0000
0000
0000
3001
0100
0002
0000
0000
0000
1003
0000
2000
0000
,
0000
3001
0002
0000
0013
0000
0100
0000
,
0010
0001
0010
0100
1000
0001
1000
0010
0100
0001
1000
0001
0100
0010
1000
0001
,
1000
0100
0010
0001
0100
0001
1000
0100
0010
0100
1000
0010
0100
0001
0010
0001
,
0100
0010
1000
0001
0001
1000
0100
0100
,
0010
0001
1000
0020
0000
0000
0000
0000
,
0131
0000
0100
0000
0010
0000
1000
0000
1000
0000
0001
0000
1000
0000
0001
0010
,
0001
1000
0010
1000
0100
0010
0001
1000
0010
1000
0100
0010
0001
1000
0100
1000
,
0010
0000
0100
0000
0001
0000
0100
0000
0100
0000
0010
0000
1000
0000
0100
1000
,
0001
0100
0010
1000
0100
0010
0001
0100
0010
1000
0001
0010
0100
1000
0001
0100
,
0010
0100
0010
1000
0001
0010
0001
0100
0010
1000
0001
0100
0001
0010
0100
1000
,
0001
0100
0001
0100
0010
1000
0001
0010
0100
1000
0001
1000
0001
1000
0010
0100
,
0001
0000
1000
0000
0001
0100
0001
1000
0100
0010
0100
1000
0001
1000
0001
0100
,
0010
1000
0001
0010
0001
1000
0010
1000
0100
0010
0001
0010
0100
1000
0001
0100
,
0010
1000
0100
1000
0001
0010
0001
1000
0010
0100
0001
1000
0001
0100
0010
1000
,
0001
0010
0100
0010
0001
0000
1000
0010
1000
0001
0010
0100
1000
0001
0100
0001
,
1000
0010
1000
0100
0010
0001
0100
0001
1000
0100
0010
0001
0100
0001
1000
0010
,
0100
0000
0000
0000
0010
0000
0000
0000
1000
0000
0000
0000
0001
0000
0000
0000
0100
0000
0000
0000
0010
0000
0000
0000
1000
0000
0000
0100
0000
0000
0010
0000
0000
0001
0000
0000
0010
0000
0000
0100
0000
0000
1000
0000
0000
0010
0000
0000
,
0100
0001
0100
0010
1000
0001
0100
0010
1000
0001
0010
0001
1000
0100
0010
0001
,
0100
0010
1000
0001
0010
0001
0100
0010
1000
0001
0010
0001
0100
0010
0100
0010
,
1000
0100
0010
0001
1000
0010
1000
0001
0100
0001
1000
0100
0010
0001
1000
0001
,
0100
0010
1000
0001
0100
0001
1000
0100
1000
0001
1000
0010
0100
0001
0010
0100
,
1000
0001
0100
0000
0100
0000
0010
0000
1000
0000
1000
0000
0001
0000
0010
0000
,
0010
0000
0000
0100
0000
0000
1000
0000
0000
1000
0000
0000
0001
0000
0100
0000
0010
0000
1000
0000
0001
0000
0100
0000
,
0010
1000
0001
1000
0010
1000
0001
1000
0100
0010
0001
1000
0001
0010
0001
1000
,
0001
0100
0010
1000
0010
0100
0001
0100
0010
1000
0001
0010
0100
0010
0001
1000
,
0001
0100
0010
1000
0001
0010
0100
1000
0001
0100
0010
1000
0100
1000
0001
0010
,
0001
1000
0001
1000
0010
0100
0001
1000
0001
0010
0100
1000
0001
1000
0001
0100
,
0020
0000
1030
0002
0000
1003
0002
0000
,
1003
0020
0000
0130
0002
0000
2003
0000
,
3001
0000
1000
0000
0010
0100
0001
0100
0010
1000
0001
1000
0100
1000
0001
1000
,
0001
0100
0010
1000
0100
1000
0001
0100
0010
1000
0100
1000
0001
0100
0010
1000
,
0001
0010
0100
1000
0010
0100
0001
1000
0100
1000
0001
0010
0001
1000
0010
0100
,
0001
0010
0100
1000
0010
0100
0001
0100
0010
1000
0100
0010
0001
1000
0002
0000
,
0000
1003
0020
0000
1030
0020
0000
1032
,
0000
0000
0000
0000
0000
0000
0003
0000
1000
0000
0000
0000
0100
0000
0000
0000
0010
0000
0000
0000
0001
0000
0000
0000
1000
0000
0000
0000
0010
0000
0000
0000
1000
0000
0000
0000
0001
0000
0000
0100
0000
0000
0010
0000
0000
0100
0000
0000
,
0001
0010
0100
1000
0001
0010
0100
1000
0001
0010
0100
1000
0001
0010
0100
1000
,
0001
0100
0010
1000
0001
0100
0010
1000
0001
0100
0010
1000
0001
0100
0010
1000
,
0001
0100
0001
1000
0100
0010
0001
0100
0001
1000
0100
0010
0100
1000
0010
0100
,
0001
0010
0100
0010
0001
1000
0001
0100
0010
1000
0001
1000
0100
1000
0020
0000
,
0000
0000
0000
0000
0130
0000
0001
0000
0010
0000
0001
0000
2000
0000
0000
3000
0100
0000
1000
0000
0010
0000
1000
0000
0002
0000
0000
0003
0100
0000
0001
0000
,
0010
0001
0200
0000
0310
1000
0100
1000
0002
0000
0013
0100
1000
0001
0200
0000
,
0300
0001
1000
0010
1000
0010
0100
0010
,
0100
0001
0100
0001
1000
0001
0010
0100
,
1000
0000
0001
1000
0001
0000
0100
0000
0010
0000
1000
0000
0100
0000
1000
0000
,
0001
0000
0100
0000
0010
0000
1000
0000
0001
1000
0001
1000
0100
0000
0020
0000
,
0000
0031
1000
0100
1000
0100
0010
0100
,
1000
0000
0010
0000
1000
0000
0001
0000
0100
0000
0001
0100
0010
0000
2000
0000
,
0000
3100
0010
0100
1000
0001
0100
0020
,
0000
1030
0001
0100
0010
1000
0100
0010
,
0000
0000
0100
0010
0001
0000
1000
0000
0001
0000
1000
0000
0010
0000
1000
0000
,
0001
0100
0001
1000
0100
1000
0001
0200
,
0000
0000
0310
1000
0001
0000
0100
0000
0010
0000
1000
0000
0001
0000
1000
0000
,
0001
0010
0001
1000
0010
1000
0001
0100
0010
1000
0001
0100
0001
0010
0200
0000
,
0000
0310
0001
0100
0001
0100
0010
1000
,
0001
0000
0010
0000
0001
0000
1000
0000
0100
0000
1000
0000
0100
0010
0002
0000
,
0000
1003
0100
0010
0100
1000
0010
0200
,
0000
0000
0301
0000
0100
0000
0010
0100
0001
0010
0100
1000
0001
0000
0020
0000
,
0000
0130
1000
0010
0100
0010
1000
0200
,
0000
0310
0001
1000
0001
0100
0010
2000
,
0000
0000
3001
0000
0100
0000
0010
0000
0100
0000
0001
0000
1000
0000
0010
0100
,
0010
0000
0100
0000
0001
0000
1000
0010
1000
0000
0010
0000
0100
0000
0002
0000
,
0000
1003
0100
0010
0001
0010
0100
2000
,
0000
3010
0100
0010
1000
0100
0010
0002
,
0000
0000
1003
0010
0100
0001
0010
0001
1000
0010
0100
0001
0010
0001
1000
0000
,
0000
0000
0001
1000
0100
0010
0001
0100
0001
1000
0100
0010
0001
0100
0020
0000
,
0000
0000
0130
0001
0010
0000
0001
0000
1000
0000
0100
0000
0010
0000
0001
0000
,
1000
0001
1000
0010
0100
0010
1000
0100
,
0010
0100
1000
0100
0010
0100
1000
0100
,
0010
0001
0010
0100
1000
0001
0100
0010
,
0000
1000
0001
0100
0001
1000
0100
0010
,
0100
1000
0100
1000
0001
1000
0001
0100
,
0010
0100
0010
0100
0010
0100
0001
1000
,
0001
0010
0100
1000
0010
1000
0001
0010
0100
1000
0010
1000
0100
0000
2000
0000
,
0000
3100
1000
0001
1000
0100
0010
0001
,
1000
0001
1000
0010
0100
0010
1000
0100
,
0010
0100
1000
0100
0010
0100
1000
0100
,
0010
0000
0001
0000
0010
0000
0100
0000
1000
0000
0001
0100
0001
0000
0020
0000
,
0000
0130
1000
0001
1000
0001
0100
0010
,
0100
0001
0100
0001
1000
0001
1000
0100
,
0010
0100
0010
0100
0010
0100
1000
0001
,
1000
0010
0100
0001
1000
0100
1000
0010
0100
0001
1000
0100
1000
0001
1000
0001
,
0010
0100
0010
0100
1000
0001
0100
0010
0100
0010
1000
0001
0010
0100
0010
0001
,
1000
0000
1000
0000
0001
0100
0001
0000
1000
0000
0100
0010
0100
0000
1000
0000
,
0001
0100
0010
0100
0001
0010
0100
1000
0010
0100
0001
1000
0100
1000
0001
0100
,
0010
1000
0100
0010
0001
0100
0001
1000
0010
1000
0001
0010
0100
1000
0010
1000
,
0001
0000
0010
0000
0100
0000
0000
0000
0010
0000
0000
0000
0001
0000
1000
0010
,
0100
0010
1000
0000
0001
0010
0100
0010
0001
0000
1000
0001
0100
0010
1000
0000
,
0001
0000
1000
0100
0010
0100
1000
0010
0100
0001
0010
0100
1000
0100
0010
0001
,
0100
0000
0000
0010
0000
0000
1000
0000
0000
0100
0000
0000
1000
0000
0000
0010
0000
0000
0100
0000
0000
0001
0000
0000
1000
0000
0000
0000
0010
0000
0000
0000
0100
0000
0000
0000
0001
0000
0000
0000
0010
0000
0000
0000
0100
0000
0000
0000
,
1000
0010
0100
0001
1000
0100
0010
0001
1000
0010
0100
0001
1000
0100
0010
0001
,
1000
0010
0100
0001
1000
0100
0010
0001
1000
0010
0100
0001
0100
0010
1000
0100
,
0010
0001
1000
0010
1000
0001
0100
0001
1000
0001
0010
0100
1000
0001
0010
0001
,
0100
0010
0100
0001
1000
0001
0010
0100
1000
0010
0100
0001
1000
0100
0010
0100
,
1000
0000
2000
0000
0000
0000
3001
0100
0020
0000
0000
0000
1030
0000
2000
0000
,
0000
3001
0002
0000
0103
0000
0010
0000
,
0100
0001
0100
0010
1000
0001
1000
0100
0010
0001
1000
0001
0010
0100
1000
0001
,
1000
0100
1000
0010
0100
0001
1000
0100
1000
0010
0100
0001
1000
0100
1000
0010
,
0200
0000
0310
0200
0000
0310
0200
0000
,
0301
2000
0000
3100
0020
0000
0000
0000
,
0031
0100
0010
1000
0100
1000
0001
0100
0010
1000
0100
1000
0001
0100
0010
1000
,
0100
1000
0001
0100
0010
1000
0100
1000
0010
0100
0001
0010
0100
0010
0001
1000
,
0001
0100
0010
1000
0001
0010
0100
1000
0001
0100
0010
1000
0001
0010
0100
1000
,
0001
0100
0001
0100
0010
1000
0001
0100
0001
0010
0001
1000
0200
0000
1300
0001
,
0100
0001
2000
0000
3001
0010
0100
0010
0001
1000
0001
0100
0010
1000
0100
0010
,
0001
0100
0010
0100
0001
0010
0100
1000
0010
0100
0010
1000
0001
0000
0000
0000
,
0010
0001
1000
0001
0100
0010
0100
0001
1000
0001
0010
0001
1000
0010
1000
0100
,
0020
0000
0031
0100
0010
1000
0002
0000
0013
0100
1000
0001
0100
0000
0020
0000
,
0000
0000
1030
0002
0000
0023
0000
0230
,
0000
0000
0310
0000
0001
0000
0100
0000
0001
0010
0100
1000
0001
0000
1000
0000
,
0010
0100
0001
1000
0100
0010
0001
1000
0010
0100
0001
1000
0100
0010
0001
1000
,
0010
1000
0100
0010
0100
1000
0001
0100
0001
1000
0100
1000
0001
0100
0010
1000
,
0100
0010
0001
0010
0100
1000
0001
0100
0001
1000
0001
0010
0100
0010
0001
1000
,
0010
0100
0010
1000
0001
0100
0001
1000
0100
1000
0001
1000
0100
0010
0001
1000
,
0001
0000
1000
0000
0010
0100
0010
0100
0001
1000
0001
1000
0100
0010
0001
0100
,
0010
1000
0100
1000
0001
0100
0010
1000
0100
0010
0001
0000
0100
0000
0020
0000
,
0000
0000
0000
0000
0000
0000
0130
0001
1000
0000
0000
0000
0000
0000
0000
0000
;
