#TITLE:Dark Echoes;
#SUBTITLE:Themes of Metroid Prime 2;
#ARTIST:Master of Dimensions;
#TITLETRANSLIT:;
#SUBTITLETRANSLIT:;
#ARTISTTRANSLIT:;
#CREDIT:;
#BANNER:DE banner.JPG;
#BACKGROUND:DE-bg.JPG;
#LYRICSPATH:;
#CDTITLE:MoDcdtitle.PNG;
#MUSIC:Dark Echoes.mp3;
#OFFSET:0.000;
#SAMPLESTART:63.730;
#SAMPLELENGTH:12.000;
#SELECTABLE:YES;
#BPMS:0.000=100.000,28.000=140.000,60.000=100.000,119.500=140.000,192.500=100.000,256.000=140.000,392.000=100.000;
#STOPS:25.750=1.100
,27.250=1.100
,172.000=0.400
,174.750=0.400
,178.250=0.400
,392.250=1.050
,394.250=1.650
,394.750=0.750
,396.750=1.350
,397.500=1.050
,399.250=1.500
,400.000=1.050
;
#BGCHANGES:0.000=DE-bg.JPG=1.000=0=0=1,
99999=-nosongbg-=1.000=0=0=0 // don't automatically add -songbackground-
;
// cache tags:
#FIRSTBEAT:1.000;
#LASTBEAT:401.750;
#SONGFILENAME:Songs/toune 2011/Dark Echoes/Dark Echoes.sm;
#HASMUSIC:1;
#HASBANNER:1;
#MUSICLENGTH:213.133;
// end cache tags

//---------------dance-single - ----------------
#NOTES:
     dance-single:
     :
     Hard:
     10:
     0.603,1.000,0.619,0.812,0.495,594.000,132.000,173.000,0.000,4.000:
0000
0000
0200
0000
0000
0001
0000
0000
,
0000
0000
0000
0010
0000
0000
0310
0000
0000
0000
0000
0000
0000
0000
0000
0000
0000
0000
0020
0000
0000
0000
0000
0000
0000
0000
0000
0000
0000
0000
0000
0000
0000
0000
0000
0000
0000
0000
2000
0000
3000
0000
0001
0000
0000
0000
0000
0000
,
0100
0000
0000
0100
0000
0000
0000
0000
0000
0000
1000
0000
0000
0000
0000
0000
0000
0000
0030
0000
0000
0000
0000
0000
2000
0000
0000
0000
0000
0000
0000
0000
0000
0000
0000
0000
0000
0000
0000
0000
0000
0000
0001
0000
0000
0001
0000
0000
,
0000
0000
0000
0000
0000
0000
0000
0000
3000
0000
0102
0000
1000
1000
0000
0000
,
0000
0000
0000
0020
0030
0000
0000
0000
0003
0100
0100
0000
2002
0000
0000
0000
,
0000
0000
0003
0000
0000
0000
0000
0000
0010
0010
0000
0000
0000
0000
0000
0000
,
0000
0000
0000
0000
3000
0000
0100
0110
0000
0000
0000
0000
0010
1010
0000
0000
,
2002
0003
0000
0200
3000
0300
0000
0022
0030
0000
2000
0000
0000
0003
3000
0000
,
0220
0000
0000
0030
0000
0000
0000
0000
0000
0000
0000
0000
0002
0000
0000
0000
0000
0000
0300
0000
0000
0003
0000
0000
2020
0000
0000
0030
0000
0000
0000
0000
0000
0000
0000
0000
0200
0000
0000
0000
0000
0000
3000
0000
0300
0000
0000
0000
,
0102
0000
0000
0010
0000
0100
0000
0000
1000
0000
0010
0000
0000
0100
0003
0000
,
2010
0000
0000
0001
0000
0100
0000
0000
0001
0000
0000
0100
0000
0010
3010
0000
,
2100
0001
0010
0001
0100
0010
0100
3001
,
1002
0000
0010
0000
1000
0000
0100
0000
0010
0000
0100
0000
0010
1000
0003
0000
,
0210
0001
1000
0010
1000
0001
0010
0300
,
0021
1000
0100
1000
0001
0100
0001
1030
,
1001
0100
0010
0000
1000
0100
0000
0001
0010
1000
0010
0100
0002
0003
0220
0330
,
1000
0100
0000
0001
0010
0000
0100
0010
0000
1000
0001
0100
0020
0030
2200
3300
,
0001
0010
0000
0100
0010
0000
1000
0100
0000
0010
0100
0001
2000
3000
0202
0303
,
0010
0100
0000
1000
0010
0000
0001
0100
0000
1000
0001
0100
0020
0030
0220
0330
,
0010
0001
0000
1000
0100
0000
0001
1000
0000
0010
0010
1000
1000
0002
0223
0330
,
1000
0001
0000
0100
0010
0000
0001
1000
0010
0100
1000
0200
0300
0022
0033
0010
,
0100
0000
0001
0100
0000
1000
0010
0000
0100
0010
1000
0002
0003
0220
0330
0000
,
0012
0000
0000
0000
0000
0000
0000
0000
0000
0100
0000
0000
0003
0000
0000
0000
0002
0000
2000
0000
0000
0000
0000
0000
0003
0000
0000
0000
0000
0000
0000
0000
0010
0000
0000
0000
0001
0000
0000
0000
0100
0000
0000
0000
0000
0000
0000
0000
,
3210
0000
0000
0301
0000
2020
0000
0000
0030
0000
0000
0000
3001
0000
0000
0102
,
0000
0000
0000
1003
0000
0000
2020
0000
0000
0030
0000
0100
0001
0100
3000
0022
,
0000
0030
2000
0000
3003
0000
0220
0000
0000
0000
0000
0000
0330
0000
0000
0000
,
2001
0000
0010
0000
3000
0202
0000
0300
0000
0100
0000
0010
0000
1000
0003
0000
,
0210
0000
0000
1000
0300
0022
0000
0003
0000
0000
0000
0000
1030
0000
0000
2100
,
0000
3010
0000
0022
0003
0001
1000
0130
,
0012
1000
0003
0220
0000
0000
0330
1002
,
0000
0100
0000
0000
0000
0000
0010
0100
0000
0000
0010
0000
0003
0000
2010
0000
,
0000
0100
0000
0000
0000
0010
0001
0000
0000
0001
0000
0000
3000
0000
1020
0000
,
0000
0001
0000
0000
0000
0000
0001
0001
0000
0100
0000
0000
0030
0000
0201
0000
,
0000
1000
0000
0000
0000
0000
0020
0000
0000
0000
0000
0330
0000
0000
1000
0000
,
0100
1000
0001
0010
1000
0100
0010
0100
,
0001
1000
0010
0100
1000
0010
0001
1100
,
0101
0110
1001
1010
0101
0011
0110
1000
,
0010
0001
0100
1000
0010
0001
2200
0000
,
0000
0000
0000
0300
0010
0000
0000
0000
0000
0000
3000
0000
0022
0000
0000
0000
,
0000
0000
0000
0000
0003
0100
0000
0000
0000
0000
0000
0000
0030
0000
0202
0000
,
0000
0000
0000
0300
0000
1000
0000
0000
0000
0000
0000
0000
0003
0000
2020
0000
,
0000
0000
0000
0000
0000
3000
0001
0000
0000
0000
0000
0000
0030
0000
1100
0000
,
0011
0110
1100
0101
0011
0101
1001
0110
,
0100
0000
1001
0000
0100
0000
0010
0000
0001
2200
3300
0010
0000
0000
1001
0000
,
0100
0000
0010
0000
1000
0000
0010
0202
0303
0010
0000
1001
0000
0000
0200
0000
,
0000
0000
0000
0010
0000
0001
0000
0000
0000
0000
1000
0000
0000
0000
0000
0000
,
0000
0000
0010
0000
0010
0000
0000
0000
0000
1000
0000
0000
0000
0000
0000
0000
,
0000
0001
0010
0000
0000
1000
0000
0000
,
0300
0000
0020
0000
0030
0000
0000
0000
0020
0000
0000
0030
0000
0200
0300
2000
,
3000
0000
0220
0000
0000
0330
2000
3000
0002
0000
0003
0000
1100
0000
0010
0000
,
0000
0202
0000
0303
0000
0000
0000
0202
0000
0000
0000
0303
0000
0000
0200
0320
,
0030
2000
0000
0000
3000
0002
0003
0200
0000
0000
0000
0300
1001
0000
0100
0000
,
0000
2200
3300
0000
0011
0000
0000
2200
0000
0000
0000
0000
3300
0000
0002
0003
,
0020
0030
2000
0000
0000
3000
0200
0300
0002
0003
0000
1010
0000
0001
0000
0000
,
0000
0200
0000
0300
0000
0000
0200
0000
0000
0000
0000
0000
0300
0002
0003
2000
,
3000
0000
0022
0000
0033
2000
3000
0020
0000
0030
0000
1001
0000
0110
0000
0000
,
2002
0000
0000
0000
0000
0000
0000
0000
0000
0000
0023
0000
0000
0000
0000
3030
,
0000
0200
0000
0000
0000
0000
0000
0300
0000
0002
0003
0020
0030
0000
0002
0003
,
2000
0000
0000
0000
0000
0000
0000
0000
3000
0100
0000
0200
0000
0000
0010
0000
,
0000
0000
0002
0000
0300
0000
0000
0000
0000
0000
0020
0000
0103
0000
0000
0030
,
0000
0220
0000
0000
0000
0000
0000
0030
2000
0000
0000
0000
0000
0000
0000
0000
,
3300
0000
0002
0000
0000
0000
0000
0000
0000
0000
0003
0000
0020
0030
2000
3000
,
0002
0003
0220
0000
0000
0000
0030
0300
0000
0101
0000
0202
0000
0000
0000
0000
,
0300
0020
0000
0000
0000
0000
0000
0030
2000
0000
0000
0000
0000
0000
0000
3003
,
0120
1000
0001
1000
0100
0001
0100
1000
,
0001
1000
0100
0001
1030
0210
1300
0102
,
0013
2100
0001
0010
0001
0100
0001
0010
,
0001
0100
0100
0010
0100
0001
0010
0001
,
0010
0000
0100
0000
0010
0000
0000
0000
0000
0100
0000
0000
0000
0000
0000
0000
,
0000
0010
0000
0001
0000
0000
0000
0000
0000
0100
0000
0000
0000
0000
0000
0000
,
0000
0000
0001
0000
0100
0000
0000
0000
0000
0000
0010
0000
0000
0000
0001
0001
,
0001
0000
0010
0100
0010
0100
0010
0100
0010
0100
0010
0100
0010
0001
0001
0000
0000
0000
0000
0000
0000
0000
0000
0000
,
3000
0100
0010
1000
0001
0010
0001
0100
,
0010
1000
0100
0001
0010
1000
0010
0100
,
0001
0110
1100
1010
1001
0101
0110
0011
,
1001
1010
0011
0101
0110
1001
1100
0101
,
1020
0000
1000
0000
0000
0000
0000
0000
0000
0001
0000
0000
0000
0000
0000
0000
,
0100
0000
1000
0000
0000
0000
0000
0030
2001
0000
3000
0000
0200
0000
0300
0000
,
0012
0000
1000
0000
0000
0000
0000
0000
0000
0100
0000
0000
0000
0000
0000
0000
,
0100
0000
0010
0000
0000
0000
0000
0000
0003
1200
0000
0300
0020
0000
0030
0000
,
2100
0001
0000
0000
0010
0000
0000
0000
,
0001
0010
0000
3000
0201
0300
0002
0003
,
0120
1000
0000
0000
0001
0000
0000
0000
,
0000
0100
0000
0100
0000
0000
0000
0000
0000
0001
0000
0000
0000
0000
0000
0000
,
0000
1000
0000
1000
0000
0000
0000
0000
0001
0000
0000
0000
0000
0000
0000
2000
,
3030
0200
0300
1020
0000
0100
0000
0000
0000
0001
0000
0000
0000
0000
0000
0000
,
0000
0000
1000
0000
0200
0000
0300
0000
0000
0000
0000
0000
0000
0000
0000
0000
0000
0000
0000
0000
0000
0000
0000
0000
0000
0000
0000
0001
0000
0000
0000
0000
0000
0000
0000
0000
0000
0000
0000
0000
0000
0000
0000
0000
0000
0000
0000
0000
,
1000
0100
0000
0000
0001
0000
0000
0000
,
0230
0300
0000
1000
0000
0000
0000
0000
0000
0000
0000
0000
0001
0000
0100
0000
0010
0000
1000
0000
0001
0000
0000
0000
,
0100
0000
0000
1000
0000
0000
0100
0010
0100
0010
0100
0000
0001
0000
1000
0000
0010
0000
1000
0000
0001
0000
0001
0000
,
0100
0000
0000
0010
0000
0000
1000
0000
0100
0000
1000
0000
0011
0000
0000
0000
0100
0000
0001
0000
0010
0000
1000
0100
,
1000
0100
1000
0100
1000
0100
1000
0100
1000
0100
1000
0000
0001
0000
0100
0000
0010
0000
0001
0000
0100
0000
1000
0000
,
0010
0000
0210
0010
0000
0000
0000
0000
0000
0000
0000
0000
0000
0300
0000
0000
,
0011
0000
0000
0011
0000
0000
1000
0000
2000
0000
0000
0000
0000
0000
0000
0000
0000
0000
0000
0000
0000
0000
0000
0000
0000
0000
0000
0000
0000
0000
0000
0000
0000
0000
0000
0000
3000
0000
0000
0000
0000
0000
0100
0000
0000
0000
0000
0000
,
1000
1000
0010
0000
0000
0000
1000
0000
0000
0000
0100
0000
0000
0000
0001
0000
,
0000
0000
0010
0100
0200
0300
1000
0000
0000
0010
0000
0000
0000
0100
0000
0000
,
0000
0001
0010
0010
1000
0000
0000
0010
0000
0000
0000
0000
0100
0000
0000
0000
,
1000
0001
2001
0010
0000
0000
0000
0001
0000
0000
0000
0200
0000
3300
0000
0000
,
1100
0011
0010
0100
1000
0100
0010
0000
0101
1010
0110
1001
0100
0010
1000
0100
,
0010
0000
0011
1100
1010
0000
0101
0001
0010
1000
0100
0010
1001
0110
0101
0000
,
1010
1000
0001
0010
0100
1000
0110
1001
0000
0000
0000
0000
0000
0000
0000
0000
;
