#TITLE:The Wind Sings of a Journey;
#SUBTITLE:;
#ARTIST:Yoko Shimomura;
#TITLETRANSLIT:;
#SUBTITLETRANSLIT:;
#ARTISTTRANSLIT:;
#CREDIT:;
#BANNER:The Wind Sings of a Journey-bn.PNG;
#BACKGROUND:The Wind Sings of a Journey-bg.PNG;
#LYRICSPATH:;
#CDTITLE:L.H.L. Version 3.png;
#MUSIC:1.20_-_the_wind_sings_of_a_journey.mp3;
#OFFSET:-2.540;
#SAMPLESTART:100.000;
#SAMPLELENGTH:12.000;
#SELECTABLE:YES;
#BPMS:0.000=132.040;
#STOPS:;
#BGCHANGES:;
// cache tags:
#FIRSTBEAT:4.000;
#LASTBEAT:250.500;
#SONGFILENAME:Songs/other/The Wind Sings of a Journey/The Wind Sings of a Journey.sm;
#HASMUSIC:1;
#HASBANNER:1;
#MUSICLENGTH:120.346;
// end cache tags

//---------------dance-single - Light----------------
#NOTES:
     dance-single:
     Light:
     Easy:
     3:
     0.227,0.312,0.100,0.258,0.000,148.000,12.000,31.000,0.000,0.000:
0000
0000
0000
0000
,
0002
0000
0000
0000
,
0023
0000
0000
0000
,
0230
0000
0000
0000
,
2300
0000
0000
0000
,
3002
0000
0000
0000
,
2003
0000
0000
0000
,
3020
0000
0000
0000
,
0230
0000
0000
0000
,
0310
0000
0001
0010
,
0200
0000
0000
0300
,
1000
0000
0001
0000
,
1000
0010
0100
0010
,
2000
0000
0000
0000
,
3002
0000
0000
0000
,
2003
0000
0000
0000
,
3200
0000
0000
0000
,
0310
0010
0010
0010
,
0100
0100
0100
0100
,
0001
0001
0001
0001
,
1000
1000
0001
0001
,
1000
1000
1000
1000
,
0010
0010
0100
0100
,
0002
0000
0000
0000
,
2003
0000
0000
0000
,
3010
0000
0000
0000
,
1001
0000
0000
0000
,
0110
0000
0000
0000
,
1001
0000
0000
0000
,
0001
0000
1000
0000
,
0001
0000
1000
0000
,
0020
0000
0000
0000
,
0230
0000
0000
0000
,
2300
0000
0000
0000
,
3002
0000
0000
0000
,
0203
0000
0000
0000
,
0310
0010
0010
0010
,
1001
0100
0100
0100
,
1001
1000
1000
1000
,
0110
0001
0001
0001
,
1001
0010
0010
0010
,
1010
0100
0100
0100
,
1100
0010
0010
0010
,
0011
0100
0100
0100
,
0101
0001
0010
0100
,
2000
0001
0001
0001
,
0001
0001
0001
0001
,
3200
0010
0010
0010
,
0010
0010
0010
0010
,
0302
1000
1000
1000
,
1000
1000
1000
1000
,
0203
0000
0000
0000
,
0320
0000
0000
0000
,
1030
0100
0001
0100
,
1000
0100
0001
0100
,
1000
0100
0001
0100
,
1000
0100
0001
0100
,
2000
0000
0000
0000
,
3020
0000
0000
0000
,
0230
0000
0000
0000
,
0302
0000
0000
0000
,
0013
0100
0010
0100
,
0220
0000
0000
0000
0000
0330
0000
0000
;

//---------------dance-single - Standard----------------
#NOTES:
     dance-single:
     Standard:
     Medium:
     6:
     0.379,0.416,0.216,0.582,0.000,223.000,26.000,70.000,0.000,0.000:
0000
0000
0000
0000
,
0002
0000
0000
0000
0000
2003
0000
3020
,
0000
0000
0000
0000
,
0230
0000
0000
0302
0000
0000
2003
0000
,
3002
0000
0000
0023
0000
0000
0230
0000
,
2300
0000
0000
3020
0000
0000
0230
0000
,
0302
0000
0000
2003
0000
0000
3200
0000
,
0320
0000
0000
0000
,
0230
0000
0000
2300
0000
0000
3002
0000
,
0023
0000
0000
0000
0000
0230
0000
2300
,
0000
0000
0000
0000
,
3002
0000
0000
0203
0000
0000
0320
0000
,
2030
0000
0000
3200
0000
0000
0302
0000
,
0203
0000
0000
2300
0000
0000
3020
0000
,
2030
0000
0000
3200
0000
0000
0320
0000
,
0032
0000
0000
0000
,
2003
0000
0000
3020
0000
0000
0200
0030
,
0301
0010
0100
1001
,
1000
0010
0110
1001
,
0200
0000
0000
0320
0000
0000
0230
0000
,
0000
0000
0000
0000
0000
0000
0000
0300
,
1001
0010
0001
1001
,
0100
1000
0010
1001
,
2000
0000
0000
3002
0000
0000
0000
0000
,
0203
0000
0000
0320
0000
0000
0000
0000
,
1030
0000
0100
0010
0000
0001
1000
0001
,
1000
0000
0010
0100
0000
0001
1000
0001
,
1000
0000
0100
0010
0000
1000
0100
0010
,
0001
0000
0010
0100
0000
0001
1000
0000
,
0002
0000
0000
0000
0000
2003
0000
3020
,
0000
0000
0000
0000
,
0230
0000
0000
0302
0000
0000
2003
0000
,
3002
0000
0000
0203
0000
0000
0320
0000
,
2030
0000
0000
3200
0000
0000
0320
0000
,
0032
0000
0000
2003
0000
0000
3020
0000
,
0230
0000
0000
0000
0000
0000
0000
0300
,
1001
0110
1001
1100
,
0001
0010
0100
0000
1000
0010
0001
0000
,
1000
0100
0010
0000
1000
0100
0001
0000
,
1000
0000
0000
0100
0000
0000
0010
0000
,
0001
0000
0000
0010
0000
0000
0100
0000
,
0001
0010
0100
0000
1000
0010
0001
0000
,
0001
0100
1000
0000
1000
0010
0001
0000
,
1001
0110
1010
0110
,
0011
0110
1001
0110
,
2000
0100
0100
0100
,
3001
0000
0010
0000
0100
1000
0001
0000
,
0020
0100
0001
1000
,
1030
0000
0100
0000
0010
0001
0010
0100
,
2000
0001
0010
0100
,
0001
0100
0010
0100
,
3002
0000
0000
0203
0000
0000
0000
0000
,
0302
0000
0000
0203
0000
0000
0000
0300
,
0010
0000
0100
0010
0000
1000
0100
0010
,
0001
0000
0001
1000
0000
0001
0010
0100
,
0001
0000
1000
0010
0000
1000
0010
0100
,
1000
0000
0001
0010
0000
0100
1000
0000
,
0010
0100
0001
0100
0010
0100
0001
0000
,
0010
0100
1000
0100
0010
0001
1000
0000
,
1001
0110
1001
0100
,
0110
0001
0010
1001
,
0110
0001
1000
0110
,
0220
0000
0000
0000
0000
0330
0000
0000
;

//---------------dance-single - Heavy----------------
#NOTES:
     dance-single:
     Heavy:
     Hard:
     9:
     0.578,0.546,0.133,0.191,0.349,448.000,16.000,23.000,0.000,0.000:
0000
0000
0000
0000
,
0001
0000
0000
0010
0100
0000
1000
0000
0000
0010
1000
0000
0010
0100
1000
0000
,
0100
0000
0000
0010
0001
0000
1000
0000
0000
0010
1000
0000
0100
1000
0100
0000
,
0010
0000
0000
0001
1000
0000
0001
0000
0000
1000
0010
0000
1000
0010
0100
0000
,
0010
0000
0000
0001
1000
0000
0001
0000
0000
1000
0010
0000
1000
0010
1000
0000
,
0100
0000
0000
1000
0100
0000
1000
0000
0000
0001
0010
0000
0001
0010
0001
0000
,
0010
0000
0000
0100
1000
0000
0010
0000
0000
0100
0010
0000
0100
0010
0100
0000
,
0001
0000
0000
1000
0001
0000
1000
0000
0000
0001
1000
0000
0001
1000
0001
0000
,
0010
0000
0000
1000
0100
0000
0010
0000
0000
0100
1000
0000
0100
1000
0100
0000
,
0001
0010
0100
1000
0100
0001
0100
1000
,
0100
0010
0001
1000
0100
0010
0001
0001
,
0010
1000
0010
0001
0010
0100
1000
1000
,
0010
0100
0001
0010
0100
1000
0010
0010
,
0100
0001
0100
1000
0010
0100
0001
1000
,
0100
0001
0010
0100
1000
0010
0100
0001
,
0020
0000
0000
0000
,
0230
0000
0000
0000
0000
0000
2300
0000
0000
0000
0000
0000
0002
3000
0000
0000
,
1003
0000
0000
0010
1000
0000
0001
0000
0000
1000
0100
0000
1000
0100
0010
0000
,
1000
0000
0000
0100
0010
0000
0001
0000
0000
1000
0100
0000
1000
0100
0010
0000
,
1000
0000
0000
0010
1000
0000
0100
0000
0000
0001
1000
0000
0100
0001
0010
0000
,
1000
1001
0110
1001
,
0100
0000
0000
0010
0001
0000
0010
0000
0000
1000
0001
0000
1000
0001
0010
0000
,
1000
0000
0000
0100
1000
0000
0100
0000
0000
0100
0010
0000
0010
1000
0100
0000
,
1000
0001
0100
1000
0100
0010
0001
1000
,
0100
0010
0001
0010
1000
0010
0100
0001
,
1000
0000
0000
0001
1000
0000
0001
0000
0000
1000
0001
0000
1000
0001
1000
0000
,
0010
0000
0000
1000
0010
0000
1000
0000
0000
0010
1000
0000
0010
1000
0010
0000
,
1000
0000
0000
0100
1000
0000
0100
0000
0000
1000
0100
0000
1000
0100
1000
0000
,
0001
0000
0000
0010
0001
0000
0010
0000
0000
0001
0010
0000
0001
0010
0001
0000
,
0100
0000
0000
1000
0010
0000
1000
0000
0000
0010
1000
0000
0010
1000
0010
0000
,
0010
0000
0000
0100
0010
0000
0100
0000
0000
0010
0100
0000
0010
0100
0010
0000
,
0100
0000
0000
0100
0001
0000
0100
0000
0000
0001
0100
0000
0001
0100
0001
0000
,
0100
0000
0000
0010
0100
0000
0010
0000
0000
0100
0010
0000
0100
0010
0100
0000
,
0010
0000
0000
1000
0010
0000
1000
0000
0000
0010
1000
0000
0010
1000
0010
0000
,
1000
0000
0000
0001
1000
0000
0001
0000
0000
1000
0001
0000
1000
0001
1000
0000
,
1001
0000
0000
0001
0010
0000
0001
0000
0000
0010
0100
0000
0010
0100
0010
0000
,
1100
0110
0011
0110
,
0001
0100
1000
0100
0001
0100
1000
0100
,
0001
0010
1000
0010
0001
0010
1000
0010
,
0001
0010
0100
1000
0001
0010
0100
1000
,
1000
0100
0010
0001
1000
0100
0010
0001
,
0010
0100
0010
0100
0010
0100
0010
0100
,
0001
1000
0001
1000
0001
1000
0001
1000
,
1001
0110
1010
0110
,
0001
0010
0100
1000
0001
0010
0100
1000
,
0200
0000
0000
2000
0000
0000
0000
0000
,
0000
0000
0000
0000
0000
0300
0000
0000
0020
0000
3000
0000
0200
0000
0030
0000
,
0002
0000
0000
0000
0000
0300
2000
0000
0000
0000
0003
0000
0200
0000
0000
0000
,
0000
0000
0000
0000
0000
0000
0000
3000
0010
0000
0000
0000
0001
0000
0000
0000
,
2000
0000
0300
0020
0000
3000
0200
0000
,
0000
0030
0302
0000
2000
0003
0200
3000
,
0020
0000
0000
0000
0000
0300
0002
0000
0000
0000
0000
0000
0000
0000
0030
0000
,
0200
0000
0003
0020
0000
0000
0000
0300
,
1030
0000
0000
1000
0100
0000
0100
0000
0000
1000
0100
0000
1000
0001
1000
0000
,
0010
0000
0000
1000
0010
0000
1000
0000
0000
0100
1000
0000
0010
0001
0100
0000
,
1000
0000
0000
0100
0001
0000
0010
0000
0000
1000
0001
0000
0010
0100
1000
0000
,
0001
0000
0000
1000
0100
0000
1000
0000
0000
0010
1000
0000
1000
0100
0010
0000
,
0001
1000
0010
1000
0001
0100
1000
0010
,
0010
0001
1000
0100
0001
1000
0010
0100
,
0001
0010
0100
1000
0010
1000
0001
0100
,
0100
0010
0001
1000
0010
0100
0001
1000
,
1001
0001
0100
0110
0010
0100
1001
0010
,
0220
0000
0000
0000
0000
0330
0000
0000
;
