#TITLE:Reluctantly Accepting Temporary Overexhaustion;
#SUBTITLE:;
#ARTIST:Terminal11;
#TITLETRANSLIT:;
#SUBTITLETRANSLIT:;
#ARTISTTRANSLIT:;
#CREDIT:;
#BANNER:../fthescorept1bn.png;
#BACKGROUND:../fthescorept1bg.png;
#LYRICSPATH:;
#CDTITLE:;
#MUSIC:Reluctantly Accepting Temporary Overexhaustion.ogg;
#OFFSET:-2.189;
#SAMPLESTART:42.160;
#SAMPLELENGTH:23.900;
#SELECTABLE:YES;
#BPMS:0.000=240.283,1.000=240.196,2.000=240.283,3.000=240.196,4.000=240.218,5.000=240.196,6.000=240.218,7.000=240.196,9.000=240.218,10.000=240.196,11.000=240.218,12.000=240.196,13.000=240.218,14.000=240.196,15.000=240.218,16.000=240.196,17.000=240.218,18.000=240.196,19.000=240.218,20.000=240.196,22.000=240.218,23.000=240.196,24.000=240.218,25.000=240.196,26.000=240.218,27.000=240.196,28.000=240.218,29.000=240.196,30.000=240.218,31.000=240.196,32.000=240.218,33.000=240.196,34.000=240.218,35.000=240.196,36.000=240.218,37.000=240.196,39.000=240.218,40.000=240.196,41.000=240.218,42.000=240.196,43.000=240.218,44.000=240.196,46.000=240.218,47.000=240.196,48.000=240.218,49.000=240.196,50.000=240.218,51.000=240.196,52.000=240.218,53.000=240.196,55.000=240.218,56.000=240.196,57.000=240.218,58.000=240.196,59.000=240.218,60.000=240.196,62.000=240.218,63.000=240.196,64.000=240.218,65.000=240.196,66.000=240.218,67.000=240.196,68.000=240.218,69.000=240.196,71.000=240.218,72.000=240.196,73.000=240.218,74.000=240.196,75.000=240.218,76.000=240.196,78.000=240.218,79.000=240.196,80.000=240.218,81.000=240.196,82.000=240.218,83.000=240.196,84.000=240.218,85.000=240.196,87.000=240.218,88.000=240.196,89.000=240.218,90.000=240.196,91.000=240.218,92.000=240.196,93.000=240.218,94.000=240.196,95.000=240.218,96.000=240.196,97.000=240.218,98.000=240.196,99.000=240.218,100.000=240.196,101.000=240.218,102.000=240.196,103.000=240.218,104.000=240.196,105.000=240.218,106.000=240.196,107.000=240.218,108.000=240.196,109.000=240.218,110.000=240.196,111.000=240.218,112.000=240.196,113.000=240.218,114.000=240.196,115.000=240.218,116.000=240.196,117.000=240.218,118.000=240.196,119.000=240.218,120.000=240.196,121.000=240.218,122.000=240.196,123.000=240.218,124.000=240.196,125.000=240.218,126.000=240.196,127.000=240.218,128.000=240.196,129.000=240.218,130.000=240.196,131.000=240.218,132.000=240.196,133.000=240.218,134.000=240.196,135.000=240.218,136.000=240.196,137.000=240.218,138.000=240.196,139.000=240.218,140.000=240.196,141.000=240.218,142.000=240.196,143.000=240.218,144.000=240.196,145.000=240.218,146.000=240.196,147.000=240.218,148.000=240.196,149.000=240.218,150.000=240.196,151.000=240.218,152.000=240.196,153.000=240.218,154.000=240.196,155.000=240.218,156.000=240.196,157.000=240.218,158.000=240.196,159.000=240.218,160.000=240.196,161.000=240.218,162.000=240.196,163.000=240.218,164.000=240.196,165.000=240.218,166.000=240.196,167.000=240.218,168.000=240.196,169.000=240.218,170.000=240.196,171.000=240.218,172.000=240.196,173.000=240.218,174.000=240.196,175.000=240.218,176.000=240.196,177.000=240.218,178.000=240.196,179.000=240.218,180.000=240.196,181.000=240.218,182.000=240.196,183.000=240.218,184.000=240.196,185.000=240.218,186.000=240.196,187.000=240.218,188.000=240.196,189.000=240.218,190.000=240.196,191.000=240.218,192.000=240.196,193.000=240.218,194.000=240.196,195.000=240.218,196.000=240.196,197.000=240.218,198.000=240.196,199.000=240.218,200.000=240.196,201.000=240.218,202.000=240.196,203.000=240.218,204.000=240.196,205.000=240.218,206.000=240.196,207.000=240.218,208.000=240.196,209.000=240.218,210.000=240.196,211.000=240.218,212.000=240.196,213.000=240.218,214.000=240.196,215.000=240.218,216.000=240.196,217.000=240.218,218.000=240.196,219.000=240.218,220.000=240.196,221.000=240.218,222.000=240.196,223.000=240.218,224.000=240.196,225.000=240.218,226.000=240.196,227.000=240.218,228.000=240.196,229.000=240.218,230.000=240.196,231.000=240.218,232.000=240.196,233.000=240.218,234.000=240.196,235.000=240.218,236.000=240.196,237.000=240.218,238.000=240.196,239.000=240.218,240.000=240.196,241.000=240.218,242.000=240.196,243.000=240.218,244.000=240.196,245.000=240.218,246.000=240.196,247.000=240.218,248.000=240.196,249.000=240.218,250.000=240.196,251.000=240.218,252.000=240.196,253.000=240.218,254.000=240.196,255.000=240.218,256.000=240.196,257.000=240.218,258.000=240.196,259.000=240.218,260.000=240.196,261.000=240.218,262.000=240.196,263.000=240.218,264.000=240.196,265.000=240.218,266.000=240.196,267.000=240.218,268.000=240.196,269.000=240.218,270.000=240.196,271.000=240.218,272.000=240.196,273.000=240.218,274.000=240.196,275.000=240.218,276.000=240.196,277.000=240.218,278.000=240.196,279.000=240.218,280.000=240.196,281.000=240.218,282.000=240.196,283.000=240.218,284.000=240.196,285.000=240.218,286.000=240.196,287.000=240.218,288.000=240.196,289.000=240.218,290.000=240.196,291.000=240.218,292.000=240.196,293.000=240.218,294.000=240.196,295.000=240.218,296.000=240.196,297.000=240.218,298.000=240.196,299.000=240.218,300.000=240.196,301.000=240.218,302.000=240.196,303.000=240.218,304.000=240.196,305.000=240.218,306.000=240.196,307.000=240.218,308.000=240.196,309.000=240.218,310.000=240.196,311.000=240.218,312.000=240.196,313.000=240.218,314.000=240.196,315.000=240.218,316.000=240.196,317.000=240.218,318.000=240.196,319.000=240.218,320.000=240.196,321.000=240.218,322.000=240.196,323.000=240.218,324.000=240.196,325.000=240.218,326.000=240.196,327.000=240.218,328.000=240.196,329.000=240.218,330.000=240.196,331.000=240.218,332.000=240.196,333.000=240.218,334.000=240.196,335.000=240.218,336.000=240.196,337.000=240.218,338.000=240.196,339.000=240.218,340.000=240.196,341.000=240.218,342.000=240.196,343.000=240.218,344.000=240.196,345.000=240.218,346.000=240.196,347.000=240.218,348.000=240.196,349.000=240.218,350.000=240.196,351.000=240.218,352.000=240.196,353.000=240.218,354.000=240.196,355.000=240.218,356.000=240.196,357.000=240.218,358.000=240.196,359.000=240.218,360.000=240.196,361.000=240.218,362.000=240.196,363.000=240.218,364.000=240.196,365.000=240.218,366.000=240.196,367.000=240.218;
#STOPS:;
#BGCHANGES:;
// cache tags:
#FIRSTBEAT:0.000;
#LASTBEAT:336.000;
#SONGFILENAME:Songs/Fuck The Score Part I/RATO [Dossar]/Reluctantly Accepting Temporary Overexhaustion.sm;
#HASMUSIC:1;
#HASBANNER:1;
#MUSICLENGTH:87.560;
// end cache tags

//---------------dance-single - ----------------
#NOTES:
     dance-single:
     :
     Challenge:
     19:
     1.000,1.000,0.000,0.080,1.000,1106.000,0.000,7.000,0.000,0.000:
1000
0000
0000
0000
0010
0000
0100
0001
0010
0000
0100
0000
1000
0010
0100
0001
,
0010
0100
1000
0010
0100
0000
0001
0000
0100
0010
1000
0100
0010
0100
1000
0010
,
0100
0000
0010
1000
0001
0000
1000
0100
0010
0001
1000
0001
0100
0000
0010
0000
,
1000
0100
0010
0001
0100
0010
0100
0001
1000
0000
0100
0010
0001
0100
0010
0100
,
0001
0000
1000
0100
0010
0100
1000
0001
0100
0010
1000
0100
0010
0000
0001
0000
,
1000
0000
0001
0000
0010
0000
0100
1000
0010
0000
0100
0000
0001
0010
0100
1000
,
0010
0000
1000
0000
0010
0000
1000
0000
0001
0000
0100
0010
1000
0000
0001
0000
,
0100
0010
1000
0000
0001
0100
0010
1000
0100
0000
0010
0001
0100
0000
0010
0000
,
2000
0000
3001
0100
0010
0000
0100
0001
,
1000
0100
1000
0100
0010
0001
0010
0001
,
1000
0000
0010
0000
0100
0001
0010
0100
1000
0000
0010
0000
0100
0000
0001
0000
,
0010
0000
0100
0000
1000
0001
0010
0100
1000
0010
0100
0001
1000
0100
0010
0001
,
1000
0010
0100
0001
1000
0000
0001
0010
0100
1000
0001
0100
0010
1000
0001
0010
,
0100
1000
0001
0100
0010
1000
0100
0010
0001
1000
0010
1000
0001
0010
0100
1000
,
0001
0000
0010
0001
0100
0000
0010
1000
0100
0010
0001
0100
0001
0010
0100
0010
,
0001
0100
0010
0100
0001
1000
0100
0010
0100
1000
0010
0100
0001
0000
0000
0000
,
0020
0000
0030
0000
0001
0100
0001
0000
0020
0000
0030
0000
0001
0100
0001
0000
,
0020
0000
0030
0000
0001
0100
0001
0000
0020
0000
0030
0000
0001
0100
0001
0000
,
0020
0000
0030
0000
0001
0100
0001
0000
0020
0000
0030
0000
0001
0000
1000
0000
,
0100
0000
0010
0000
0100
0000
1000
0000
0001
0010
0100
1000
0001
1000
0010
0100
,
0001
0000
1000
0100
0010
0001
0100
0000
0010
0000
0000
0000
1000
0000
0000
0000
,
0010
0000
0100
0001
0010
0000
0100
0000
1000
0000
0000
0000
0001
0000
0000
0000
,
1000
0000
1000
0000
0001
0000
0100
0000
0010
0000
1000
0001
0100
0010
1000
0100
,
0010
0000
0010
0000
0100
0000
0010
0000
0010
0000
0100
0000
1000
0100
0010
0001
,
0100
0000
0000
0000
0001
0100
0010
1000
0100
0000
0000
0000
1000
0010
0100
0001
,
0010
0000
0000
0000
0001
0010
0100
1000
0010
0100
0010
1000
0001
0010
0100
1000
,
0001
0000
1000
0000
0010
0000
0100
0001
0010
0100
0010
0001
1000
0001
0100
0010
,
1000
0000
0100
0010
0001
0000
0100
0010
1000
0000
0001
0010
0100
1000
0010
1000
,
0001
0100
0010
1000
0100
0010
0100
1000
0010
0100
0001
0010
0100
1000
0010
0100
,
0010
1000
0001
0010
0100
0010
0001
0000
1000
0100
0010
0001
0100
0010
1000
0100
,
1000
0000
0100
0000
0010
0000
0100
0000
1000
0000
0001
0010
0100
0010
0001
1000
,
0010
0000
0100
0001
0010
0000
0100
1000
0010
0100
0001
1000
0001
0010
0100
0010
,
0001
1000
0100
0010
0001
0100
0010
0100
0001
1000
0001
0010
0100
1000
0010
0100
,
0001
1000
0010
0000
0100
0000
0001
0010
0100
1000
0010
1000
0100
0010
0001
0100
,
0001
0000
1000
0000
0010
0000
0100
0000
0001
0000
1000
0010
0100
0001
0010
0100
,
0010
0001
1000
0010
0100
0001
1000
0100
0010
0001
0010
0001
0010
0000
0100
0000
,
1000
0000
0001
0100
0010
1000
0100
0010
0001
0010
0100
1000
0010
1000
0100
0010
,
0001
0100
0001
0010
0100
1000
0010
0100
0001
0010
0100
0010
0001
1000
0100
0000
,
0010
0000
0001
0010
0100
1000
0001
0100
0010
1000
0001
0000
0010
0000
0100
0000
,
1000
0000
0010
0100
0001
1000
0100
0010
0001
1000
0010
0100
0001
1000
0100
0000
,
1000
0000
0001
0010
0100
0000
1000
0010
0100
0001
0010
0100
1000
0010
0100
0010
,
1000
0001
0010
0001
1000
0100
0010
0001
1000
0100
1000
0001
0010
0100
1000
0010
,
0100
0000
0001
0010
0001
0000
1000
0100
0010
0001
1000
0001
0010
0001
0100
0010
,
1000
0100
1000
0010
1000
0001
0100
0010
1000
0100
0010
0001
1000
0000
0000
0000
,
0001
0100
0010
1000
0100
0010
0001
0100
0010
1000
0010
0100
0001
0010
0001
0100
,
0001
0010
0100
1000
0010
1000
0100
1000
0010
0100
0001
0010
0100
0010
0001
1000
,
0100
0010
0100
1000
0010
0100
0001
0010
0100
1000
0001
1000
0100
0010
0001
1000
,
0001
0010
0100
1000
0001
0100
0010
1000
0100
0010
0001
0100
0001
0000
0000
0000
,
1000
0000
0010
1000
0100
0000
0010
0001
0100
0010
1000
0100
0010
0100
1000
0010
,
0100
0001
0010
0100
0010
0001
0100
0001
0010
0100
1000
0010
1000
0100
0010
0001
,
1000
0000
0001
0100
0010
0000
1000
0100
0010
0001
1000
0001
0100
0010
1000
0001
,
0100
0010
1000
0100
0010
0001
1000
0001
0100
0010
1000
0100
0010
0000
0000
0000
,
0001
0000
0010
0100
1000
0000
0001
0010
0001
0100
0001
0010
0100
1000
0010
1000
,
0100
0010
0100
1000
0010
0100
0001
0010
0001
1000
0010
0100
0001
0010
0100
0010
,
0001
0000
0100
0010
1000
0100
0010
0001
1000
0001
0100
0001
0010
0100
1000
0010
,
0100
0001
0010
0001
1000
0010
0100
0001
0010
0001
1000
0100
1000
0000
0000
0000
,
0001
0000
0100
0001
0010
0000
0100
1000
0010
0100
0001
0000
1000
0100
0010
0000
,
0001
0100
0010
1000
0100
0010
0001
0010
0100
1000
0010
0100
0001
0010
0100
0010
,
0001
0000
1000
0010
1000
0100
0010
0001
1000
0010
0100
0001
1000
0100
0010
0001
,
1000
0010
0100
0001
1000
0100
0010
0001
1000
0010
0100
0001
1000
0000
0001
0010
,
0100
0000
1000
0010
0100
0000
0001
0010
0001
0100
0010
1000
0100
0010
0001
0100
,
0010
0100
0001
0010
0100
0010
0100
1000
0010
0100
0001
1000
0100
0010
0001
1000
,
0001
0000
1000
0010
0100
0001
0010
0001
0100
0010
1000
0100
0010
0100
1000
0001
,
0100
0010
1000
0100
0010
0001
1000
0010
0100
0001
1000
0100
0010
0000
0000
0000
,
0001
0010
0100
1000
0010
0000
0100
0001
0010
0100
1000
0001
0100
0010
1000
0100
,
0010
0001
1000
0010
0100
0001
0010
0100
1000
0001
0100
0010
0100
0001
0010
0100
,
1000
0000
0001
0100
0010
1000
0100
0010
0100
1000
0010
0100
0001
1000
0001
0010
,
0100
0010
0001
1000
0100
0010
0001
0100
0010
1000
0100
0010
0001
0000
0100
0010
,
1000
0001
0010
0100
1000
0001
0100
0010
1000
0001
0010
0001
1000
0100
0010
0001
,
1000
0010
0100
0001
1000
0001
0010
0100
1000
0001
0100
0010
1000
0001
0100
0001
,
1000
0010
0100
0001
0100
0010
1000
0001
,
0010
0100
1000
0001
0100
0010
1000
0100
0010
0100
1000
0001
0100
0000
0000
0000
,
0001
0010
0001
0100
0001
1000
0100
0010
0001
0100
0001
0010
0100
0010
0001
1000
,
0100
1000
0010
0100
0010
0100
0001
1000
0100
0000
1000
0001
0010
0100
0010
0001
,
1000
0100
0010
0001
1000
0010
0100
0001
,
1000
0100
0010
0001
0100
0010
0100
0001
1000
0100
0010
0001
1000
0000
0000
0000
,
0001
1000
0100
1000
0010
1000
0100
1000
0001
0010
0100
1000
0010
0100
0010
1000
,
0100
0010
0001
0100
0001
0010
0001
0100
0010
0100
0001
1000
0100
0010
0001
0100
,
0010
1000
0100
1000
0010
0100
0001
0010
0100
0010
0001
0100
0010
0100
0001
0010
,
0100
1000
0001
1000
0100
0010
0100
1000
0010
0100
0001
0010
0100
0000
0000
0000
,
1000
0100
0010
0001
1000
0001
0100
0010
1000
0100
0010
0001
1000
0001
0100
0010
,
1000
0010
0100
0001
0010
0001
1000
0010
0100
0001
0010
0001
1000
0010
0100
0001
,
0010
0000
0001
0100
0000
0100
0010
0000
,
1000
0100
0010
0001
0100
0010
1000
0100
0010
0001
0100
0010
1000
0000
0000
0000
,
0001
0000
0000
0000
;

//---------------dance-single - ----------------
#NOTES:
     dance-single:
     :
     Hard:
     18:
     1.000,1.000,0.000,0.080,1.000,1106.000,0.000,7.000,0.000,0.000:
1000
0000
0000
0000
0001
0000
1000
0100
0010
0000
0001
0000
1000
0010
0100
0001
,
1000
0010
1000
0010
1000
0000
0001
0000
0100
0010
1000
0001
0010
0001
1000
0001
,
0100
0000
0010
1000
0001
0000
1000
0100
0010
0001
0010
0100
1000
0000
0001
0000
,
1000
0100
0010
0001
1000
0100
0010
0001
1000
0000
0001
0010
0001
1000
0100
0010
,
0001
0000
1000
0001
0100
0010
1000
0010
0100
0001
1000
0001
0100
0000
0010
0000
,
1000
0000
0001
0000
0010
0000
0100
1000
0001
0000
0010
0000
0100
0010
0100
1000
,
0001
0000
1000
0000
0001
0000
1000
0000
0010
0000
0100
0001
1000
0000
0010
0000
,
0100
0001
1000
0000
0010
0100
0001
1000
0100
0000
0010
0001
0010
0000
0100
0000
,
2000
0000
3001
0100
0010
0000
0100
0001
,
1000
0100
1000
0100
0010
0001
0010
0001
,
1000
0000
0010
0000
0100
0001
0100
0001
0100
0000
0010
0000
1000
0000
0001
0000
,
0010
0000
0100
0000
1000
0001
0010
0001
1000
0100
0010
0001
1000
0100
1000
0001
,
1000
0100
0010
0100
1000
0000
0001
0100
0010
1000
0001
0100
0001
1000
0010
0100
,
0001
1000
0010
1000
0001
0100
0010
1000
0001
1000
0100
0010
0001
1000
0100
1000
,
0001
0000
0010
0100
1000
0000
0001
0010
0001
1000
0100
0010
0001
0010
0100
1000
,
0001
1000
0010
0100
0001
1000
0010
1000
0001
0100
0010
1000
0001
0000
0000
0000
,
0020
0000
0030
0000
0001
0100
0001
0000
0020
0000
0030
0000
0001
0100
0001
0000
,
0020
0000
0030
0000
0001
0100
0001
0000
0020
0000
0030
0000
0001
0100
0001
0000
,
0020
0000
0030
0000
0001
0100
0001
0000
0020
0000
0030
0000
0001
0000
1000
0000
,
0100
0000
0010
0000
0100
0000
1000
0000
0001
0010
0100
1000
0001
1000
0100
1000
,
0001
0000
0010
0100
0010
0001
0010
0000
0100
0000
0000
0000
1000
0000
0000
0000
,
0001
0000
0100
0010
0100
0000
0001
0000
0100
0000
0000
0000
0010
0000
0000
0000
,
1000
0000
1000
0000
0001
0000
0100
0000
0010
0000
1000
0010
0100
0001
1000
0001
,
0010
0000
0010
0000
0100
0000
0010
0000
0010
0000
0100
0000
1000
0100
0010
0001
,
1000
0000
0000
0000
0001
0100
0010
1000
0001
0000
0000
0000
1000
0010
0100
0001
,
1000
0000
0000
0000
0001
0010
0100
1000
0001
0010
0100
0010
0001
1000
0100
0010
,
0001
0000
1000
0000
0010
0000
0100
0001
1000
0010
0100
0001
1000
0001
0100
0010
,
1000
0000
0001
0010
0001
0000
1000
0100
0010
0000
0001
0010
0001
1000
0100
0010
,
0001
0010
0100
1000
0001
1000
0001
0100
0010
1000
0001
0100
0010
1000
0010
0100
,
0001
1000
0010
1000
0001
1000
0100
0000
1000
0001
0010
0001
1000
0100
0010
0001
,
1000
0000
0100
0000
0010
0000
0100
0000
1000
0000
0001
0010
0100
0010
0001
1000
,
0010
0000
0100
0001
1000
0000
0001
0100
0010
1000
0001
0100
0001
1000
0010
0100
,
0001
1000
0010
1000
0001
0100
0001
0100
0010
1000
0001
0100
0010
1000
0001
0010
,
0001
1000
0100
0000
0010
0000
0001
1000
0100
1000
0001
0010
0100
1000
0001
0010
,
0001
0000
1000
0000
0010
0000
0100
0000
0001
0000
1000
0010
0100
0001
1000
0010
,
0100
0001
0100
0010
1000
0001
1000
0010
0100
0001
0100
0001
0100
0000
0010
0000
,
1000
0000
0001
0010
0001
1000
0100
0010
0001
1000
0100
1000
0001
0010
0100
1000
,
0001
1000
0100
1000
0001
0010
0100
1000
0001
0010
0001
0010
0100
1000
0100
0000
,
0010
0000
0001
1000
0001
1000
0001
0010
0100
1000
0100
0000
0010
0000
0001
0000
,
1000
0000
0010
0100
0001
1000
0001
0100
0001
1000
0010
0100
0001
1000
0001
0000
,
1000
0000
0010
0100
0010
0000
1000
0001
0010
0100
0010
0001
1000
0100
0010
0001
,
1000
0001
0010
0001
1000
0100
0010
0001
1000
0100
1000
0001
0010
0100
0010
0001
,
1000
0000
0001
0100
0001
0000
1000
0010
0100
0001
1000
0001
0010
0001
1000
0010
,
0100
0001
1000
0010
0100
0001
0100
0010
1000
0001
0100
0010
0100
0000
0000
0000
,
0010
1000
0010
1000
0001
0100
0001
0100
0010
1000
0001
0100
0001
1000
0010
0100
,
0001
1000
0010
1000
0001
0100
0010
1000
0001
1000
0100
1000
0001
0010
0100
1000
,
0001
0010
0100
0010
0001
0010
0100
1000
0001
0010
0001
1000
0100
0010
0001
1000
,
0100
1000
0001
0010
0100
1000
0001
1000
0100
1000
0001
0010
0001
0000
0000
0000
,
1000
0000
0010
0100
0001
0000
1000
0010
1000
0001
0100
0010
1000
0001
0010
0001
,
1000
0001
0100
0010
1000
0001
1000
0010
0100
0001
1000
0010
1000
0001
0100
0010
,
1000
0000
0001
0010
0001
0000
1000
0100
0010
0001
1000
0001
0010
0100
1000
0001
,
0010
0001
1000
0100
0010
0100
1000
0100
0010
0001
1000
0100
1000
0000
0000
0000
,
0001
0000
1000
0010
0100
0000
0001
1000
0001
1000
0010
0100
0001
1000
0010
0100
,
0010
1000
0001
0100
0001
1000
0010
0100
0001
1000
0100
1000
0001
0100
0010
1000
,
0001
0000
1000
0100
0010
0001
1000
0100
1000
0001
0010
0001
1000
0100
0010
0001
,
1000
0100
0010
0100
1000
0001
0010
0100
0010
0001
1000
0100
1000
0000
0000
0000
,
0001
0000
0100
0001
0100
0000
0010
1000
0001
1000
0100
0000
0010
0001
0010
0000
,
0100
1000
0001
1000
0100
0010
0001
0010
0100
1000
0001
0010
0001
1000
0100
0010
,
0001
0000
1000
0010
0100
0001
0100
0010
1000
0001
1000
0001
0100
0010
0100
0010
,
1000
0001
0010
0001
1000
0001
0100
0010
1000
0001
1000
0010
0100
0000
0001
1000
,
0001
0000
1000
0100
1000
0000
0001
0010
0001
1000
0100
0010
0001
1000
0100
1000
,
0001
0010
0100
1000
0001
1000
0100
0010
0001
0010
0100
1000
0001
1000
0100
0010
,
0001
0000
1000
0010
0100
0001
1000
0001
0100
0010
1000
0001
1000
0100
1000
0001
,
0100
0010
1000
0001
0100
0001
1000
0010
0100
0001
1000
0010
1000
0000
0000
0000
,
0001
0100
0001
0100
0001
0000
1000
0100
0010
0100
1000
0100
0010
0001
0010
0100
,
1000
0001
0010
0001
1000
0100
0010
0001
1000
0100
0010
0100
1000
0001
0010
0100
,
1000
0000
0001
0100
0010
1000
0010
0100
0001
1000
0001
1000
0010
0100
0010
0100
,
0001
1000
0010
0100
0001
1000
0001
0100
0010
1000
0001
0100
0001
0000
1000
0100
,
0010
0001
1000
0100
1000
0001
0010
0100
1000
0001
0010
0001
1000
0100
0010
0001
,
1000
0100
0010
0100
1000
0001
1000
0010
0100
0001
0100
0010
1000
0001
0100
0001
,
1000
0010
0100
0001
0100
0010
1000
0001
,
0010
0100
0010
0001
1000
0100
0010
0001
1000
0001
0010
0100
1000
0000
0000
0000
,
0001
0100
0010
1000
0001
1000
0010
0100
0001
1000
0001
0100
0010
1000
0010
1000
,
0001
0100
0010
1000
0001
0100
0001
1000
0100
0000
1000
0001
0010
0100
0010
0001
,
1000
0100
0010
0001
1000
0010
0100
0001
,
1000
0100
0010
0001
1000
0100
0010
0100
1000
0001
0010
0001
1000
0000
0000
0000
,
0001
1000
0001
1000
0010
0100
0010
0100
0001
1000
0010
0100
0001
1000
0001
0100
,
0010
1000
0001
0010
0001
1000
0001
1000
0010
0100
0001
1000
0010
1000
0001
1000
,
0100
0010
0001
1000
0100
1000
0001
0010
0100
1000
0001
0010
0100
0010
0001
1000
,
0100
0010
0001
0010
0100
1000
0001
1000
0100
0010
0100
1000
0001
0000
0000
0000
,
1000
0010
1000
0010
0100
0001
0100
0001
1000
0010
1000
0010
0100
0001
0100
0001
,
1000
0100
1000
0100
0010
0001
0010
0001
1000
0100
1000
0100
0010
0001
0010
0001
,
1000
0000
0010
0100
0000
0100
0001
0000
,
1000
0100
0010
0001
1000
0001
0010
0100
1000
0100
0010
0001
1000
0000
0000
0000
,
0001
0000
0000
0000
;
