#TITLE:OVERBLAST!!;
#SUBTITLE:;
#ARTIST:L.E.D. LIGHT;
#TITLETRANSLIT:;
#SUBTITLETRANSLIT:;
#ARTISTTRANSLIT:;
#CREDIT:;
#BANNER:OVERBLAST!!.png;
#BACKGROUND:OVERBLAST!!-bg.png;
#LYRICSPATH:OVERBLAST!!.lrc;
#CDTITLE:./CDTITLES/BEATMANIA.PNG;
#MUSIC:OVERBLAST!!.mp3;
#OFFSET:-1.102;
#SAMPLESTART:26.540;
#SAMPLELENGTH:12.000;
#SELECTABLE:YES;
#DISPLAYBPM:147.000;
#BPMS:0.000=147.000;
#STOPS:;
#BGCHANGES:;
// cache tags:
#FIRSTBEAT:0.000;
#LASTBEAT:164.000;
#SONGFILENAME:Songs/IzzySM Keyboard Mega Pack/OVERBLAST!! (Oni Keyboard Edit)/OVERBLAST!!.sm;
#HASMUSIC:1;
#HASBANNER:1;
#MUSICLENGTH:70.870;
// end cache tags

//---------------dance-single - ----------------
#NOTES:
     dance-single:
     :
     Challenge:
     10:
     1.000,1.000,1.000,0.169,0.981,374.000,148.000,12.000,0.000,0.000:
1010
0000
0000
0011
0000
0000
1001
0000
0110
0000
0000
0011
0000
0000
1100
0000
,
0011
0000
0000
1001
0000
0000
0110
0000
0101
0000
1010
0000
0011
0011
0000
0000
,
1100
0000
0000
0110
0000
0000
0101
0000
1010
0000
0000
0101
0000
0000
1100
0000
,
0101
0000
2002
3003
0000
0220
0330
0000
0022
0033
0000
2200
3300
0000
0022
0033
,
1001
0000
0000
0101
0000
0000
1100
0000
0101
0000
0000
1001
0000
0000
0110
0000
,
0011
0000
0000
1100
0000
0000
0101
0000
1010
0000
0000
1001
0000
0000
0110
0000
,
1000
0100
0010
0001
0100
0010
1000
0010
0100
0001
0010
0100
1000
0010
0100
0001
,
0100
0010
1000
0100
0010
0001
0100
0010
1000
0010
0100
0001
0010
0100
1000
0010
,
0100
0000
0000
0000
0011
0000
1000
0100
0000
0100
0010
0000
0001
0100
0000
0000
,
1100
0000
0101
0000
1000
0100
0000
1001
0000
0000
0110
0000
0000
0000
0110
0000
,
1001
0000
0000
0000
0011
0000
1000
0100
0000
0100
0010
0000
0001
0100
0000
0000
,
1010
0000
0011
0000
1000
0100
0000
1010
0000
0000
0101
0000
0000
0000
0110
0000
,
1001
0100
0010
0001
1100
0010
0100
1000
,
0110
0001
0110
1000
0110
0001
0110
1000
,
0110
0001
1000
0001
0110
1000
0001
1000
0110
0001
1000
0001
0110
1000
0001
1000
,
1001
0000
0000
0000
0011
0000
1100
0000
0000
0000
1001
0000
0000
1100
0000
0000
,
0011
0000
1100
0000
0001
1000
0000
0110
0000
0001
1000
0000
0001
0010
0100
1000
,
0001
0000
0110
0000
0001
0100
0000
1010
0000
0001
1000
0000
0001
0010
0100
1000
,
0001
0000
1010
0000
0001
0010
0000
1100
0000
0001
1000
0000
0001
0010
0100
1000
,
0001
0000
1010
0000
0001
1000
0000
1001
0000
0000
1001
0000
0000
0110
0000
0000
,
0011
0000
0101
0000
1000
0100
0000
1010
0000
0001
0010
0100
1000
0000
0101
0000
,
1000
0100
0010
0100
1000
0001
0000
1010
0000
0010
0001
0000
1100
0000
1001
0000
,
1000
0100
0010
0001
1000
0100
0000
0011
0000
1000
0010
0100
0001
0000
0011
0000
,
1001
0000
0011
0000
1100
0000
0011
0110
,
1001
0000
1000
0100
0000
0100
0001
0000
0001
0010
0000
0010
1000
0000
0110
0000
,
1001
0000
0001
0010
0000
0010
1000
0000
1000
0100
0000
0100
0001
0000
0110
0000
,
1001
0000
1000
0010
0000
0010
0001
0000
0001
0100
0000
0100
1000
0000
0110
0000
,
1000
0100
0010
0001
0100
0010
1000
0010
0100
0001
0010
0100
1000
0010
0100
0001
,
1001
0000
0001
0100
0000
0100
1000
0000
1000
0010
0000
0010
0001
0000
0110
0000
,
1001
0000
0001
0010
0000
0010
1000
0000
1000
0100
0000
0100
0001
0000
0110
0000
,
1001
0000
1000
0100
0000
0100
0001
0000
0001
0010
0000
0010
1000
0000
0110
0000
,
0001
0010
0100
1000
0010
0100
0001
0100
0010
1000
0100
0010
0001
0100
0010
1000
,
1001
0000
0000
0110
0000
0000
0101
0000
0110
0000
0000
1010
0000
0000
1100
0000
,
0000
0000
0011
0000
0000
1001
0000
0000
0110
0011
0000
0110
0000
0000
1001
0000
,
0110
0000
0000
0011
0000
0000
1010
0000
1100
0000
0000
0011
0000
0000
1010
0000
,
0000
0000
0110
0000
0000
1001
0000
0000
0110
1010
0000
0011
0000
0000
0110
0000
,
1001
0010
0100
1000
0011
0100
0010
0001
,
0110
1000
0110
0001
0110
1000
0110
0001
,
0110
1000
0001
1000
0110
0001
1000
0001
0110
1000
0001
1000
0110
0001
1000
0001
,
1001
0110
1001
0110
1100
0101
0110
1010
,
2002
0000
3003
0000
0000
0000
0000
0000
0000
0000
1100
0000
0000
0011
0000
0000
,
1001
0000
0000
0000
;
