#TITLE:Subterranean Kamikaze;
#SUBTITLE:TMNT IV (1991);
#ARTIST:Sixto Sounds & zircon;
#TITLETRANSLIT:;
#SUBTITLETRANSLIT:;
#ARTISTTRANSLIT:;
#CREDIT:;
#BANNER:ter-bn.png;
#BACKGROUND:ter-bg.png;
#LYRICSPATH:;
#CDTITLE:!cdtitle.png;
#MUSIC:kamikaz.ogg;
#OFFSET:0.280;
#SAMPLESTART:15.380;
#SAMPLELENGTH:15.000;
#SELECTABLE:YES;
#BPMS:0.000=183.000;
#STOPS:;
#BGCHANGES:;
// cache tags:
#FIRSTBEAT:4.000;
#LASTBEAT:356.750;
#SONGFILENAME:Songs/Astronomic Metal Collection 2/(Kommisar vs. MacGravel) Subterranean Kamikaze/Subterranean Kamikaze.sm;
#HASMUSIC:1;
#HASBANNER:1;
#MUSICLENGTH:117.884;
// end cache tags

//---------------dance-single - ----------------
#NOTES:
     dance-single:
     :
     Medium:
     10:
     0.916,1.000,0.424,0.611,0.632,634.000,50.000,72.000,0.000,0.000:
0000
0000
0000
0000
,
0002
0003
0000
0000
1001
0000
0000
0000
1000
0000
0100
0000
0010
0000
0011
0000
,
0000
0000
1000
0000
1001
0000
0000
0000
1000
0100
0010
0000
0001
0010
0100
0000
,
1010
1000
0001
0100
0010
1000
0000
1002
,
0003
0010
0100
1000
0010
0100
0001
1001
,
1000
0010
0100
0000
0101
0100
0010
1000
,
0000
0000
0001
0000
0011
0000
0001
0000
1000
0100
0010
0000
0001
0010
0100
0000
,
1000
0010
1010
0000
0001
0001
1000
1002
,
0000
0000
0000
0000
0000
0000
0000
0000
0000
0000
0000
0000
0000
0000
0000
0000
0000
0000
0000
0000
0000
0000
0000
0000
0000
0000
0000
0000
0000
0000
0000
0000
0000
0000
0000
0000
0003
0000
0000
0000
0000
0000
0000
0000
0000
0000
0000
0000
0002
0000
0000
0000
0000
0000
0000
0000
0000
0000
0000
0000
0000
0000
0000
0000
0000
0000
0000
0000
0000
0000
0000
0000
0000
0000
0000
0000
0000
0000
0000
0000
0000
0000
0000
0000
0000
0000
0000
0000
0000
0000
0000
0000
0000
0000
0000
0000
0000
0000
0000
0000
0000
0000
0000
0000
0000
0000
0000
0000
0000
0000
0000
0000
0000
0000
0000
0000
0000
0000
0000
0000
0000
0000
0000
0000
0000
0000
0000
0000
0000
0000
0000
0000
0000
0000
0000
0000
0003
0000
0000
0000
0000
0000
0000
0000
0000
0000
0000
0000
0000
0000
0002
0000
0000
0000
0000
0000
0000
0000
0000
0000
0000
0000
0000
0000
0000
0000
0000
0000
0000
0000
0000
0000
0000
0000
0000
0000
0000
0000
0000
0000
0000
0000
0000
0000
0000
0000
0000
0000
0000
0000
0000
0000
,
0000
0000
0000
0000
0000
0000
0000
0000
0000
0000
0000
0000
0003
0000
0000
0000
0002
0000
0000
0000
0000
0000
0000
0000
0000
0000
0000
0000
0003
0000
0000
0000
0010
0000
0000
0000
0000
0000
0000
0000
0010
0000
0000
0000
0000
0000
0000
0000
0000
0100
0000
0000
0000
0000
0000
0000
1000
0000
0000
0000
0000
0000
0000
0000
,
0000
0001
0011
0000
1000
0100
0010
0001
,
2000
0000
0000
0000
0001
0000
0000
0000
0001
0000
0010
0000
0001
0000
0010
3000
,
1000
0100
0010
0001
1000
0000
0010
0000
0100
0001
1000
0010
0100
0000
0001
0000
,
0010
0100
1000
0001
0020
0000
0000
0000
0000
0000
0000
0030
0001
0000
2000
0000
,
0000
0000
0000
0000
0000
3000
0100
0010
0001
0010
0100
1000
0001
0100
0001
0010
,
0100
1000
0001
0100
0001
1000
0100
0010
0001
0100
0001
0010
0100
0000
2000
0000
,
0000
3000
0000
0000
0000
0000
0100
0000
0010
0000
0100
0000
1000
0000
0020
0000
,
0000
0030
0100
0000
0001
0000
1000
0000
0100
0000
0010
0000
0001
0000
2000
0000
,
0000
3000
0010
0000
0100
0000
0010
0000
1000
0000
0100
0000
0010
0000
0002
0000
,
0000
0000
0000
0003
0000
0000
1000
0000
0000
0000
0000
0000
0010
0000
0000
0000
0000
0000
0100
0000
0000
0000
0000
0000
0010
0000
0000
0000
0000
0000
1000
0000
0000
0000
0000
0000
0000
0000
0100
0000
0000
0000
0000
0000
0000
0000
0020
0000
,
0000
0000
0000
0000
0000
0000
0000
0000
0000
0000
0000
0030
0001
0000
0002
0000
,
0000
0000
0000
0000
0000
0000
0003
2000
,
0000
0000
0000
0000
0000
0000
0000
0000
0000
0000
0000
0000
0000
0000
0000
0000
3000
0000
0000
0000
0000
0000
0100
0000
0000
0000
0000
0010
0000
0000
0000
0001
0000
0000
0000
0010
0000
0000
0000
0100
0000
0000
0000
1000
0000
0000
0000
0000
0001
0000
0000
0000
0010
0000
0000
0000
0100
0000
0000
0000
0000
1000
0000
0000
,
0001
0000
0000
0000
0000
0000
0000
0000
0000
0010
0000
0000
0000
0000
0000
0000
0000
0000
0000
0000
0000
0100
0000
0000
0000
0000
0000
0000
0000
0000
0000
0000
0000
1000
0000
0000
0000
0000
0000
0000
0000
0000
0000
0000
0000
0000
0000
0000
0001
0000
0000
0000
0000
0000
0000
0000
0010
0000
0000
0000
0000
0000
0000
0000
0100
0000
0000
0000
0000
0000
0000
0000
1000
0000
0000
0000
0000
0000
0000
0000
0000
0000
0000
0000
0000
0000
0000
0000
0000
0000
0000
0000
0001
0000
0000
0000
0000
0000
0000
0000
0000
0000
0000
0000
0100
0000
0000
0000
0000
0000
0000
0000
0000
0000
0000
0000
0000
0000
0000
0000
0000
0000
0000
0000
0010
0000
0000
0000
0000
0000
0000
0000
1000
0000
0000
0000
0000
0000
0000
0000
0000
0000
0000
0000
0000
0000
0000
0000
0000
0000
0000
0000
0000
0000
0000
0000
0000
0000
0000
0000
0000
0000
0000
0000
0000
0000
0000
0000
0002
0000
0000
0000
0000
0000
0000
0000
0000
0000
0000
0000
0000
0000
0000
0000
0000
0000
0000
0000
0000
0000
0000
0000
,
0000
0003
0010
0000
0100
0000
0010
0000
0001
0000
0010
0000
0100
0000
1000
0000
,
0010
0000
0100
0000
0001
0000
2000
0000
0000
3000
0010
0000
0100
0000
0002
0000
,
0000
0000
0000
0000
0003
0000
1000
0000
0000
0000
0001
0000
0000
0000
0000
0000
0010
0000
0000
0000
0100
0000
0000
0000
1000
0000
0000
0000
0000
0000
0100
0000
0000
0010
0000
0000
0000
0000
0001
0000
0000
0000
0000
0010
0000
0000
0000
0000
0100
0000
0000
1000
0000
0000
0000
0100
0000
0000
0000
0010
0000
0000
0000
0000
,
0000
0001
0000
0000
0000
0000
0100
0000
0000
0000
0000
0000
0000
0000
0000
0000
0010
0000
0000
0100
0000
0000
0000
0000
0001
0000
0000
0000
0000
0000
0000
0000
1000
0000
0000
0000
0010
0000
0000
0000
0100
0000
0000
0000
0001
0000
0000
0000
0000
0000
0000
0000
0000
0000
0000
0000
2000
0000
0000
0000
0000
0000
0000
0000
,
0000
3000
1000
0000
0010
0000
1000
0000
0100
0000
0010
0000
0001
0000
0200
0000
,
0000
0300
0010
0000
1000
0000
0010
0000
0100
0000
0001
0000
0010
0000
0200
0000
,
0000
0300
1000
0000
0001
0000
1000
0000
0010
0000
0100
0000
0001
0000
0100
0000
,
0010
0000
1000
0100
0010
0000
0002
0000
0000
0003
0200
0000
0300
0200
0000
0000
,
0000
0300
0001
0000
1000
0000
0001
0000
0010
0000
0100
0000
1000
0000
0020
0000
,
0000
0030
0100
0000
0001
0000
0100
0000
0010
0000
1000
0000
0100
0000
0020
0000
,
0000
0030
0001
0000
1000
0000
0001
0000
0100
0000
0010
0000
1000
0000
0100
0000
,
0020
0000
0000
0000
0031
0000
0000
0000
1000
0001
1000
0001
1000
0001
1000
0001
,
1000
0000
1002
0000
0000
1003
0101
0000
,
0110
0100
1010
0000
1001
1000
0101
0002
,
0000
0000
0000
0000
1003
0100
0010
0001
1000
0010
0100
0001
0100
0010
1000
0001
,
0010
0100
1000
0001
0100
0001
1000
0010
1000
0000
0010
0000
0200
0300
0200
0000
,
0000
0301
1020
0000
1000
1030
0110
0000
,
0101
0100
1001
0000
1010
1000
0110
1010
,
0000
0000
0002
0003
0020
0030
0200
0300
2000
3000
0020
0030
0200
0300
0002
0003
,
1000
0100
1000
0100
0010
0001
0010
0001
1000
0100
0010
0001
1000
0100
0010
0001
,
1000
0100
0000
0100
1000
0000
1000
0020
,
0000
0000
0000
0000
0100
0000
0000
0030
0100
0001
0100
0000
0001
0100
0001
0000
,
1000
1000
1001
0000
0010
0010
1010
2000
,
0000
0001
0001
0000
0000
0010
0000
3010
,
1000
0100
0000
0100
0010
0000
0010
0002
,
0000
0000
0000
0000
1000
0000
0000
0003
1000
0100
1000
0000
0100
1000
0100
0000
,
0010
0010
0011
0000
0001
0001
0101
0200
,
0000
0000
0000
0000
0010
0000
0000
0300
0010
0100
0010
0100
0001
0010
0100
1000
,
0002
0003
0000
0000
1001
0000
0000
0000
1000
0000
0100
0000
0010
0000
0011
0000
,
0000
0000
1000
0000
1001
0000
0000
0000
1000
0100
0010
0000
0001
0010
0100
0000
,
1010
1000
0001
0100
0010
1000
0000
1002
,
0003
0010
0100
1000
0010
0100
0001
1001
,
1000
0010
0100
0000
0101
0100
0010
1000
,
0000
0000
0001
0000
0011
0000
0001
0000
1000
0100
0010
0000
0001
0010
0100
0000
,
1000
0010
1010
0000
0001
0001
1000
1002
,
0000
0000
0000
0000
0000
0000
0000
0000
0000
0000
0000
0000
0000
0000
0000
0000
0000
0000
0000
0000
0000
0000
0000
0000
0000
0000
0000
0000
0000
0000
0000
0000
0000
0000
0000
0000
0003
0000
0000
0000
0000
0000
0000
0000
0000
0000
0000
0000
0002
0000
0000
0000
0000
0000
0000
0000
0000
0000
0000
0000
0000
0000
0000
0000
0000
0000
0000
0000
0000
0000
0000
0000
0000
0000
0000
0000
0000
0000
0000
0000
0000
0000
0000
0000
0000
0000
0000
0000
0000
0000
0000
0000
0000
0000
0000
0000
0000
0000
0000
0000
0000
0000
0000
0000
0000
0000
0000
0000
0000
0000
0000
0000
0000
0000
0000
0000
0000
0000
0000
0000
0000
0000
0000
0000
0000
0000
0000
0000
0000
0000
0000
0000
0000
0000
0000
0000
0003
0000
0000
0000
0000
0000
0000
0000
0000
0000
0000
0000
0000
0000
0002
0000
0000
0000
0000
0000
0000
0000
0000
0000
0000
0000
0000
0000
0000
0000
0000
0000
0000
0000
0000
0000
0000
0000
0000
0000
0000
0000
0000
0000
0000
0000
0000
0000
0000
0000
0000
0000
0000
0000
0000
0000
,
0000
0000
0000
0000
0000
0000
0000
0000
0000
0000
0000
0000
0003
0000
0000
0000
0002
0000
0000
0000
0000
0000
0000
0000
0000
0000
0000
0000
0003
0000
0000
0000
0010
0000
0000
0000
0000
0000
0000
0000
0010
0000
0000
0000
0000
0000
0000
0000
0000
0100
0000
0000
0000
0000
0000
0000
1000
0000
0000
0000
0000
0000
0000
0000
,
0000
0001
0011
0000
1000
0100
0010
0001
,
2000
0000
0000
0000
0001
0000
0000
0000
0001
0000
0010
0000
0001
3000
0020
0000
,
0000
0000
0000
0000
0000
0000
0000
0000
0000
0030
1000
0000
0001
0000
0021
0000
,
0000
0000
0000
0000
0000
0000
0000
0030
,
2100
0000
0000
0000
0000
3001
0010
1100
,
0000
0100
0020
0000
0000
0000
0000
0000
,
0001
0000
0000
0000
0030
0000
0001
2010
,
0000
0000
0000
0000
0000
0000
0000
3000
,
0102
0000
0000
0000
1003
0100
0010
1002
,
0000
0000
0000
0000
,
1003
0000
0000
0000
0000
0000
0000
0000
0000
0000
0000
0000
1001
0000
0000
0000
0000
0000
0001
0000
0000
0000
0000
0000
0010
0000
0000
0000
0000
0000
0100
0000
0000
0000
0000
0000
1000
0000
0000
0000
0000
0000
0020
0000
0000
0030
1000
0000
,
0000
0000
0000
0000
0000
0000
0000
0000
0001
0000
0000
0000
0000
0000
0000
0000
0000
0000
0000
0000
0000
0000
0000
0000
0010
0000
0000
0000
0000
0000
0000
0000
0000
0000
0000
0000
0000
0000
0000
0000
0100
0000
0000
0000
0000
0000
0000
0000
0000
0000
0000
0000
0000
0000
0000
0000
0000
0000
0000
0000
0000
0000
0000
0000
0000
0000
0000
0000
0000
2000
0000
0000
0000
0000
0000
0000
0000
0000
0000
0000
0000
0000
0000
0000
0000
0000
0000
0000
0000
0000
0000
0000
0000
0000
0000
0000
0000
0000
0000
0000
0000
0000
0000
0000
0000
0000
0000
0000
0000
0000
0000
0000
0000
0000
0000
0000
0000
0000
0000
0000
0000
0000
0000
0000
0000
0000
0000
0000
0000
3000
0000
0000
0000
0000
0000
0000
0000
0000
0000
0000
0000
0000
0000
0000
0001
0000
0000
0000
0000
0000
0000
0000
0000
0000
0000
0000
0000
0000
0000
0000
0000
0000
0000
0000
0000
0000
0000
0000
0100
0000
0000
0000
0000
0000
0000
0000
0000
0000
0000
0000
0000
0000
0000
0000
0000
0000
0000
0000
0000
0000
0000
0000
,
0020
0000
0000
0000
0000
0000
0000
0000
0000
0000
0000
0000
0000
0000
0000
0000
0030
0000
0000
0000
0000
0000
0000
0000
0000
0000
0000
0000
0000
0000
1000
0000
0000
0000
0000
0000
0000
0000
0000
0000
0000
0000
0000
0000
0000
0000
0000
0000
0020
0000
0000
0000
0000
0000
0000
0000
0000
0000
0000
0000
0030
0000
0000
0000
0000
0000
0000
0000
0000
0000
0000
0000
0000
0000
0000
0000
0000
0000
1000
0000
0000
0000
0000
0000
0000
0000
0000
0000
0000
0000
0000
0000
0000
0000
0000
0000
0002
0000
0000
0000
0000
0000
0000
0000
0000
0000
0000
0000
0003
0000
0000
0000
0000
0000
0000
0000
0000
0000
0000
0000
0000
0000
0000
0000
0000
0000
0100
0000
0000
0000
0000
0000
0000
0000
0000
0000
0000
0000
0000
0000
0000
0000
0000
0000
0002
0000
0000
0000
0000
0000
0000
0000
0000
0000
0000
0000
0003
0000
0000
0000
0000
0000
0000
0000
0000
0000
0000
0000
2000
0000
0000
0000
0000
0000
0000
0000
0000
0000
0000
0000
0000
0000
0000
0000
0000
0000
0000
0000
0000
0000
0000
0000
,
0000
0000
0000
0000
3000
0000
0200
0000
0000
0000
0000
0300
0000
0000
0000
0000
,
0010
0001
0011
1000
0001
0100
0010
2010
,
0000
0000
3000
0000
0001
0000
0000
0000
0100
0000
0000
0000
0020
0000
0000
0000
0000
0000
0000
0000
1030
0000
0000
0000
1001
0000
0000
0000
1000
0000
0000
0001
,
0000
0000
0000
0000
0000
0000
0000
0010
0000
0000
0000
0000
0100
0000
0000
0000
1000
0000
0000
0000
0000
0000
0000
0100
0000
0000
0000
0000
0000
0010
0000
0000
0000
0000
0000
0000
0000
0000
0100
0000
0000
0000
0000
0000
0000
0000
0000
0000
1000
0000
0000
0000
0000
0000
0000
0000
1100
0000
0000
0000
0000
0000
0000
0000
,
0001
0001
0001
0001
0001
0001
0001
0001
,
0001
0000
0000
0000
0000
0000
0000
1000
0000
0000
0000
0000
0000
0000
0000
0010
0000
0000
0000
0000
0000
0000
0000
1000
0000
0000
0000
0000
0000
0000
0000
0100
0000
0000
0000
0000
0000
0000
0000
0010
0000
0000
0000
0000
0000
0000
0000
0002
0000
0000
0000
0000
0000
0000
0000
0000
0000
0000
0000
0000
0003
1000
0000
0000
,
0000
0000
0100
0000
0010
0000
0001
0000
0100
0000
0001
0000
1000
0000
0100
0010
,
0001
0010
0100
1000
0001
0010
0001
0010
0100
1000
0001
0010
0001
0010
0100
1000
,
0001
0010
0001
0100
0001
0010
0100
1000
0001
0010
0001
0100
0001
0010
0100
1000
,
0001
0010
0001
0100
0001
0010
0100
1000
0001
0010
0001
0100
0001
0010
0100
1000
,
0001
0000
0000
0010
0000
0000
0001
0000
0000
0100
0000
0000
0001
0000
0000
1000
0000
0000
0020
0000
0000
0000
0000
0000
0000
0000
0000
1030
0000
0000
0100
0000
0000
0010
0000
0000
0001
0000
0000
0000
1000
0000
0000
0000
0010
0000
0000
0000
,
0000
1000
0010
0100
0001
0000
1000
0000
0100
0000
0010
0000
0002
0000
0000
0003
,
1000
0001
0010
0100
0010
0100
1000
0001
,
0010
0100
0010
0100
1000
0010
0100
0001
,
1000
0100
0010
0001
1000
0100
0010
0002
,
0000
0000
0000
0003
0000
0000
0000
0000
0000
0000
0000
0000
0000
0000
0000
0000
;

//---------------dance-single - ----------------
#NOTES:
     dance-single:
     :
     Hard:
     10:
     1.000,1.000,1.000,0.696,0.632,674.000,194.000,82.000,0.000,18.000:
0000
0000
0000
0000
,
0012
0003
0100
0000
1001
0000
0000
0000
1010
0000
0100
0000
1001
0000
0012
0003
,
0000
0000
1000
0000
1001
0000
0000
0000
1000
0100
0010
0000
1001
0010
0100
0000
,
1010
1000
0011
0100
0010
1000
0011
1002
,
0003
0010
0101
1000
0011
1100
0001
1001
,
2100
3000
0010
0000
0101
0000
0000
0000
1100
0000
0100
0000
0011
0000
1000
0000
,
0000
0000
0001
0000
0011
0000
0001
0000
1000
0100
0010
0000
1001
0010
0100
0000
,
1001
0010
1010
0000
0011
0001
1100
1012
,
0000
0000
0000
0000
0000
0000
0000
0000
0000
0000
0000
0000
0000
0000
0000
0000
0000
0000
0000
0000
0000
0000
0000
0000
1000
0000
0000
0000
0000
0000
0000
0000
0000
0000
0000
0000
0003
0000
0000
0000
0000
0000
0000
0000
0000
0000
0000
0000
0012
0000
0000
0000
0000
0000
0000
0000
0000
0000
0000
0000
0000
0000
0000
0000
0000
0000
0000
0000
0000
0000
0000
0000
0000
0000
0000
0000
0000
0000
0000
0000
0000
0000
0000
0000
0000
0000
0000
0000
0000
0000
0000
0000
0000
0000
0000
0000
1000
0000
0000
0000
0000
0000
0000
0000
0000
0000
0000
0000
0000
0000
0000
0000
0000
0000
0000
0000
0000
0000
0000
0000
1000
0000
0000
0000
0000
0000
0000
0000
0000
0000
0000
0000
0000
0000
0000
0000
0003
0000
0000
0000
0000
0000
0000
0000
0010
0000
0000
0000
0000
0000
0002
0000
0000
0000
0000
0000
0000
0000
0000
0000
0000
0000
0000
0000
0000
0000
0000
0000
0000
0000
0000
0000
0000
0000
0000
0000
0000
0000
0000
0000
0000
0000
0000
0000
0000
0000
0000
0000
0000
0000
0000
0000
,
1000
0000
0000
0000
0000
0000
0000
0000
1000
0000
0000
0000
0003
0000
0000
0000
0012
0000
0000
0000
0000
0000
0000
0000
0000
0000
0000
0000
0003
0000
0000
0000
0010
0000
0000
0000
0000
0000
0000
0000
0011
0000
0000
0000
0000
0000
0000
0000
0000
0100
0000
0000
0000
0000
0000
0000
1010
0000
0000
0000
0000
0000
0000
0000
,
0000
0001
0011
0000
1000
0100
0011
0001
,
2100
0000
0000
0000
0001
0000
0000
0000
0001
0000
0010
0000
0100
0000
0001
3000
,
1001
0100
0010
0001
1100
0000
0010
0000
0100
0001
1000
0010
1100
0000
0001
0000
,
0010
0100
1000
0001
0120
0000
0000
0000
1000
0000
0000
0030
0011
0000
2000
0000
,
0000
0000
0100
0000
0011
3000
0100
0010
0001
0010
0100
1000
0011
0100
0001
0010
,
0100
1000
0001
0100
0011
1000
0100
0010
0001
0100
0001
0010
1100
0000
2000
0000
,
0000
3000
0010
0000
1001
0000
0100
0000
0010
0000
0100
0000
1001
0000
0020
0000
,
0000
0030
0100
0000
0011
0000
1000
0000
0100
0000
0010
0000
0101
0000
2000
0000
,
0000
3000
0010
0000
1100
0000
0010
0000
1000
0000
0100
0000
1010
0000
0002
0000
,
0000
0000
0000
0003
0000
0000
1000
0000
0000
0000
0000
0000
0011
0000
0000
0000
0000
0000
0100
0000
0000
0000
0000
0000
0010
0000
0000
0000
0000
0000
1000
0000
0000
0000
0000
0000
0000
0000
0100
0000
0000
0000
0000
0000
0000
0000
0020
0000
,
0000
0000
0000
0000
1000
0000
0000
0000
0000
0000
0000
0030
0101
0000
0012
0000
,
0000
0000
1000
0000
0000
0000
0013
2000
,
0000
0000
0000
0000
0000
0000
0000
0000
0000
0000
0000
0000
0000
0000
0000
0000
3001
0000
0000
0000
0000
0000
0100
0000
0000
0000
0000
0010
0000
0000
0000
0001
0000
0000
0000
0010
0000
0000
0000
0100
0000
0000
0000
1000
0000
0000
0000
0000
0001
0000
0000
0000
0010
0000
0000
0000
0100
0000
0000
0000
0000
0010
0000
0000
,
0001
0000
0000
0000
0000
0000
0000
0000
0000
0010
0000
0000
0000
0000
0000
0000
0000
0000
0000
0000
0000
0100
0000
0000
0000
0000
0000
0000
0000
0000
0000
0000
0000
0010
0000
0000
0000
0000
0000
0000
0000
0000
0000
0000
0000
0000
0000
0000
0100
0000
0000
0000
0000
0000
0000
0000
1000
0000
0000
0000
0000
0000
0000
0000
0100
0000
0000
0000
0000
0000
0000
0000
0010
0000
0000
0000
0000
0000
0000
0000
0000
0000
0000
0000
0000
0000
0000
0000
0000
0000
0000
0000
0001
0000
0000
0000
0000
0000
0000
0000
0000
0000
0000
0000
0100
0000
0000
0000
0000
0000
0000
0000
0000
0000
0000
0000
0000
0000
0000
0000
0000
0000
0000
0000
0010
0000
0000
0000
0000
0000
0000
0000
1000
0000
0000
0000
0000
0000
0000
0000
0000
0000
0000
0000
0101
0000
0000
0000
0000
0000
0000
0000
0000
0000
0000
0000
0000
0000
0000
0000
0000
0000
0000
0000
0000
0000
0000
0000
0012
0000
0000
0000
0000
0000
0000
0000
0000
0000
0000
0000
0000
0000
0000
0000
0000
0000
0000
0000
0000
0000
0000
0000
,
0000
0003
0010
0000
1100
0000
0010
0000
0001
0000
0010
0000
0101
0000
1000
0000
,
0010
0000
0100
0000
0011
0000
2000
0000
0000
3000
0010
0000
1100
0000
0002
0000
,
0000
0000
0000
0000
0003
0000
1000
0000
0000
0000
0001
0000
0000
0000
0000
0000
0010
0000
0000
0000
0100
0000
0000
0000
1000
0000
0000
0000
0000
0000
0100
0000
0000
0010
0000
0000
0000
0000
0001
0000
0000
0000
0000
0010
0000
0000
0000
0000
0100
0000
0000
1000
0000
0000
0000
0100
0000
0000
0000
0010
0000
0000
0000
0000
,
0000
0001
0000
0000
0000
0000
0100
0000
0000
0000
0000
0000
0000
0000
0000
0000
0010
0000
0000
0100
0000
0000
0000
0000
0001
0000
0000
0000
0000
0000
0000
0000
1000
0000
0000
0000
0010
0000
0000
0000
0100
0000
0000
0000
0001
0000
0000
0000
1010
0000
0000
0000
0000
0000
0000
0000
2100
0000
0000
0000
0000
0000
0000
0000
,
0000
3000
1000
0000
0011
0000
1000
0000
0100
0000
0010
0000
1001
0000
0200
0000
,
0000
0300
0010
0000
1100
0000
0010
0000
0100
0000
0001
0000
1010
0000
1201
0000
,
0000
0300
1000
0000
0011
0000
1000
0000
0010
0000
0100
0000
1001
0000
0100
0000
,
0010
0000
1000
0100
0011
0000
0002
0000
0000
0003
0200
0000
0301
0200
0000
0000
,
0000
0300
0001
0000
1100
0000
0001
0000
0010
0000
0100
0000
1001
0000
0020
0000
,
0000
0030
0100
0000
0011
0000
0100
0000
0010
0000
1000
0000
0101
0000
0020
0000
,
0000
0030
0001
0000
1100
0000
0010
0000
0101
0000
0010
0000
1001
0000
0100
0000
,
1020
0000
0100
0000
1031
0000
0100
0000
1000
0001
1000
0001
1000
0001
1000
0001
,
1000
0000
2012
3000
0000
1003
0101
0000
,
0110
0100
1010
0000
1001
1000
0101
0002
,
0000
0000
0000
0000
1003
0100
0010
0001
1000
0010
0100
0001
0100
0010
1000
0001
,
0010
0100
1000
0001
0100
0001
1000
0010
1000
0000
0010
0000
0201
0300
0200
0000
,
0000
1300
0122
0003
1000
1030
0110
0000
,
0101
0100
1001
0000
1010
1000
0110
1011
,
0000
0000
0002
0003
0020
0030
0200
0300
2000
3000
0020
0030
0200
0300
0002
0003
,
1000
0100
1000
0100
0010
0001
0010
0001
1000
0100
0010
0001
1000
0100
0010
0001
,
1010
0100
0011
0100
1000
0001
1100
0021
,
0000
0000
1000
0000
0101
0000
0000
0030
0100
0001
0100
0000
0011
0100
0001
0000
,
1000
1000
1001
0000
0010
0010
1010
2001
,
0000
0001
0011
0000
0100
0011
0100
3011
,
1000
0100
0011
0100
0010
0100
1010
0012
,
0000
0000
0100
0000
1010
0000
0000
0003
1000
0100
1000
0000
0101
1000
0100
0000
,
0010
0010
0011
0000
0001
0001
0101
1200
,
0000
0000
0001
0000
1010
0000
0000
0300
0010
0100
0010
0100
0001
0010
0100
1000
,
0012
0003
0100
0000
1001
0000
0000
0000
1010
0000
0100
0000
0011
0000
2010
3000
,
0000
0000
1000
0000
1001
0000
0000
0000
1000
0100
0010
0000
1001
0010
0200
0300
,
1010
1000
0011
0100
0010
1100
0011
1002
,
0003
0010
0101
1000
0010
1100
0001
1001
,
0102
0003
0010
0000
0101
0000
0000
0000
1100
0000
0100
0000
0011
0000
2000
3000
,
0000
0000
0001
0000
0011
0000
0001
0000
1000
0100
0010
0000
1001
0010
0200
0300
,
1000
1000
0110
0000
0011
0101
1010
1102
,
0000
0000
0000
0000
0000
0000
0000
0000
0000
0000
0000
0000
0000
0000
0000
0000
0000
0000
0000
0000
0000
0000
0000
0000
1000
0000
0000
0000
0000
0000
0000
0000
0000
0000
0000
0000
0003
0000
0000
0000
0000
0000
0000
0000
0000
0000
0000
0000
0012
0000
0000
0000
0000
0000
0000
0000
0000
0000
0000
0000
0000
0000
0000
0000
0000
0000
0000
0000
0000
0000
0000
0000
0000
0000
0000
0000
0000
0000
0000
0000
0000
0000
0000
0000
0000
0000
0000
0000
0000
0000
0000
0000
0000
0000
0000
0000
1000
0000
0000
0000
0000
0000
0000
0000
0000
0000
0000
0000
0000
0000
0000
0000
0000
0000
0000
0000
0000
0000
0000
0000
1000
0000
0000
0000
0000
0000
0000
0000
0000
0000
0000
0000
0000
0000
0000
0000
0003
0000
0000
0000
0000
0000
0000
0000
0010
0000
0000
0000
0000
0000
0002
0000
0000
0000
0000
0000
0000
0000
0000
0000
0000
0000
0000
0000
0000
0000
0000
0000
0000
0000
0000
0000
0000
0000
0000
0000
0000
0000
0000
0000
0000
0000
0000
0000
0000
0000
0000
0000
0000
0000
0000
0000
,
1000
0000
0000
0000
0000
0000
0000
0000
1000
0000
0000
0000
0003
0000
0000
0000
0012
0000
0000
0000
0000
0000
0000
0000
0000
0000
0000
0000
0003
0000
0000
0000
0010
0000
0000
0000
0000
0000
0000
0000
0011
0000
0000
0000
0000
0000
0000
0000
0000
0100
0000
0000
0000
0000
0000
0000
1001
0000
0000
0000
0000
0000
0000
0000
,
0000
0001
0011
0000
1000
1000
0110
0001
,
2100
0000
0000
0000
0011
0000
0100
0000
0011
0000
0100
0000
0001
3000
1021
0000
,
0000
0000
0000
0000
0000
0000
0000
0000
0000
0030
1000
0000
0001
0000
0021
0000
,
0000
0000
0000
0000
0000
0000
0000
0030
,
2100
0000
0000
0000
0000
3001
0010
1100
,
0000
0100
0020
0000
0000
0000
0000
0000
,
0001
0000
0000
0000
0030
0000
0001
2010
,
0000
0000
0000
0000
0000
0000
0000
3000
,
0102
0000
0000
0000
1003
0100
0010
1002
,
0000
0000
0000
0000
,
1003
0000
0000
0000
0000
0000
0000
0000
0000
0000
0000
0000
1001
0000
0000
0000
0000
0000
0001
0000
0000
0000
0000
0000
0010
0000
0000
0000
0000
0000
0100
0000
0000
0000
0000
0000
1000
0000
0000
0000
0000
0000
0020
0000
0000
0030
1000
0000
,
0000
0000
0000
0000
0000
0000
0000
0000
0001
0000
0000
0000
0000
0000
0000
0000
0000
0000
0000
0000
0000
0000
0000
0000
0010
0000
0000
0000
0000
0000
0000
0000
0000
0000
0000
0000
0000
0000
0000
0000
0100
0000
0000
0000
0000
0000
0000
0000
0000
0000
0000
0000
0000
0000
0000
0000
0000
0000
0000
0000
0000
0000
0000
0000
0000
0000
0000
0000
0000
2000
0000
0000
0000
0000
0000
0000
0000
0000
0000
0000
0000
0000
0000
0000
0000
0000
0000
0000
0000
0000
0000
0000
0000
0000
0000
0000
0000
0000
0000
0000
0000
0000
0000
0000
0000
0000
0000
0000
0000
0000
0000
0000
0000
0000
0000
0000
0000
0000
0000
0000
0000
0000
0000
0000
0000
0000
0000
0000
0000
3000
0000
0000
0000
0000
0000
0000
0000
0000
0000
0000
0000
0000
0000
0000
0001
0000
0000
0000
0000
0000
0000
0000
0000
0000
0000
0000
0000
0000
0000
0000
0000
0000
0000
0000
0000
0000
0000
0000
0100
0000
0000
0000
0000
0000
0000
0000
0000
0000
0000
0000
0000
0000
0000
0000
0000
0000
0000
0000
0000
0000
0000
0000
,
0020
0000
0000
0000
0000
0000
0000
0000
0000
0000
0000
0000
0000
0000
0000
0000
0030
0000
0000
0000
0000
0000
0000
0000
0000
0000
0000
0000
0000
0000
1000
0000
0000
0000
0000
0000
0000
0000
0000
0000
0000
0000
0000
0000
0000
0000
0000
0000
0020
0000
0000
0000
0000
0000
0000
0000
0000
0000
0000
0000
0030
0000
0000
0000
0000
0000
0000
0000
0000
0000
0000
0000
0000
0000
0000
0000
0000
0000
1000
0000
0000
0000
0000
0000
0000
0000
0000
0000
0000
0000
0000
0000
0000
0000
0000
0000
0002
0000
0000
0000
0000
0000
0000
0000
0000
0000
0000
0000
0003
0000
0000
0000
0000
0000
0000
0000
0000
0000
0000
0000
0000
0000
0000
0000
0000
0000
0100
0000
0000
0000
0000
0000
0000
0000
0000
0000
0000
0000
0000
0000
0000
0000
0000
0000
0002
0000
0000
0000
0000
0000
0000
0000
0000
0000
0000
0000
0003
0000
0000
0000
0000
0000
0000
0000
0000
0000
0000
0000
2000
0000
0000
0000
0000
0000
0000
0000
0000
0000
0000
0000
0000
0000
0000
0000
0000
0000
0000
0000
0000
0000
0000
0000
,
0000
0000
0000
0000
3000
0000
0200
0000
0000
0000
0000
0300
0000
0000
0000
0000
,
0010
0001
0011
1000
0001
0100
0011
2010
,
0000
0000
3000
0000
0001
0000
0000
0000
1100
0000
0000
0000
0021
0000
0000
0000
0000
0000
0000
0000
1030
0000
0000
0000
1001
0000
0000
0000
1000
0000
0000
0001
,
0000
0000
0000
0000
0000
0000
0000
0010
0000
0000
0000
0000
0100
0000
0000
0000
1001
0000
0000
0000
0000
0000
0000
0100
0000
0000
0000
0000
0000
0010
0000
0000
0000
0000
0000
0000
0000
0000
0100
0000
0000
0000
0000
0000
0000
0000
0000
0000
1001
0000
0000
0000
0000
0000
0000
0000
1100
0000
0000
0000
0000
0000
0000
0000
,
0001
0001
0001
0001
0001
0001
0001
0001
,
0001
0000
0000
0000
0000
0000
0000
1000
0000
0000
0000
0000
0000
0000
0000
0011
0000
0000
0000
0000
0000
0000
0000
1000
0000
0000
0000
0000
0000
0000
0000
0100
0000
0000
0000
0000
0000
0000
0000
0010
0000
0000
0000
0000
0000
0000
0000
1002
0000
0000
0000
0000
0000
0000
0000
0000
0000
0000
0000
0000
0003
1000
0000
0000
,
0000
0000
0100
0000
1010
0000
0001
0000
0100
0000
0001
0000
1010
0000
0100
0010
,
0001
0010
0100
1000
0101
0010
0001
0010
0100
1000
0001
0010
1001
0010
0100
1000
,
0001
0010
0001
0100
1001
0010
0100
1000
0001
0010
0001
0100
1001
0010
0100
1000
,
0001
0010
0001
0100
1001
0010
0100
1000
0001
0010
0001
0100
1001
0010
0100
1000
,
0001
0000
0000
0010
0000
0000
0001
0000
0000
0100
0000
0000
0011
0000
0000
1000
0000
0000
0020
0000
0000
0000
0000
0000
0000
0000
0000
1030
0000
0000
0100
0000
0000
0010
0000
0000
0101
0000
0000
0000
1000
0000
0000
0000
0010
0000
0000
0000
,
0000
1000
0010
0100
0011
0000
1000
0000
0100
0000
0010
0000
1002
0000
0000
0003
,
1100
0011
0010
0101
0010
0100
1010
0001
,
0010
1100
0010
0100
1001
0101
1100
0011
,
1010
0000
1100
0000
0011
0000
0101
0000
1010
0000
0101
0000
1010
0000
2102
3000
,
0000
0000
0000
0003
0000
0000
0000
0000
0000
0000
0000
0000
0000
0000
0000
0000
;
