#TITLE:X-TREME 6;
#SUBTITLE:;
#ARTIST:元祖ボーイズ男子ボーイズ;
#TITLETRANSLIT:;
#SUBTITLETRANSLIT:;
#ARTISTTRANSLIT:;
#CREDIT:;
#BANNER:../Banner.png;
#BACKGROUND:../BG.PNG;
#LYRICSPATH:;
#CDTITLE:../CDTitleRP.png;
#MUSIC:X-TREME 6.ogg;
#OFFSET:-2.629;
#SAMPLESTART:100.569;
#SAMPLELENGTH:12.000;
#SELECTABLE:YES;
#DISPLAYBPM:6.000;
#BPMS:0.000=200.000,56.000=400.000,59.333=200.000;
#STOPS:56.000=0.100
,56.667=0.100
,57.333=0.100
,58.000=0.100
,58.667=0.100
;
#BGCHANGES:;
// cache tags:
#FIRSTBEAT:0.000;
#LASTBEAT:404.000;
#SONGFILENAME:Songs/Index Fusion/X-TREME 6 - [rparty]/X-TREME 6.sm;
#HASMUSIC:1;
#HASBANNER:1;
#MUSICLENGTH:133.212;
// end cache tags

//---------------dance-single - ----------------
#NOTES:
     dance-single:
     :
     Hard:
     15:
     1.000,1.000,0.540,0.390,1.000,1059.000,72.000,52.000,0.000,0.000:

1000
0001
1000
0001
1000
0000
0010
0000
1010
0000
1000
0001
0100
0010
2000
0000
,
3000
0001
0101
0000
0010
1010
4000
0000
,
3001
0100
0001
0100
0001
0000
0100
0000
0110
0000
0010
1000
0001
0100
0010
0000
,
0000
1000
1010
0000
0100
0101
0004
0000
,
1003
0010
0100
0001
1000
0000
0010
0000
1010
0000
0100
0001
0100
0010
1000
0000
,
0000
0001
1001
0000
1000
1010
0040
0000
,
0130
0001
0100
0001
1000
0000
0010
0000
0100
0001
0100
0001
1000
0000
0010
0000
,
0000
1000
1001
0000
0202
0000
0303
0000
,
0010
1000
0100
1000
0001
0000
0100
0010
0100
0001
1000
0000
0100
0010
0100
1000
,
0001
0000
0100
0010
1000
0001
0100
0000
1010
0000
0000
0000
1010
0000
0000
0000
,
1000
0001
1000
0100
1000
0000
0001
0100
0010
1000
0001
0000
0100
0010
1000
0001
,
0100
0000
0010
1000
0100
1000
0001
0000
1001
0000
0000
0000
1001
0000
0000
0000
,
1000
0100
1000
0100
1000
0000
0001
0100
0010
1000
0001
0000
0100
0010
1000
0001
,
0100
0000
0010
1000
0100
1000
0001
0100
0010
1000
0100
0010
0100
1000
0001
0100
,
0010
0000
0010
0000
0010
0000
1000
0000
1000
0000
1000
0000
,
0001
0000
0000
0000
1000
0000
0100
0000
0010
0001
0100
0010
1000
0100
0010
0001
,
1000
0100
0010
0010
0001
0100
0010
0010
,
1000
0000
0100
0010
0100
0000
1000
0000
0001
0100
0001
0000
0101
0000
0000
0000
,
1000
0000
0001
0100
0001
0000
0100
0000
0010
0100
0010
0000
1000
0000
0001
0000
,
0100
0000
0010
1000
0010
0000
0100
0000
0001
0010
0001
0000
4000
0000
0000
0000
,
3010
0000
0100
0001
0100
0000
0010
0000
1000
0001
1000
0000
0010
0000
0100
0000
,
0001
0000
1000
0100
1000
0000
0001
0000
0100
0010
0100
0000
0110
0000
0000
0000
,
1000
0100
1000
0001
1000
0000
0010
0000
0100
0001
0100
0000
0010
0000
1000
0000
,
0001
0000
0100
0010
0100
0000
0001
0000
0100
0010
0100
0000
0010
0000
0100
0001
,
0010
0000
0100
1000
0100
0000
0010
0000
0001
1000
0001
0000
1000
0010
1000
0000
,
0001
0000
0100
0000
0010
0000
1000
0000
0001
0100
0010
1000
0002
0000
0000
0000
,
4003
0000
0000
0000
3010
0100
0001
1000
0100
0010
0100
1000
0001
0100
0010
1000
,
0100
0010
0001
0010
0100
1000
0001
0100
0001
0000
1000
0000
0010
0000
1000
0000
,
0001
0000
0100
0000
0100
0010
1000
0100
1000
0001
0100
0010
1000
0001
0010
0100
,
1000
0001
0100
0010
1000
0100
0010
0001
0100
0000
0100
0000
0010
1000
0100
1000
,
0001
0000
0010
0000
0100
0000
1000
0001
0100
0000
0010
0000
1000
0000
0010
1000
,
0001
0000
0100
0000
0010
0000
1000
0001
0100
0000
0010
0000
1010
0000
1000
0001
,
0400
0000
0000
0000
0340
0000
0000
0000
1030
0000
1000
0000
0001
0000
0100
0010
,
0100
0000
0001
0000
1000
0000
0010
0000
0100
0001
0100
0001
1000
0000
0000
0000
,
0002
0000
0000
0000
1003
0000
0000
1010
0000
0000
0110
0000
0001
1000
0001
0000
,
1001
0000
2000
0000
3010
0000
0000
0101
0000
0000
0001
0000
1000
0001
1000
0000
,
0001
0000
0100
0000
0001
0000
0100
0000
0000
0000
0000
0000
0010
0000
0000
0000
0000
0000
0000
0000
0000
1010
0000
0000
0000
0000
0000
0000
0000
0000
0100
0000
0000
0000
0000
0000
0100
0000
0000
0001
0000
0000
0100
0000
0000
0000
0000
0000
,
1010
0000
0000
0000
1001
0000
0000
0001
0000
0000
0100
0000
0010
0100
0010
1000
,
0002
0000
0203
0000
0302
0000
0203
0000
0320
0000
2030
0000
3001
0100
0010
1000
,
0100
0000
0010
0000
0001
0000
0100
0010
0100
0000
0001
0000
1000
0010
0100
0001
,
1000
0000
0001
0000
0100
0000
0010
0000
0000
0000
0000
0000
1000
0000
0000
0000
0000
0000
0000
0000
0000
1000
0000
0000
0000
0000
0000
0000
0000
0000
0010
0000
0000
0000
0000
0000
0100
0000
0000
0001
0000
0000
0000
0000
0000
0000
0000
0000
,
1000
0000
0001
0000
0001
0010
0100
1000
0001
0000
0000
0000
1001
0000
0000
0000
,
1100
0000
0000
0110
0000
0000
0011
0000
0000
0101
0000
0000
1010
0000
1001
0000
,
1000
0100
0010
0001
0010
0100
1000
0001
0100
0010
1000
0100
0010
0000
0010
0000
,
1001
0000
0000
0110
0000
0000
0011
0000
0000
1010
0000
0000
1001
0000
0110
0000
,
1000
0100
0010
0001
0010
0100
1000
0001
0100
0010
1000
0100
0010
0000
0001
0000
,
1001
0000
0000
1010
0000
0000
0101
0000
0000
1001
0000
0000
1000
0000
0001
0000
,
1010
0000
0000
0101
0000
0000
1010
0000
0000
1001
0000
0000
0110
0000
0010
0000
,
1000
0100
1000
0000
0001
0100
0001
0000
1000
0010
0100
0001
1000
0010
0100
0001
,
4000
0000
0000
0000
0000
0000
0000
0000
0000
0000
0000
0000
3010
0000
0000
0000
0000
0000
0000
0000
0000
0100
0000
0000
0001
0000
0000
0100
0000
0000
0001
0000
0000
0000
0000
0000
1000
0000
0001
0000
1000
0000
0001
0000
1000
0000
0001
0000
,
1000
0000
0010
0100
0001
0000
2000
0000
3001
0010
0100
0000
2000
0000
3001
0100
,
0010
0000
2000
0000
3001
0010
0100
0000
1100
0000
1100
0000
0000
0000
0000
0000
,
1001
0000
0001
0010
0100
0000
2000
0000
3001
0100
0010
0000
2000
0000
3001
0000
,
0100
0000
0020
0000
1030
0100
1000
0000
0020
0000
0230
0000
0301
1000
0100
1000
,
0001
0000
0000
0000
0000
0000
1000
0000
0000
0100
0000
0000
0010
0000
0001
0000
0010
0000
0001
0000
0000
0000
0000
0000
0000
0000
0000
0000
0000
0000
0001
0000
0100
0000
0001
0000
1000
0000
0000
0000
0000
0000
0000
0000
0000
0000
0000
0000
,
1000
0000
0100
0000
0010
0000
0001
0000
0000
0000
0000
0000
0100
0000
0000
0000
0000
0000
0010
0000
1000
0000
0001
0000
1000
0000
0000
0000
0000
0000
0001
0000
0000
0000
0000
0000
0000
0000
0000
0000
0000
0000
1000
0000
0000
0001
0000
0000
,
1001
0000
0000
1000
0100
0000
0000
0100
0010
0000
0001
1000
1001
0000
0000
1000
,
0100
0000
0000
0100
0010
0000
0001
0000
0010
0000
0010
0000
0100
1000
0100
1000
,
0001
0000
0100
0000
0010
0000
0110
0000
0010
0000
1000
0000
1010
0000
1000
0001
,
0100
0000
0020
0000
1030
0000
0001
0000
2000
0000
3010
0000
0100
0001
0100
0001
,
4000
0000
0000
0000
3010
0100
0040
0000
0000
0000
0130
0001
0100
0010
0000
1000
,
0000
0000
0000
0100
0000
0000
0010
0000
0000
0000
0000
0000
0001
0000
0000
0000
0000
0000
0100
0000
0000
0000
0000
0000
0101
0000
0000
0000
0000
0000
0101
0000
0000
0000
0000
0000
0010
0000
0000
0000
0000
0000
1000
0000
0001
0000
1000
0000
,
0010
0000
0100
0001
0100
0010
1000
0100
0010
0001
0100
0010
1000
0010
0100
0001
,
1000
0010
0100
0001
1000
0100
0010
0001
0010
0100
1000
0001
0200
0000
0000
0000
,
0310
0000
0000
0000
1000
0000
0001
0100
0010
0000
1000
0000
0001
0000
1000
0000
,
1000
0001
1000
0001
1000
0001
1000
0000
0000
0010
0000
0000
0100
0000
0000
0001
0000
0000
1001
0000
0000
0000
0000
0000
,
1000
0100
0010
0001
0010
0100
1000
0001
0100
0010
0100
0001
1000
0100
0010
0100
,
1000
0001
0100
0010
1000
0100
0010
0100
1000
0001
0100
0010
2000
0000
3002
0000
,
0103
0010
0100
0001
1000
0100
0010
0100
1000
0001
0100
0010
1000
0100
0010
0001
,
1000
0010
0100
0010
1000
0010
0100
0010
1000
0001
0010
0100
1000
0100
0010
0001
,
0200
0000
0000
0320
0000
0000
2030
0000
0000
3002
0000
0000
0103
0000
0010
0000
,
2000
0000
0000
3200
0000
0000
0310
0000
0100
1000
0001
0100
0010
1000
0100
0010
,
0100
1000
0100
1000
0100
0000
0010
0000
0001
1000
0001
1000
0001
0000
0100
0000
,
1001
0000
0000
1001
0000
0000
1001
0000
0000
0110
0000
0000
0010
0000
1000
0010
,
1000
0001
0100
0010
1000
0100
0010
0100
1000
0001
0100
0010
1000
0100
0010
0001
,
0100
0010
0100
0001
1000
0100
1000
0001
1000
0010
0100
0001
1000
0100
0010
0001
,
0100
0010
1000
0001
0010
0100
1000
0001
0100
0010
1000
0100
1000
0001
0100
0010
,
1000
0001
1000
0001
0100
0010
1000
0100
0010
0001
0010
0100
1000
0001
0100
0010
,
1000
0100
0010
0001
1000
0010
0100
0001
1000
0100
0010
0001
0010
0100
1000
0001
,
0100
0010
1000
0100
0010
0001
0010
0100
1000
0001
0100
0010
1000
0001
0010
0100
,
1000
0001
0100
0010
1000
0100
1000
0001
1000
0100
1000
0001
1000
0100
0010
0001
,
1000
0100
0010
0001
0010
0100
1000
0100
0010
0001
0010
0100
1000
0000
0000
0000
,
0002
0000
0203
0000
0310
1000
0010
0000
0200
0000
0302
0000
0103
0001
0100
0000
,
0002
0000
0203
0000
0310
1000
0010
0000
0200
0000
0302
0000
0103
0001
0100
0000
,
0001
0000
0010
0000
0100
1000
0001
0000
0100
0000
0010
0000
1000
0100
0010
0000
,
0001
1000
0001
0000
1000
0010
1000
0000
0001
0100
0001
0000
1000
0010
1000
0000
,
0200
0000
0320
0000
0031
1000
0010
0000
0200
0000
0302
0000
0103
0010
0100
0000
,
0002
0000
0023
0000
0130
1000
0001
0000
0100
0000
0010
0000
1000
0100
0010
0000
,
0001
0100
0001
0100
0001
0000
1000
0010
1000
0010
1000
0000
0001
0100
0010
1000
,
0040
0430
0304
4003
,
3002
0000
0203
0000
0310
1000
0100
0000
0020
0000
0032
0000
0103
0010
1000
0000
,
0200
0000
0320
0000
0031
1000
0010
0000
0200
0000
0301
0000
0100
0010
1000
0000
,
0001
0100
0001
0000
1000
0010
1000
0000
0001
0100
0010
0000
1000
0010
0100
0000
,
0001
0100
0010
0000
1000
0100
0010
0000
0001
0010
0100
0000
1000
0001
0100
0010
,
1000
1000
0010
0010
0100
0100
0001
0001
,
1001
0000
0000
0000
0000
0000
0000
0000
0000
0000
0000
0000
0000
0000
1000
0001
,
0100
0100
0010
0010
1000
1000
0001
0001
,
1000
0100
0010
0001
0010
0100
1000
0001
0100
0010
1000
0100
0010
0001
0010
0100
,
1000
0010
0100
0001
1000
0100
0010
0100
1000
0001
0100
0010
1000
0100
0010
0100
,
1000
0001
0100
0010
1000
0001
0010
0100
1000
0001
0100
0010
1000
0100
0010
0100
,
1000
0000
0000
0000
;

//---------------dance-single - ----------------
#NOTES:
     dance-single:
     :
     Challenge:
     16:
     1.000,1.000,0.773,0.263,1.000,1139.000,103.000,35.000,0.000,0.000:

1000
0100
1000
0100
0010
0000
0001
0000
1000
0000
0001
0010
0100
1000
0100
0000
,
0000
1000
1010
0000
0102
0000
0000
0003
,
1000
0010
1000
0010
0100
0000
0001
0000
0100
0000
0010
1000
0001
0010
0100
0000
,
0000
1000
1001
0000
0120
0000
0000
0030
,
1000
0100
0010
0001
0010
0000
0100
0000
1000
0000
0001
0100
0001
1000
0010
0000
,
0000
0100
0101
0000
2010
0000
0000
3000
,
0001
0010
0001
0010
0100
0000
1000
0000
0001
0000
1000
0100
0010
0001
0010
0000
,
0000
1000
0001
0000
2002
0000
3003
0000
,
1000
0100
0010
0001
0010
0000
0001
0100
0001
1000
0010
0000
0100
0010
0100
0001
,
1000
0000
0001
0010
0100
1000
0001
0000
1001
0000
0100
0000
1001
0000
0010
0000
,
1000
0010
0100
0001
0010
0000
0001
0010
0100
1000
0001
0000
0100
0001
0010
0001
,
1000
0000
0010
0100
0001
1000
0010
0000
0101
0000
0000
0000
0101
0000
0000
0000
,
1000
0100
1000
0100
0010
0000
0001
0010
0100
0010
0100
0000
1000
0001
0010
0100
,
1000
0000
1000
0100
0010
0001
0010
0000
0001
0010
0100
1000
0100
0000
0010
0000
,
1001
0000
0000
0000
0000
0000
0000
0000
1100
0000
0000
0000
0000
0000
0000
0000
0101
0000
0000
0000
0000
0000
0000
0000
0110
0000
0000
0000
0000
0000
0000
0000
1010
0000
0000
0000
0000
0000
0000
0000
0101
0000
0000
0000
0000
1000
0000
0000
,
0020
0000
0000
0000
1030
0000
0100
0000
0010
0001
1000
0100
0020
0000
0000
0030
,
1001
0000
1000
0100
0110
0000
0001
0010
,
0110
0000
1000
0001
0100
0000
0100
0000
0010
1000
0100
0010
0002
0000
0000
0000
,
1003
0000
1100
0000
0010
0001
0100
0001
1000
0010
0100
0001
0010
0100
1000
0010
,
0100
0001
1000
0100
0010
0001
0100
0001
0100
0010
1000
0000
0100
0000
0010
0000
,
0001
0010
0100
1000
0100
0010
0001
0100
0001
1000
0010
0100
0010
1000
0100
0010
,
0001
0100
0001
0100
0010
1000
0100
0010
0001
0010
0100
1000
0001
0000
0000
0000
,
1000
0100
0010
0001
0100
0001
0010
0100
1000
0001
0100
0001
1000
0010
0100
0010
,
1000
0100
0010
0001
1000
0001
0100
0010
0100
0001
0010
0100
1000
0000
0001
0100
,
0001
1000
0010
0100
0001
0000
1000
0000
1000
0100
0010
0001
0100
0010
0100
0001
,
1000
0000
0001
0000
0100
0010
0100
0001
1000
0010
0100
0001
1000
0000
0000
0000
,
0001
0000
0010
0000
0100
0000
1000
0000
0000
0001
0000
0000
0010
0000
0000
0100
0000
0000
1000
0000
0000
0010
0000
0000
0100
0000
0000
0001
0000
0000
1000
0000
0000
0100
0000
0000
0010
0000
0000
0001
0000
0000
1000
0000
0000
0010
0000
0000
,
0100
0010
1000
0100
1000
0001
0100
0010
1000
0001
0100
0010
1000
0100
0010
0001
,
1000
0010
0100
0001
1000
0001
0100
0010
1000
0001
0100
0010
1000
0100
0010
0001
,
0010
0100
1000
0001
0100
0010
1000
0100
0010
0001
1000
0001
0100
0010
0100
0010
,
1001
1100
0101
1001
,
0110
0000
0000
0000
1001
0000
0000
0000
0011
0000
0000
0000
1100
0000
1000
0100
,
0011
0000
0011
0000
1010
0000
1100
0100
,
1000
0000
1000
0001
0100
0000
0001
1000
0001
1000
0001
1000
0020
0000
0030
0000
,
1001
0000
1000
0000
0001
0000
0100
0010
1000
0001
0100
0001
1000
0000
0001
0100
,
0001
0000
1000
0100
0010
0000
0001
0100
0001
0010
0100
1000
0002
0000
0003
0000
,
1001
0000
0001
0010
0100
0000
1000
0001
1000
0010
0100
0000
0001
1000
0010
0100
,
0001
0000
0001
1000
0001
0000
0001
0010
0100
1000
0001
0000
1000
0100
0010
0001
,
1000
0000
0010
1000
0010
0000
0100
0001
1000
0010
0100
0000
0010
1000
0100
0010
,
0001
0000
0010
0001
0010
0000
0001
0010
0100
1000
0001
0000
1000
0001
0010
0001
,
0100
0010
1000
0000
0001
0100
0001
1000
0100
0010
0001
0000
0010
0001
1000
0010
,
1000
0000
1000
0000
0001
1000
0001
1000
0001
0000
0100
0000
0110
0000
0000
0000
,
1010
0000
0000
0101
0000
0000
0011
0000
0000
1100
0000
0000
1001
0000
0110
0000
,
1000
0000
0100
0000
0010
0000
0001
1000
0010
0100
0001
0000
1000
0000
0001
0000
,
1100
0000
0000
0011
0000
0000
1010
0000
0000
0101
0000
0000
1001
0000
0110
0000
,
1000
0000
0100
0000
0010
0000
0001
0010
0100
1000
0001
0010
0100
0000
1000
0000
,
1001
0000
0000
1010
0000
0000
0101
0000
0000
0011
0000
0000
1100
0000
1001
0000
,
0110
0000
0000
1001
0000
0000
1100
0000
0000
0011
0000
0000
0101
0000
1010
0000
,
0001
1000
0001
0000
1000
0010
1000
0000
0001
0100
0001
0100
0010
1000
0100
0010
,
0002
2000
0000
3003
,
1001
0000
0001
0101
0000
1000
1010
0000
,
0010
0110
0000
0001
0101
0110
0000
0000
,
1001
0000
1000
1100
0000
0010
0110
0000
,
0001
0000
1001
0000
0000
0000
1000
0000
1100
0000
0011
0000
0000
0000
1000
0100
,
0011
0000
0000
0000
0000
0000
0100
0000
0000
1000
0000
0000
0001
0000
0010
0000
0100
0000
1000
0000
0000
0001
0000
0000
0100
0000
0000
0010
0000
0000
1000
0000
0100
0000
0010
0000
0001
0000
0000
0100
0000
0000
0010
0000
0000
1000
0000
0000
,
0001
0000
0010
0000
0100
0000
1000
0000
0000
0010
0000
0000
0100
0000
0000
0001
0000
0000
1000
0000
0100
0000
0010
0000
0001
0000
0000
0000
0000
0000
0100
0000
0000
0000
0000
0000
0001
0000
0000
0000
0000
0000
1000
0000
0000
0000
0000
0000
,
1001
0000
0000
0001
0010
0100
1000
0001
0100
0110
1000
0100
,
0010
0000
0000
0000
0001
0000
0000
0000
1000
0000
0000
0000
0010
0000
0000
0000
0100
0000
0000
0000
0010
0000
0000
0000
0101
0000
0000
0000
0000
0000
1010
0000
0000
0000
0000
0000
0001
0000
0000
0000
0000
0000
1000
0000
0000
0100
0000
0000
,
0010
0000
0001
0000
0100
0000
0001
0000
1000
0000
0010
0000
0100
0000
0001
1000
,
0010
0000
1000
0000
0100
0000
1000
0000
0002
0000
1000
0000
1003
0100
0010
0001
,
0100
0000
0010
0000
1000
0001
0020
0000
0130
0000
1000
0001
0200
0000
0310
1000
,
0000
1000
0001
0000
0100
0000
0001
0000
1000
0100
0010
0000
0002
0000
2003
0000
,
3020
0000
0130
0010
1000
0001
0100
0001
1000
0100
0010
0100
1000
0001
0100
0001
,
0010
0100
1000
0001
0100
0010
0100
0001
1000
0010
0100
0001
1000
0100
0010
0001
,
0200
0000
0301
1000
0020
0230
0301
1000
,
0001
0010
0100
1000
0001
0010
0100
0000
0000
1000
0000
0000
0001
0000
0000
0100
0000
0000
1001
0000
0000
0000
0000
0000
,
1100
0000
0001
0100
0010
0000
1000
0010
0100
0000
0001
1000
0010
0000
1000
0001
,
0100
0000
0001
1000
0010
0000
0100
0001
0010
0000
0100
1000
0001
0000
1000
0010
,
0100
0000
0001
0010
0100
0000
1000
0001
0100
0000
0010
1000
0100
0000
0010
0001
,
0100
0000
0001
1000
0010
0000
0100
0010
1000
0100
0010
0001
0010
0100
1000
0001
,
0100
0000
0010
1000
0100
0000
0010
0001
0100
0000
0001
1000
0100
0000
1000
0001
,
0100
0000
0010
0100
0001
0000
1000
0100
0010
0001
0100
0010
1000
0010
0100
0001
,
1000
0001
1000
0001
0200
0000
0300
0000
0001
1000
0001
1000
0020
0000
0030
0000
,
1001
0000
0000
0101
0000
0000
1100
0000
0000
0110
0000
0000
0011
0000
1000
0100
,
0010
0001
0010
0100
1000
0001
0100
0010
1000
0100
0010
0001
0100
0010
1000
0100
,
1000
0010
0100
0001
0010
0001
0100
0010
1000
0100
0010
0001
0100
0010
0100
0001
,
0010
0100
1000
0001
0100
0010
1000
0100
0010
0001
0100
0001
1000
0010
0100
0010
,
1000
0100
0010
0001
0100
0010
1000
0100
1000
0010
0100
0001
0010
0100
1000
0010
,
0100
0001
1000
0100
0010
0001
1000
0010
0100
0001
1000
0100
0010
0001
0100
0001
,
0010
0001
0100
0010
1000
0100
1000
0010
0100
0001
0010
0001
0010
0100
1000
0001
,
0100
0001
1000
0100
0010
0001
0100
0010
0100
0010
1000
0100
0010
0001
0100
0010
,
1000
0100
0010
0001
1000
0200
0310
0002
,
1003
0100
1000
0010
0100
0001
1000
0010
0100
0001
1000
0100
0010
0100
1000
0001
,
0010
0100
0010
0001
1000
0010
0100
0001
1000
0010
1000
0010
0100
0001
0010
0001
,
0100
0010
1000
0100
1000
0001
1000
0010
0100
0001
0010
0001
0100
0010
1000
0100
,
1000
0010
0100
0010
0100
0001
0100
0001
1000
0001
0010
0001
1000
0010
0100
0001
,
1000
0010
0100
0001
1000
0001
0010
0001
0100
0010
1000
0100
1000
0010
0100
0010
,
0100
0001
1000
0010
0100
0010
1000
0001
0100
0001
0010
0001
0100
0010
1000
0001
,
0100
0001
1000
0010
1000
0001
0100
0001
0010
0100
0010
0001
1000
0001
1000
0001
,
0100
0010
0100
0000
0002
0000
0000
0000
2003
0000
0000
0000
0000
0000
3020
0000
,
0130
0001
0100
0001
1000
0010
0100
0010
1000
0100
0010
0100
1000
0001
0010
0001
,
0100
0001
0010
0001
0100
0010
1000
0100
0010
0100
1000
0001
0100
0010
1000
0100
,
1000
0001
0010
0001
0100
0010
0100
0010
1000
0010
0100
0001
0100
0010
0100
0001
,
0010
0100
1000
0100
0010
0001
1000
0001
0100
0001
0100
0010
1000
0001
0010
0100
,
1001
1100
0101
1010
0011
1100
0101
1001
,
0110
0000
0000
0000
2000
0000
0000
0000
3001
0000
0000
0000
0100
0000
1000
0100
,
0011
1100
1001
0101
1010
1001
0011
1100
,
1002
0000
0000
0000
2003
0000
0000
0000
3020
0000
0000
0000
0230
0000
0301
1000
,
0001
0010
0100
1000
0010
0100
0001
0010
0100
1000
0010
0100
0001
0010
0100
1000
,
0100
0010
0001
0100
0010
1000
0100
0010
0001
0000
0010
0000
0100
0000
1000
0000
,
2002
0000
0000
0000
,
3003
0000
0000
0000
;
