#TITLE:When The Water Breaks;
#SUBTITLE:Liquid Tension Experiment 2 (1999);
#ARTIST:Liquid Tension Experiment;
#TITLETRANSLIT:;
#SUBTITLETRANSLIT:;
#ARTISTTRANSLIT:;
#CREDIT:;
#BANNER:When The Water Breaks.png;
#BACKGROUND:When The Water Breaks-bg.png;
#LYRICSPATH:;
#CDTITLE:!ElectricWerewolf.png;
#MUSIC:Liquid Tension Experiment - When The Water Breaks.mp3;
#OFFSET:-7.318;
#SAMPLESTART:175.760;
#SAMPLELENGTH:12.000;
#SELECTABLE:YES;
#BPMS:0.000=56.000,6.000=59.000,7.000=56.000,14.000=54.000,14.500=50.000,15.000=46.000,16.000=70.000,26.000=64.000,29.000=77.000,29.750=46.000,30.000=60.000,32.000=136.000,86.000=174.000,102.000=176.000,132.000=180.000,198.000=170.000,202.000=150.000,206.000=140.000,215.000=130.000,221.000=106.000,222.000=67.000,223.000=77.000,264.000=154.000,456.000=148.000,460.000=154.000,725.000=153.900,894.000=154.000,994.000=156.500,1042.000=147.000,1046.000=154.000,1093.000=164.000,1094.000=156.000,1105.000=148.000,1108.000=152.000,1136.000=155.000,1163.750=140.000,1164.000=160.000,1168.000=164.000,1172.000=107.000,1182.000=106.500,1368.000=142.000,1428.000=138.000,1432.000=144.000,1475.000=141.000,1496.000=142.000,1528.000=145.000,1552.000=146.000,1568.000=145.000,1584.000=143.000,1672.000=145.000,1704.000=142.000,1736.000=143.000,1754.000=229.000,1835.000=224.500,1910.000=200.000,1912.000=220.000,1944.000=223.000,2010.000=226.500,2106.000=225.000,2130.000=211.000,2138.000=180.000,2140.000=211.000,2208.000=207.000,2264.000=220.000,2269.500=229.000,2274.000=136.000,2433.000=130.000,2449.000=124.000,2457.000=126.000,2476.000=118.000,2479.000=113.000,2488.000=146.000,2505.000=150.000,2505.500=190.000,2505.625=180.000,2505.750=170.000,2505.875=160.000,2506.375=150.000,2506.500=140.000;
#STOPS:1335.750=0.070
,1335.875=0.070
,1336.250=0.070
,1336.375=0.070
,1754.000=0.540
;
#BGCHANGES:;
// cache tags:
#FIRSTBEAT:0.000;
#LASTBEAT:2506.750;
#SONGFILENAME:Songs/Astronomic Metal Collection/When the Water Breaks (ElectricWerewolf)/When The Water Breaks.sm;
#HASMUSIC:1;
#HASBANNER:1;
#MUSICLENGTH:1015.689;
// end cache tags

//---------------dance-single - ----------------
#NOTES:
     dance-single:
     :
     Hard:
     13:
     1.000,1.000,1.000,0.187,1.000,6623.000,2507.000,190.000,0.000,84.000:
1001
0000
0100
0000
0010
0000
0001
0000
1010
0001
1100
0010
0101
0000
1010
0000
,
0011
0000
0110
0000
0001
0000
1000
0000
0011
1000
0110
0001
1010
0000
0100
0000
,
1001
0000
0000
0000
0000
0000
0000
0000
0000
0000
0000
0000
0000
0000
0000
0000
0000
0000
0000
0000
0000
0000
0000
0000
0100
0000
0001
0000
0000
0000
0000
0000
0000
0000
0000
0000
0000
0000
0000
0000
0000
0000
0000
0000
0000
0000
0000
0000
1000
0000
0000
0000
0000
0000
0000
0000
0000
0000
0000
0000
0000
0000
0000
0000
0000
0000
0000
0000
0000
0000
0000
0000
0001
0000
0000
0000
0000
0000
0000
0000
0000
0000
0000
0000
0000
0000
0000
0000
0000
0000
0000
0000
0000
0000
0000
0000
1010
0000
0000
0000
0000
0000
0000
0000
0000
0000
0000
0000
0000
0000
0000
0000
0000
0000
0000
0000
0000
0000
0000
0000
0001
0000
0000
0000
0000
0000
0000
0000
0000
0000
0000
0000
0000
0000
0000
0000
0000
0000
0000
0000
0000
0000
0000
0000
1000
0000
0000
0000
0000
0000
0000
0000
0000
0000
0000
0000
0000
0000
0000
0000
0000
0000
0000
0000
0000
0000
0000
0000
0010
0000
0000
0000
0000
0000
0000
0000
0000
0000
0000
0000
0000
0000
0000
0000
0000
0000
0000
0000
0000
0000
0000
0000
,
0101
0000
0000
0000
0000
0000
0000
0000
0000
0000
0000
0000
0000
0000
0000
0000
0000
0000
0000
0000
0000
0000
0000
0000
0010
0000
0000
0000
0000
0000
0000
0000
0000
0000
0000
0000
0000
0000
0000
0000
0000
0000
0000
0000
0000
0000
0000
0000
1000
0000
0000
0000
0000
0000
0000
0000
0000
0000
0000
0000
0010
0000
0000
0000
0000
0000
0000
0000
0000
0000
0000
0000
0100
0000
0000
0000
0000
0000
0000
0000
0000
0000
0000
0000
0001
0000
0000
0000
0000
0000
1000
0000
0100
0000
0010
0000
0001
0000
0000
0000
0100
0000
0000
0000
0000
0000
0000
0000
0000
0000
0000
0000
0000
0000
0000
0000
0000
0000
0000
0000
0010
0000
0000
0000
0000
0000
0000
0000
0000
0000
0000
0000
0000
0000
0000
0000
0000
0000
0000
0000
0000
0000
0000
0000
1010
0000
0000
0000
0000
0000
0000
0000
0000
0000
0000
0000
0000
0000
0000
0000
0000
0000
0000
0000
0000
0000
0000
0000
0000
0000
0000
0000
0000
0000
0000
0000
0000
0000
0000
0000
0000
0000
0000
0000
0000
0000
0000
0000
0000
0000
0000
0000
,
1001
0000
0100
0000
0000
0010
0000
0100
0011
0000
1000
0000
0110
0000
0001
0000
,
1010
0000
0000
0000
0001
0100
0010
1000
0101
0000
0010
0000
1100
0000
0000
0000
,
0011
0000
0000
0000
0100
0010
1000
0001
1010
0000
0001
0000
1100
0000
0010
0000
,
1001
0000
0000
0000
0000
0000
0000
0000
0100
0000
0001
0000
1000
0000
0010
0000
1100
0000
0000
0000
0001
0000
0000
1000
0010
0000
0000
0000
0000
0000
0000
0000
,
0100
0000
1001
0000
0100
0000
1000
0001
0110
0000
0001
1000
0010
0001
0100
0010
,
1000
0000
0000
0000
0000
0000
0000
0000
0000
0000
0000
0000
0010
0000
0000
0000
0000
0000
0000
0000
0000
0000
0000
0000
0001
0000
0000
0000
0000
0000
0000
0000
0000
0000
0000
0000
0010
0000
0000
0000
0000
0000
0000
0000
0000
0000
0000
0000
1000
0000
0000
0000
0000
0000
0000
0000
0000
0000
0000
0000
0100
0000
0000
0000
0000
0000
0000
0000
0000
0000
0000
0000
0010
0000
0000
0000
0000
0000
0000
0000
0000
0000
0000
0000
0100
0000
0000
0000
0000
0000
0000
0000
0000
0000
0000
0000
1000
0000
0000
0000
0000
0000
0000
0000
0000
0000
0000
0000
0010
0000
0000
0000
0000
0000
0000
0000
0000
0000
0000
0000
0100
0000
0000
0000
0000
0000
0000
0000
0000
0000
0000
0000
0001
0000
0000
0000
0000
0000
0000
0000
0000
0000
0000
0000
0010
0000
0000
0000
0000
0000
0000
0000
0100
0000
0000
0000
0000
0000
0000
0000
1000
0000
0000
0000
0000
0000
0000
0000
0001
0000
0000
0000
0000
0000
0100
0000
0000
0000
0000
0000
0000
0000
0000
0000
0010
0000
0000
0000
0000
0000
0000
0000
,
1000
0000
0000
0000
0000
0000
0011
0000
0000
0000
0000
0000
0100
0000
0000
0000
0000
0000
1001
0000
0000
0100
0000
0000
1010
0000
0000
0000
0000
0000
0001
0000
0010
0000
0100
0000
1001
0000
0000
0000
0000
0000
0100
0000
0000
0100
0000
0000
,
0010
0010
0001
0001
1000
1000
0010
0010
0100
0100
0001
0001
0100
0100
0010
0010
,
1001
0000
0000
0000
0000
0000
0100
0000
0000
0000
0000
0000
1010
0000
0000
0000
1000
0000
0010
0000
0100
0000
0001
0000
0010
0000
0000
0000
0000
0000
0001
0000
0000
0010
0000
0000
1100
0000
0000
0000
0000
0000
0101
0000
0000
0000
0000
0000
,
1100
0000
0011
0000
1010
0000
0110
0000
0101
0000
1100
0010
0101
0000
0110
0000
,
1000
0000
0001
0000
1010
0000
1001
0010
0100
0000
1000
0001
0110
0000
1000
0000
,
0010
0100
0001
1000
0011
1010
0001
0100
0010
1000
0100
0010
1001
1100
0010
0001
,
0110
0000
0000
0000
0000
0000
1000
0000
0000
0000
0000
0000
0011
0000
0000
0000
0010
0000
0100
0000
1000
0000
0001
0000
0100
0000
0000
0000
0000
0000
0011
0000
0000
1000
0000
0000
0100
0000
0000
0000
0000
0000
1010
0000
0000
0000
0000
0000
,
0101
0000
1100
0001
0110
0001
1010
0000
0011
0000
1001
0000
0101
0000
1100
0000
,
0010
0000
0000
0100
0000
0000
1001
0000
0000
0010
0000
0000
0101
0000
0000
1000
0000
0000
0010
0000
1000
0000
0001
0000
0100
0000
0000
0010
0000
0000
0100
0000
0000
0001
0000
0000
1010
0000
0000
0001
0000
0000
0100
0000
0000
0010
0000
0000
,
1001
0100
0010
1000
0011
0000
0000
0000
1010
0001
0100
0010
1000
0101
0010
1000
,
0110
0000
0000
0000
0000
0000
0000
0000
0000
0000
0000
0000
0001
0000
0000
0000
0000
0000
0000
0000
0000
0000
0000
0000
1000
0000
0000
0000
0000
0000
0000
0000
0000
0000
0000
0000
0001
0000
0000
0000
0000
0000
0010
0000
0000
0000
0000
0000
0100
0000
0000
0000
0000
0000
0000
0000
0000
0000
0000
0000
1010
0000
0000
0000
0000
0000
0000
0000
0000
0000
0000
0000
0100
0000
0000
0000
0000
0000
0000
0000
0000
0000
0000
0000
0010
0000
0000
0000
0000
0000
0000
0000
0000
0000
0000
0000
1001
0000
0000
0000
0000
0000
0000
0000
0000
0000
0000
0000
0000
0000
0000
0000
0101
0000
0000
0000
0000
0000
0000
0000
0000
0000
0000
0000
0000
0000
0000
0000
1100
0000
0000
0000
0000
0000
0000
0000
0000
0000
0000
0000
0000
0000
0000
0000
0011
0000
0000
0000
0000
0000
0000
0000
0000
0000
0000
0000
0000
0000
0000
0000
1001
0000
0000
0000
0000
0000
0000
0000
0000
0000
0000
0000
0000
0000
0000
0000
0110
0000
0000
0000
0000
0000
0000
0000
0000
0000
0000
0000
0000
0000
0000
0000
,
1001
0000
1010
0000
0101
0000
1100
0000
0011
0000
0110
0000
2001
0000
0000
0000
0000
0000
0100
0000
0000
3012
0000
0000
,
1000
0000
0123
0000
2031
0000
0001
0010
,
0100
0000
3021
0000
0231
0000
1000
0321
,
0100
0000
0000
0000
0000
0000
2130
0000
0000
0000
0000
0000
3102
0000
0000
0000
0000
0000
1000
0000
0000
0100
0013
0100
,
2001
0000
0001
0001
0100
0000
0010
3201
,
1000
0000
0321
0000
1032
0000
0100
0010
,
1000
0000
0000
0000
0000
0000
0000
0000
0000
0000
0000
0000
0123
0000
0000
0000
0000
0000
0000
0000
0000
0000
0000
0030
1020
0000
0000
0000
0000
0000
0000
0000
0000
0000
0000
0000
0100
0000
0031
0000
1000
0000
0210
0000
0000
0000
0000
0000
,
1000
0000
0000
0000
0000
0000
0000
0000
0000
0000
0000
0000
0320
0000
0000
0000
0000
0000
0000
0000
0000
0000
0000
0030
0020
0000
0000
0000
0000
0000
0001
0000
0000
0100
0000
0000
0001
0000
0000
0000
0000
0000
0001
0000
0000
0000
0000
0000
,
0001
1000
0130
1000
2001
0000
0010
3102
,
1000
0000
1023
0000
0132
0000
1000
0010
,
1203
0000
0001
0000
1320
0000
0001
2130
,
0010
0000
0000
0000
3201
0000
0000
0000
1310
0002
0000
0000
0100
0000
0010
0000
,
1000
0000
1023
1000
0231
0000
0010
1000
,
0001
0000
0321
0000
2031
0000
0001
0100
,
0010
0000
0000
0000
0000
0000
0000
0000
3210
0000
0000
0000
0000
0000
0000
0000
2310
0000
0000
0000
0000
0000
0000
0000
0100
0000
0000
0000
3100
0010
0001
0000
,
1100
0000
0000
0001
0000
0000
1000
0000
0001
0000
0100
0000
0010
0000
0000
0100
0000
0000
0001
0000
1000
0000
0100
0000
0010
0000
0000
0001
0000
0000
0100
0000
0000
0010
0000
0000
1001
0000
0000
0100
0000
0000
0010
0000
0000
0100
0000
0000
,
1001
0010
0100
0001
0010
0001
0100
0010
1002
0000
0000
0000
0100
0000
0010
0000
,
1000
0000
0000
0203
1000
0000
0000
0000
1320
0000
0000
0000
0001
0000
1000
0000
,
0100
0000
1031
0100
2010
0000
0001
0100
,
0010
0000
3012
0000
0213
0000
0010
1000
,
0001
0000
0000
0000
0001
0000
1300
0000
0010
0000
0000
0100
0000
0000
0001
0000
,
2010
0000
3100
0010
0001
0100
0200
0010
,
1000
0000
0301
1000
0010
0010
0010
0010
,
0010
0000
0010
0000
0010
0000
0020
0000
1000
0000
0000
1000
0001
0000
0000
0001
,
0100
0000
0000
0100
0001
0000
0001
0000
1030
0100
0010
0002
0000
0000
0000
0000
,
0000
0000
0000
0000
0013
0000
0100
1000
0000
0200
0000
0000
0000
0000
0000
0310
0000
0001
1000
0000
0002
0000
0000
0000
0000
0000
0000
0000
0000
0000
0000
0000
,
0000
0000
0000
0000
0000
0000
0103
0000
0000
0000
0000
0000
0000
0000
0000
0001
0000
0000
0000
0000
0000
0000
0000
0000
0020
0000
0000
0000
0000
0000
0000
0000
0000
0000
0000
0000
0000
0000
0000
0000
0000
0000
0031
0000
1000
0000
0100
0000
,
2000
0000
0000
0000
0000
0000
0000
0000
0000
0000
0000
0000
0000
0000
0000
0000
0000
0000
0000
0000
0000
0000
0000
0000
0000
0000
0000
0000
0000
0000
0000
0000
0000
0000
0000
0000
0000
0000
0000
0000
3010
0000
0000
0000
0000
0000
0000
0000
0100
0000
0000
0000
0000
0000
0001
0000
0000
0000
0000
0000
0000
0000
0000
0000
0000
0000
0200
0000
0000
0000
0000
0000
0000
0000
0000
0000
0000
0000
0000
0000
0000
0000
0000
0000
0000
0000
0000
0000
0000
0000
0000
0000
0000
0000
0000
0000
0000
0000
0000
0000
0000
0000
0000
0000
0000
0000
0000
0000
0000
0000
0000
0000
0000
0000
0000
0000
0000
0000
0000
0000
0000
0000
0000
0000
0000
0000
0000
0000
0000
0000
0000
0000
0000
0000
0000
0000
0000
0000
0000
0000
0000
0000
0000
0000
0000
0000
0000
0000
0000
0000
0000
0000
0000
0000
0000
0000
0000
0000
0000
0000
0000
0000
0000
0000
0000
0000
0000
0000
0000
0000
0000
0000
0000
0000
0000
0000
0000
0000
0000
0000
0000
0000
0000
0000
0000
0000
0000
0000
0000
0000
0000
0000
,
0000
0000
0310
0000
0000
1000
0000
0000
0002
0000
0000
0000
0000
0000
0000
0000
,
0000
0000
1003
0100
2000
0000
0000
3001
,
0020
0000
0000
0000
0000
0000
0032
0000
0000
0000
0000
0103
,
0001
0000
0100
0000
0002
0000
0000
0000
0000
0000
0000
0000
0000
0000
1003
0100
1000
0000
0010
0000
1000
0000
0020
0000
,
0000
0000
0000
0000
0000
0000
0000
0000
0000
0230
0000
0000
0000
0000
0000
0000
0000
0000
0000
0000
0000
0000
0301
0000
,
0010
0000
0000
0000
0100
0000
0000
0000
0010
0000
0000
0000
0100
0000
0000
1000
0000
0000
0001
0000
0000
0000
0000
0000
1100
0000
0000
0001
0000
0000
0010
0000
0000
0100
0000
0000
1000
0000
0000
0020
0000
0000
1000
0000
0000
0000
0000
0000
,
0001
0000
0100
0000
0001
0000
1030
0000
1001
0000
0000
0000
1001
0000
0000
1001
,
0000
0000
0000
1001
0000
0000
0101
0000
0000
0000
0101
0000
0000
0110
0000
0000
,
0000
0110
0000
0000
1001
0000
0000
0000
1001
0000
0000
1001
0000
0000
0000
1001
,
0000
0000
0000
0000
0000
0000
0000
0000
0101
0000
0000
0000
0000
0000
0000
0000
0000
0000
0000
0000
0000
0000
0000
0000
0101
0000
0000
0000
0000
0000
0000
0000
0000
0000
0000
0000
1010
0000
0000
0000
0000
0000
0000
0000
0000
0000
0000
0000
0000
0000
0000
0000
1010
0000
0000
0000
0000
0000
0000
0000
0001
0010
0100
0000
,
1001
0000
0000
0000
1001
0000
0000
1001
0000
0000
0000
1001
0000
0000
1010
0000
,
0000
0000
1010
0000
0000
0011
0000
0000
0000
0011
0000
0000
1001
0000
0000
0000
,
1001
0000
0000
1001
0000
0000
0000
1001
0000
0000
0101
0000
0000
1000
0101
1000
,
0001
0110
0000
0010
0000
0110
0000
0010
1001
0000
0100
0010
1001
0100
0010
1001
,
0100
0010
0100
1001
0010
0100
1010
0001
0100
0001
1010
0001
1000
0011
0100
1000
,
0100
0011
0100
0010
1001
0100
0010
0100
1001
0010
0100
1001
0010
0100
0010
1001
,
0010
1000
0101
0010
1100
0110
0011
1100
0101
1010
0100
0011
1010
0101
1100
0110
,
1001
0000
0100
0010
1000
0001
0010
0100
1010
0001
1100
0010
1001
0000
0101
0010
,
1000
0100
0011
0100
1000
0001
0110
1000
0001
0100
0010
0000
1100
0001
0010
0001
,
1000
0100
1000
0010
0101
1000
0010
0100
1001
0000
0110
1000
0001
0000
1000
0010
,
1000
0001
0110
1000
0011
0100
1010
0000
1001
0000
0010
0100
0001
1000
0100
0010
,
1100
0001
1000
0010
0100
0000
1010
0001
0100
0010
1000
0100
0010
0100
1001
0010
,
0100
1000
0010
0000
0101
1000
0010
1000
0100
0010
0001
0100
1010
0001
1000
0010
,
0100
0000
0101
0000
0010
0100
0001
0010
0100
1000
0011
0100
0001
1000
0100
0000
,
1001
0000
0001
0010
1100
0000
0010
1000
0101
0000
0010
0000
0010
0000
1100
0000
,
0001
1000
0110
0000
1000
0100
0011
0000
1000
0000
0101
0000
1100
0000
0010
0100
,
1001
0000
0100
0001
1010
0000
0001
0000
1100
0000
0101
0000
1000
0000
0110
0000
,
0001
0000
1010
0110
1000
0000
0110
0000
1001
0000
0010
0000
1100
0000
0001
1000
,
0101
0000
0010
0000
1100
0000
0110
0000
0001
0000
1010
0000
0001
0000
0110
1100
,
0010
0000
1010
0000
1001
0000
0010
0000
0101
0000
1000
0001
0110
0000
1000
0000
,
0110
0000
0101
0000
0010
1000
0101
0000
1000
0000
0011
0000
1000
0000
0101
0000
,
1001
0000
0010
0000
1100
0000
0001
0000
1010
0000
0100
0010
1001
0000
0101
0000
,
0010
0001
1100
0000
0010
0000
0101
0000
1000
0000
0001
0000
1100
0000
0010
0000
,
0101
0000
1000
0000
0011
0000
0100
0001
1010
0000
0010
0100
1001
0000
0100
0001
,
1010
0100
0011
1010
1001
0010
0101
0010
,
1100
0000
0001
1000
0100
0000
0101
0000
0010
0000
1001
0000
0100
0000
1010
0000
,
0100
0010
1001
0000
0010
0000
0100
0000
,
0001
1000
0001
1000
0001
1000
1010
0100
,
1001
0000
1000
0110
0011
0000
1010
0101
,
0000
0001
0000
1100
0101
1010
0011
0000
,
1100
0001
0110
1001
0100
0101
1000
0110
,
0001
0000
1100
0000
0101
0000
0010
0100
1001
0000
0000
0000
1010
0000
0000
0000
,
0011
0000
0100
0000
1000
0000
0101
0000
0010
0000
0101
0000
1000
0000
0100
1000
,
0011
1010
0101
1000
0011
1100
0101
1000
,
0100
0010
0100
0000
1000
0000
0001
0000
0100
0000
0011
0000
1100
0100
0101
0100
,
1001
0000
1010
0110
1001
0011
1000
0101
,
0010
1100
0001
1010
0011
0110
1100
0000
,
0101
1100
0011
1010
0110
1001
0000
0110
,
1000
0001
1010
0100
1001
0010
0101
1100
,
0011
1000
0001
1010
0100
1010
0000
0101
,
0011
0000
1100
0000
0101
0000
1100
0000
1001
0000
0110
0000
1010
0000
0001
1000
,
0100
0000
1001
0000
0000
0000
1001
0000
0000
0000
1001
0000
0011
0000
1000
0001
,
0110
0110
1100
0101
1001
0011
1010
0101
,
1000
0000
0001
0000
0010
0000
1100
0000
0001
0000
0100
0001
1010
0000
0000
0000
,
0001
1000
0110
0011
0100
1001
0010
0101
,
0010
0000
1100
0000
0010
0001
1000
0100
1001
0000
0000
0000
0001
0000
0110
0000
,
1100
0000
0011
0000
0100
0000
1010
0001
1000
0000
0101
0000
1100
0000
0011
0000
,
1010
0110
1001
1100
1001
0101
1001
0011
,
1010
0000
0011
0000
0100
0000
1010
0000
0001
0000
1100
0000
0011
0000
0010
0010
,
1001
0100
0010
1000
0100
1000
0001
1000
0110
0001
0100
0001
1000
0100
0011
1000
,
0100
1000
0001
1000
0100
0010
1001
0100
0010
0100
1001
0010
0101
1000
0100
0000
,
0011
0100
1010
0101
1100
0101
1001
0110
,
1001
0000
0100
0000
1010
0010
0010
0010
1001
0100
0010
0001
0100
0001
1000
0001
,
0110
1000
0001
1000
0100
1000
0011
0100
1000
0100
0010
0100
1000
0010
0100
0001
,
0110
1000
0001
0100
1010
0001
0100
0000
1001
0000
0100
0000
0011
0010
1100
0001
,
0110
1000
0101
0000
1010
0000
0011
0000
1010
0000
0100
0000
0011
0000
0100
0000
,
1001
0100
0010
0001
1100
0010
0001
0100
0011
1000
0001
1000
0100
0010
0101
1000
,
0001
0100
0011
1000
0100
0010
1001
0100
0010
0001
1000
0010
0101
1000
0001
0100
,
1010
0001
0100
0010
1001
0100
0010
1000
0010
0100
0011
1000
0100
0010
1001
0010
,
0100
0001
1000
0001
1010
0010
0010
0010
1001
0010
0100
1000
0011
0100
0001
1000
,
0110
0001
1000
0001
0100
0010
1001
0100
0010
0001
1100
0010
0001
1000
0011
0100
,
1000
0001
0100
0010
1001
0010
0100
0001
1010
0100
0001
0010
1100
1100
1100
0001
,
1100
0010
0101
0000
1001
0110
1001
0000
1100
0011
1100
0000
0101
1010
0101
0010
,
1001
0100
0010
0100
1001
0010
1000
0001
1100
0010
0001
1000
0010
0100
1001
0010
,
0100
0010
1001
0100
0010
1000
0101
0010
1000
0001
0010
0001
1100
0010
0001
0010
,
1100
0001
1000
0010
0101
1000
0100
0011
1000
0010
1100
0001
0010
0101
0010
1000
,
0110
0001
1000
0110
1001
0000
1001
1001
0110
1000
0010
1000
0101
0010
1000
0100
,
0011
0100
1000
1000
0010
0010
0100
0100
0001
0001
0010
0010
0100
0100
1000
1000
,
0001
0001
0100
0100
0011
0000
1010
0000
0001
0010
0100
1000
0010
0000
0101
0000
,
1100
0000
0011
0000
1010
0000
0110
0000
0101
0010
1100
0000
0110
0000
0011
0100
,
1001
0000
0001
0110
0011
1000
0110
1001
,
0100
0011
1000
0110
0001
1100
1001
0100
,
0011
0000
1000
0010
0101
0000
1000
0101
1100
0000
0011
0000
0000
0000
1010
0000
,
0000
0000
0101
0000
1100
0000
0101
0010
1001
0000
0000
0000
0001
0000
0100
0010
,
1000
0100
0010
0001
0100
0010
1001
0000
0100
0000
1010
0000
0001
0000
0110
1000
,
0001
0100
0010
0000
1001
0000
0000
0000
1000
0100
0010
0100
1000
0001
0100
0001
,
1010
0100
1001
0000
0000
0000
1010
0000
0000
0000
0011
0000
0000
0000
0010
0000
,
1001
0101
1100
0011
1010
0110
1001
0011
,
0110
0000
1100
0000
0101
0000
1010
0000
0110
0000
1100
0000
0011
0000
1001
0100
,
0011
1000
0110
0001
1010
0100
1001
0010
1100
0001
0110
1000
0011
0100
1010
0001
,
0110
1000
0101
1000
0110
0010
1010
0010
1001
0000
1100
0000
0011
0000
1010
0000
,
0110
0101
1100
0110
1010
0101
0011
0110
,
1010
0000
0101
0000
1001
0010
0100
1000
0010
0100
0001
1000
0110
0001
1100
0001
,
1010
0100
0011
0000
1100
0010
1001
0100
0010
0100
1001
0010
0100
0010
1001
0100
,
0011
1010
0101
0110
1100
0011
1010
1001
,
0101
0011
1100
0101
0110
0011
1001
1100
,
0101
0110
0011
1010
0101
1100
0110
1010
,
0011
0100
1001
0010
1100
0010
0101
1000
0110
0000
0011
0000
1100
0000
0101
0000
,
0110
0000
1010
0000
0011
0000
1100
0000
0101
0000
1010
0010
1001
0000
1100
0000
,
0101
0000
0110
0000
1001
0100
0010
0001
0100
0010
1000
0001
0110
1000
0101
0010
,
1100
0010
1001
0000
0110
0000
0011
0000
1001
0010
0100
0001
0010
0001
1000
0001
,
0110
1000
0010
0100
0001
0010
0100
0010
1001
0100
0010
1000
0100
1000
0011
0100
,
1000
0001
0100
0001
1010
0100
0001
0100
1010
0001
0100
0010
1001
0100
0010
0001
,
1000
0010
0100
0001
1010
0100
0001
0010
0100
1000
0011
0100
1000
0001
0100
0010
,
1001
0010
0100
1000
0011
0001
0001
0001
1010
0100
0001
0100
0010
1000
0100
0010
,
1001
0100
0010
0001
1000
0010
0101
1000
0010
0100
0001
0010
1100
0010
0001
0100
,
1010
0100
0001
1000
0110
1000
0001
0100
0010
1000
0100
0010
1001
0010
0100
0001
,
1000
0100
0011
1000
0100
0010
0101
1000
0010
0100
0010
1000
0001
0110
0000
0000
,
1001
0010
0000
0000
,
0000
0000
0000
0000
,
0000
0000
0000
0000
0000
0000
0000
0011
,
0000
0000
0000
0000
,
0000
0000
0000
0000
0000
0000
0000
0000
0000
1000
0100
0010
1001
0000
0000
0000
0000
0000
1000
0000
0000
0000
0000
0000
,
1000
0010
0100
0001
0000
0010
0001
1000
,
0101
0000
0000
0000
0001
0000
0000
0000
1100
0011
0000
0000
1010
0000
0110
1001
,
0000
1001
0101
1100
0011
0000
0100
0000
,
0010
0000
0000
0000
0000
0000
1000
0000
0000
0000
0000
0000
0000
0000
0000
0000
0011
0000
0000
0000
0000
0000
0000
0000
0000
0000
0000
0000
0000
0000
0000
0000
0100
0000
0000
0000
0000
0000
0000
0000
0000
0000
0000
0000
0000
0000
0000
0000
0001
0000
0000
0000
0000
0000
0000
0000
0000
0000
0000
0000
0000
0000
0000
0000
1000
0000
0000
0000
0000
0000
0000
0000
0000
0000
0000
0000
0000
0000
0000
0000
0100
0000
0000
0000
0000
0000
0000
0000
0000
0000
0000
0000
0000
0001
0000
0000
0000
0000
0000
0010
0000
0000
0000
0000
0000
0000
0000
0000
0000
0000
0000
0000
1000
0000
0000
0000
0000
0000
0000
0000
0000
0000
0000
0000
0000
0000
0000
0000
0001
0000
0000
0000
0000
0000
0000
0000
0000
0000
0000
0000
0000
0000
0000
0000
1000
0000
0000
0000
0000
0000
0000
0000
0000
0000
0000
0000
0000
0000
0000
0000
0100
0000
0000
0000
0000
0000
0000
0000
0000
0000
0000
0000
0000
0000
0000
0000
0010
0000
0000
0000
0000
0000
0000
0000
0000
0000
0000
0000
0000
0000
0000
0000
,
1001
0000
0000
0000
1100
0000
0000
0000
0101
0101
0000
0000
1000
0000
0011
0000
,
0000
0000
1010
0000
1001
0000
0100
0000
0011
1000
0100
1010
0001
0100
0011
1000
,
0100
0000
0000
1010
0000
0000
0001
0000
0000
0010
0000
0000
1100
0000
0000
0001
0000
0000
0110
0000
0000
1000
0000
0000
0011
0000
0100
0000
0001
0000
1000
0000
0100
0000
0010
0000
1001
0000
0000
0000
0000
0000
0100
0000
0000
0000
0000
0000
,
1010
0000
0100
0000
0011
0000
0100
1001
0110
0000
1010
0000
0100
0011
1000
0100
,
1001
0010
0100
0011
1001
0000
0100
0000
0011
0100
1000
0101
0010
1001
0100
0010
,
0101
1000
0110
0001
0100
1010
0001
1100
0001
0100
1010
0001
0110
0001
1100
0010
,
1001
0100
0010
0101
1000
0110
0001
1000
0011
0100
1010
0001
1000
0110
1000
0101
,
0010
0100
1001
0010
1100
0001
0110
1000
0101
0010
0100
1001
0010
1100
0001
0010
,
1100
0001
0010
0100
1000
0010
1001
0100
0010
0001
0100
0010
0100
0001
1000
0100
0010
0100
1000
0010
0100
0001
0010
0100
,
1001
0000
0000
0000
0000
0000
0000
0000
0000
0000
0000
0000
0000
0000
0000
0000
0000
0000
0000
0000
1000
0001
0010
0100
1001
0000
0000
0000
1010
0000
0000
0000
,
0000
0000
0000
0011
0000
0000
1000
0000
0000
0001
0000
0000
0100
0000
0000
0000
0000
0000
1010
0000
0001
0000
1100
0000
,
0011
0000
0100
0000
0001
0000
1010
0000
0100
0000
0010
0000
0100
0000
1000
0110
0001
0000
0100
0000
0010
0101
1000
0000
,
0100
0000
0010
0000
1000
0000
0101
0000
0010
0000
1000
0000
0001
0000
0110
0000
1000
0000
0001
0000
0100
1010
0001
0000
,
0100
0000
0000
0000
0010
0000
1100
0000
0001
0000
0000
0000
0110
0000
0000
0000
1000
0000
0011
0000
0100
0000
0000
0000
1001
0000
0000
0000
0000
0000
0000
0000
0000
0000
0000
0000
0101
0000
0000
0000
0000
0000
0000
0000
0000
0101
0000
0000
,
1010
0000
0011
0100
1000
0001
1100
0010
1000
0100
0011
1100
0101
1000
0010
0100
,
1001
0000
0000
0000
0000
0000
0010
0100
0001
1000
0100
0010
0100
0010
0001
0100
0001
1000
0010
0100
0001
1010
0100
0001
,
1000
0100
0010
1001
0010
0100
0001
1000
0100
1000
0010
1000
0001
0100
0010
1000
0100
0010
1001
0100
0010
0001
1000
0100
,
0011
1000
0100
0010
0001
0100
0010
1000
0100
0011
1000
0100
0010
0001
0100
1010
0001
0100
0010
1000
0100
0010
0001
0100
,
1001
0000
0000
0000
0000
0000
1001
0000
0000
0000
0000
0000
0010
0001
0100
0001
1000
0010
0100
0001
0010
1100
0001
0010
,
0100
1000
0010
0101
1000
0010
0100
0001
0100
0010
1000
0100
0011
0000
0000
1010
0000
0000
1001
0000
0000
0000
0000
0000
,
0010
0000
0000
0010
0000
0000
0101
0000
0000
0000
0000
0000
1000
0000
0100
0000
0010
0000
1001
0000
0100
0000
0010
0000
1000
0000
0000
0101
0000
0000
1010
0000
0000
0000
0000
0000
0000
0000
0000
0000
0000
0000
0000
0000
0000
0000
0000
0000
,
0100
0001
1000
0100
0011
0100
1000
0010
1000
0001
0100
0010
1001
0100
0010
0001
,
0100
0001
1000
0100
0011
1000
0100
0010
0001
0100
0010
1000
0110
0001
0100
0010
,
1000
0100
0010
0100
1001
0010
0100
1000
0001
0100
0010
1000
0011
0011
0011
1000
,
0101
1000
0010
0100
1001
0010
0100
1000
0011
0100
1000
0001
0110
1000
0101
0010
,
1000
0100
0011
1000
0100
0010
0001
0010
1100
0001
1000
0010
0101
1000
0010
0100
,
1001
0010
0100
1000
0010
0010
0101
0000
0000
0000
1010
0000
0000
0000
0000
0000
,
1001
0000
0100
1000
0011
0000
1100
0000
0101
0000
0010
1000
0101
0000
1010
0000
,
0001
0000
1100
0000
0010
0010
0010
0010
0101
0000
1000
0001
0110
0000
1001
0000
,
1010
0000
0100
1000
0011
0000
0110
0000
1000
0000
0011
0000
1000
1000
1000
1000
,
0110
0000
0001
1000
0011
0000
0110
0000
0101
0000
1000
0100
0011
0000
1100
0000
,
0001
0000
1010
0000
0100
0100
0100
0100
0011
0000
1000
0010
0101
0000
1010
0000
,
0011
0000
0100
0010
1001
0000
1100
0000
0010
0000
0101
0000
1010
0000
0011
1100
,
0011
0000
0100
0001
1010
0000
0100
0000
1001
0000
0010
0100
0011
0000
1100
0000
,
0001
1000
0101
0000
0010
0000
1100
0000
1010
0000
0100
1000
0011
0000
0100
0000
,
1010
0000
0001
1000
0110
0000
0011
0000
0100
0010
1001
0000
0100
0000
1010
0000
,
1100
0000
0010
0100
1001
0000
0010
0000
0101
0000
1000
0100
0011
0000
0110
0000
,
0001
0100
1010
0000
0001
0000
1010
0000
0011
0000
1000
0010
0101
0000
1000
0000
,
0110
0000
0001
0010
1100
0000
0101
0000
0000
0000
1100
0000
0010
0010
0010
0010
,
1001
0000
0101
1000
0011
1100
0001
0110
,
0001
1010
0001
1100
0001
1010
0101
0000
,
0011
0100
1001
0110
0001
1100
0001
1010
,
0011
0110
1001
0000
0011
1000
0101
1010
,
0001
1100
0001
0110
0001
1010
0001
0110
,
0011
0000
1001
0010
0101
1100
0001
1010
,
0001
0000
0110
0000
0011
0000
1010
0000
1001
0010
0100
1000
0011
0100
1000
0010
,
0101
1000
0100
1010
0001
0100
1001
0010
0100
1000
0011
0100
1000
0001
0100
0010
,
1001
0100
0010
1000
0101
0010
1000
0100
0011
1000
0100
1001
0010
0100
1001
0010
,
0001
0100
1010
0100
0001
0001
0001
0001
1100
0010
0100
0001
1010
0100
0001
1000
,
0101
0010
1000
0110
0001
0010
1100
0001
0010
0100
1001
0010
0100
0100
1000
0001
,
1100
0010
0001
0100
1010
0001
0100
0010
1001
0100
0010
0101
1000
0001
1100
0010
,
0001
1000
0110
0001
1000
1000
1000
0000
0110
1000
0001
0100
0011
1000
0100
0010
,
1001
0100
0010
1100
0001
0100
1010
0001
0100
0010
1001
0100
0011
1000
0100
0011
,
1100
0001
0010
0100
1010
0001
1000
0010
0101
1000
0010
0100
0001
0010
1100
0001
,
0010
0100
1010
0001
1100
0010
0100
0100
1001
0100
0010
0001
1010
0100
0001
0010
,
1100
0001
0010
0100
1001
0100
0011
0100
1000
0001
0110
1000
0001
0100
0010
1000
,
0101
0010
1000
0100
0011
1000
0100
0010
1001
0010
0100
0001
1010
0001
0110
1000
,
0001
0010
1100
0001
0010
0010
0010
0010
1001
0100
0010
1000
0001
0100
0010
0100
,
0001
0010
0100
1000
0010
1000
0001
0100
0001
1000
0010
1000
0100
1000
0010
0100
,
0001
0000
0000
0000
0000
0000
0000
0000
0000
0000
0000
0000
0010
0000
0000
0000
0000
0000
0000
0000
0000
0000
0000
0000
0100
0000
0000
0000
0000
0000
0000
0000
0000
0000
0000
0000
1000
0000
0000
0000
0000
0000
0000
0000
0000
0000
0000
0000
0100
0000
0000
0000
0000
0000
0000
0000
0000
0000
0000
0000
0010
0000
0000
0000
0000
0000
0000
0000
0000
0000
0000
0000
0001
0000
0000
0000
0000
0000
0000
0000
0000
0000
0000
0000
0100
0000
0000
0000
0000
0000
0000
0000
0000
0000
0000
0000
0010
0000
0000
0000
0000
0000
0000
0000
0000
0000
0000
0000
0020
0000
0000
0000
0000
0000
0000
0000
0000
0000
0000
0000
0000
0000
0000
0000
0000
0000
0000
0000
0000
0000
0000
0000
0000
0000
0000
0000
0000
0000
0000
0000
0000
0000
0000
0000
0030
0000
0000
0000
0000
0000
0000
0000
0000
0000
0000
0000
0010
0000
0000
0000
0000
0000
0000
0000
0000
0000
0100
0000
0000
0000
0000
0000
0000
0000
0000
0000
0001
0000
0000
0000
0000
0000
0000
0000
0000
0000
0100
0000
0000
0000
0000
0000
,
0000
0000
0000
0000
0010
0000
0000
0000
0000
0000
0000
0000
0000
0000
0100
0000
0000
0000
0000
0000
0000
0000
0000
0000
0001
0000
0000
0000
0000
0000
0000
0000
0000
0000
0100
0000
0000
0000
0000
0000
0000
0000
0000
0000
0010
0000
0000
0000
0000
0000
0000
0000
0000
0000
0100
0000
0000
0000
0000
0000
0000
0000
0000
0000
0001
0000
0000
0000
0000
0000
0000
0000
0000
0000
0100
0000
0000
0000
0000
0000
0000
0000
0000
0000
0010
0000
0000
0000
0000
0000
0000
0000
0000
0000
0100
0000
0000
0000
0000
0000
0000
0000
0000
0000
0001
0000
0000
0000
0000
0000
0000
0000
0000
0000
0100
0000
0000
0000
0000
0000
0000
0000
0000
0000
0010
0000
0000
0000
0000
0000
0000
0000
0000
0000
0100
0000
0000
0000
0000
0000
0000
0000
0000
0000
0001
0000
0000
0000
0000
0000
0000
0000
0000
0000
0100
0000
0000
0000
0000
0000
0000
0000
0000
0000
0010
0000
0000
0000
0000
0000
0000
0000
0000
0000
0100
0000
0000
0000
0000
0000
0000
0000
0000
0000
0001
0000
0000
0000
0000
0000
0000
0000
,
0000
0000
2000
0000
0000
0000
0000
0000
0000
0000
0000
0000
0000
0000
0000
0000
0000
0000
0000
0000
0000
0000
0000
0000
0000
0000
0000
0000
0000
0000
0000
0000
0000
0000
0000
0000
0000
0000
0000
0000
0000
0000
0000
0000
0000
0000
0000
0000
0000
0000
0000
0000
0000
0000
0000
0000
0000
0000
0000
0000
0000
0000
0000
0000
3100
0000
0000
0000
0000
0000
0000
0000
0000
0000
0000
0000
0000
0000
0000
0000
0010
0000
0000
0000
0000
0000
0000
0000
0000
0000
0000
0000
0000
0000
0000
0000
0001
0000
0000
0000
0000
0000
0000
0000
0100
0000
0000
0000
0000
0000
0000
0000
0010
0000
0000
0000
0000
0000
0000
0000
1000
0000
0000
0000
0000
0000
0000
0000
0000
0000
0000
0000
0100
0000
0000
0000
0000
0000
0000
0000
0000
0000
0000
0000
0010
0000
0000
0000
0000
0000
0000
0000
0000
0000
0000
0000
0001
0000
0000
0000
0000
0000
0000
0000
0000
0000
0000
0000
1000
0000
0000
0000
0000
0000
0000
0000
0000
0000
0000
0000
0010
0000
0000
0000
0000
0000
0000
0000
0000
0000
0000
0000
,
0100
0000
0000
0001
0000
0000
1000
0000
0000
0100
0000
0000
0010
0000
0000
0000
0000
0000
0002
0000
0000
0000
0000
0000
0000
0000
0000
0000
0000
0000
0000
0000
0000
0000
0000
0000
0000
0000
0000
0000
0000
0000
0000
0000
1000
0003
0000
0000
,
0100
0000
2000
0000
0000
0000
0000
0000
0000
0000
0000
0000
0000
0000
0000
3200
0000
0000
0320
0000
0000
0032
0000
0000
,
0203
0000
0000
0000
0000
0000
0000
0320
,
0000
1030
0010
0100
0001
0000
0020
0000
,
0000
0000
0032
0000
,
0000
0000
0000
0000
0000
0000
0000
0000
0000
0000
0000
0000
1003
0000
0000
0100
0000
0000
0000
0000
0000
0000
1000
0000
0000
0100
0000
0000
0000
0000
0000
0000
1000
0000
0000
0100
0000
0000
0000
0000
0000
0000
1000
0000
0000
0100
0000
0000
,
0000
0000
0000
0000
0020
0000
0000
0000
0000
0000
0000
0000
0000
0000
0000
0000
0000
0000
0130
0000
0000
1000
0000
0000
0001
0000
0010
0000
0100
0000
1000
0000
0000
0200
0000
0000
0000
0000
0000
0000
0000
0000
0000
0000
0000
0000
0000
0000
,
0000
0000
0000
0000
0000
0000
0000
0300
0100
0000
1000
0001
1000
0000
0010
0100
,
0001
1000
0200
0000
0000
0000
0000
0300
1001
0100
0010
0001
0100
0010
1000
0001
,
0010
0100
0010
0001
1000
0010
0100
0001
0010
0100
1000
0001
1000
0010
0100
0001
,
0010
0000
0000
0000
0000
0000
0000
0000
0000
0000
0000
0000
0100
0000
0000
0000
0000
0000
0000
0000
0000
0000
0000
0000
1000
0000
0000
0000
0000
0000
0000
0000
0000
0000
0000
0000
0010
0000
0000
0000
0000
0000
0000
0000
0000
0000
0000
0000
0100
0000
0000
0000
0000
0000
0000
0000
0000
0000
0000
0000
0001
0000
0000
0000
0000
0000
0000
0000
0000
0000
0000
0000
0010
0000
0000
0000
0000
0000
0000
0000
0000
0000
0000
0000
0001
0000
0000
0000
0000
0000
0000
0000
0000
0000
0000
0000
0100
0000
0000
0000
0000
0000
0000
0000
0000
0000
0000
0000
0010
0000
0000
0000
0000
0000
0000
0000
0000
0000
0000
1000
0000
0000
0000
0000
0000
0000
0000
0000
0000
0000
0001
0000
0000
0000
0000
0000
0000
0000
0000
0000
0000
0100
0000
0000
0000
0000
0000
0000
0000
0000
0001
0000
0000
0000
0000
0000
0000
0000
0000
0010
0000
0000
0000
0000
0000
0000
0000
0000
0100
0000
0000
0000
0000
0000
0000
0000
0000
1000
0000
0000
0000
0000
0000
0000
0000
0000
0100
0000
0000
0000
0000
0000
,
0000
0000
0000
0000
0010
0000
0000
0000
0000
0000
0000
0000
0000
0000
0001
0000
0000
0000
0000
0000
0000
0000
0000
0000
0100
0000
0000
0000
0000
0000
0000
0000
0000
0010
0000
0000
0000
0000
0000
0000
0000
0000
1000
0000
0000
0000
0000
0000
0000
0000
0000
0010
0000
0000
0000
0000
0000
0000
0000
0000
0100
0000
0000
0000
0000
0000
0000
0000
0000
0010
0000
0000
0000
0000
0000
0000
0000
0000
1000
0000
0000
0000
0000
0000
0000
0000
0000
0000
0001
0000
0000
0000
0000
0000
0000
0000
0000
0000
0010
0000
0000
0000
0000
0000
0000
0000
0000
0000
0001
0000
0000
0000
0000
0000
0000
0000
0000
0100
0000
0000
0000
0000
0000
0000
0000
0000
0010
0000
0000
0000
0000
0000
0000
0000
0000
1000
0000
0000
0000
0000
0000
0000
0000
0000
0100
0000
0000
0000
0000
0000
0000
0000
0000
0000
0010
0000
0000
0000
0000
0000
0000
0000
0000
0000
0001
0000
0000
0000
0000
0000
0000
0000
0000
0000
0100
0000
0000
0000
0000
0000
0000
0000
0000
0000
0010
0000
0000
0000
0000
0000
0000
0000
,
0000
0000
1000
0000
0000
0000
0000
0000
0000
0000
0000
0000
0100
0000
0000
0000
0000
0000
0000
0000
0000
1000
0000
0000
0000
0000
0000
0000
0000
0000
0001
0000
0000
0000
0000
0000
0000
0000
0000
0100
0000
0000
0000
0000
0000
0000
0000
0000
0010
0000
0000
0000
0000
0000
0000
0000
0000
0000
1000
0000
0000
0000
0000
0000
0000
0000
0000
0000
0001
0000
0000
0000
0000
0000
0000
0000
0000
0000
0010
0000
0000
0000
0000
0000
0000
0000
0000
0000
0100
0000
0000
0000
0000
0000
0000
0000
0000
0000
0010
0000
0000
0000
0000
0000
0000
0000
0000
0000
0100
0000
0000
0000
0000
0000
0000
0000
0000
0000
1000
0000
0000
0000
0000
0000
0000
0000
0000
0000
0010
0000
0000
0000
0000
0000
0000
0000
0100
0000
0000
0000
0000
0000
0000
0000
0100
0000
0000
0000
0000
0000
0000
0000
0001
0000
0000
0000
0000
0000
0000
0000
0010
0000
0000
0000
0000
0000
0000
0000
0100
0000
0000
0000
0000
0000
0000
0000
0000
1000
0000
0000
0000
0000
0000
0000
0000
0000
0001
0000
0000
0000
0000
0000
,
0000
0000
0000
0010
0000
0000
0000
0000
0000
0000
0000
0000
0100
0000
0000
0000
0000
0000
0000
0000
1000
0000
0000
0000
0000
0000
0000
0000
0001
0000
0000
0000
0000
0000
0000
0000
0100
0000
0000
0000
0000
0000
0000
0000
0000
0000
0000
0000
0010
0000
0000
0000
0000
0000
0000
0000
0000
0000
0000
0000
2000
0000
0000
0000
0000
0000
0000
0000
0000
0000
0000
0000
0000
0000
0000
0000
0000
0000
0000
0000
0000
0000
0000
0000
0000
0000
0000
0000
0000
0000
0000
0000
0000
0000
0000
0000
0000
0000
0000
0000
0000
0000
0000
0000
0000
0000
0000
0000
0000
0000
0000
0000
0000
0000
0000
0000
0000
0000
0000
0000
0000
0000
0000
0000
0000
0000
0000
0000
0000
0000
0000
0000
0000
0000
0000
0000
0000
0000
0000
0000
0000
0000
0000
0000
0000
0000
0000
0000
0000
0000
0000
0000
0000
0000
0000
0000
0000
0000
0000
0000
0000
0000
0000
0000
0000
0000
0000
0000
0001
0000
0000
0000
0000
0000
0000
0000
0000
0000
0000
0000
0000
0000
0000
0000
0000
0000
0000
0000
0000
0000
0000
0000
,
0020
0000
0000
0000
0000
3030
1000
0001
,
0010
0000
0001
0000
0001
0000
0200
0000
0000
0000
0000
0300
0200
0000
0000
0300
,
0100
2000
0000
0000
3010
0100
0100
0001
,
0010
0100
0020
0000
0031
0002
0000
0000
,
0103
0000
0000
0000
0010
0000
1000
0001
0010
0000
0100
0010
0001
0100
0010
1000
,
0200
0000
0000
1300
0001
0100
0001
0020
,
0000
0000
1032
0000
,
0000
0000
0000
0000
0000
0000
0000
0013
0000
0000
0000
0100
0000
0000
0000
1000
0000
0000
0010
0000
0000
0100
0000
0000
0001
0000
0000
0010
0000
0000
0001
0000
0000
0100
0000
0000
0010
0000
0000
1000
0000
0000
0001
0000
0000
1000
0000
0000
,
0010
1000
0001
0010
0200
0000
0000
0000
0000
0000
0000
0000
0000
0000
0000
0000
,
1300
0000
0000
0002
0000
0000
0000
0000
0000
0000
0000
0000
0000
0000
0000
0000
0000
0000
0013
0100
0010
0001
0100
0001
,
1000
0010
0100
0001
1000
0001
0010
0001
0100
0001
0010
0100
1000
0010
0100
0001
1000
0100
0020
0000
0000
0000
0000
0000
,
0000
0000
0000
0000
0000
0000
0000
0000
0031
0000
0100
0000
0001
0000
2000
0000
0000
0000
0000
0000
0000
0000
0000
0000
0000
0000
0000
0000
0000
0000
0000
0000
0000
0000
0000
0000
0000
0000
0000
0000
0000
0000
3010
0000
0000
0100
0000
0000
,
0001
0010
0100
0010
0001
1000
0010
1000
0100
1000
0001
0100
0010
0100
0001
1000
,
0110
0000
0000
0001
0000
0000
0010
0000
0000
0100
0000
0000
0010
0000
0001
0000
0010
0000
0100
0000
1000
0000
0010
0000
0100
0000
0010
0000
1000
0000
0001
0000
0010
0000
0001
0000
1000
0000
0010
0000
0100
0000
0001
0000
0100
0000
0010
0000
,
1000
0000
0000
0000
0000
0000
0000
0000
0100
0000
0000
0000
0000
0000
0000
0000
0010
0000
0000
0000
0000
0000
0000
0000
0100
0000
0000
0000
0000
0000
0000
0000
1000
0000
0000
0000
0000
0000
0000
0000
0000
0000
0001
0000
0000
0000
0000
0000
0000
0000
0000
0000
0000
0000
0010
0000
0000
0000
0000
0000
0000
0000
0000
0000
0100
0000
0000
0000
0000
0000
0000
0000
1000
0000
0000
0000
0000
0000
0000
0000
0001
0000
0000
0000
0000
0000
0000
0000
0100
0000
0000
0000
0000
0000
0000
0000
0010
0000
0000
0000
0000
0000
0000
0000
0000
0000
0000
0000
1000
0000
0000
0000
0000
0000
0000
0000
0000
0000
0000
0000
0200
0000
0000
0000
0000
0000
0000
0000
0000
0000
0000
0000
0000
0000
0000
0000
0000
0000
0000
0000
0000
0000
0000
0000
0000
0000
0000
0000
0000
0000
0000
0000
0000
0000
0000
0000
0000
0000
0000
0000
0000
0000
0000
0000
0000
0000
0000
0000
0000
0000
0000
0000
0000
0000
0000
0000
0000
0000
0000
0000
0000
0000
0000
0000
0000
0000
0000
0000
0000
0000
0000
0000
,
0000
0000
1300
0000
0001
0000
0100
0000
0001
0000
0010
0000
0100
0000
1000
0000
0010
0000
1000
0000
0100
0000
1000
0000
0001
1000
0000
0000
0010
0000
0000
0000
,
0200
0320
0000
0000
,
2030
0000
0000
0000
3001
0100
0010
1000
,
0200
0000
0320
0000
,
0000
0000
1032
0000
,
0000
0000
0103
0020
0000
0000
1030
0200
,
0000
0000
0000
0000
0000
0000
1300
0020
,
0000
0000
0000
0000
1030
0000
0002
0000
0000
0000
0000
0000
0103
0001
1000
0001
,
0010
0000
0000
0000
0001
0000
0000
0000
0100
0000
0000
0000
0001
0000
0000
0000
0010
0000
0000
0000
0001
0000
0000
0000
1000
0000
0000
0000
0001
0000
0000
0000
0100
0000
0000
0001
0000
0000
1000
0000
0000
0001
0000
0000
0100
0000
0000
0001
0000
0000
0010
0000
0000
0001
0000
0000
1000
0000
0000
0001
0000
0000
0010
0000
,
0000
0000
0000
0001
0000
0000
0000
0000
0000
0000
0000
0000
0200
0000
0000
0000
0000
0000
0000
0000
0000
0000
0000
0000
0000
0000
0000
0000
0000
0000
0000
0000
0000
0000
0000
0000
0000
0000
0000
0000
0000
0000
0000
0000
0000
0000
0000
0000
0000
0000
0000
0000
0000
0000
0000
0000
0000
0000
0000
0000
0000
0000
0000
0000
0000
0000
0000
0000
0000
0000
0000
0000
0000
0000
0000
0000
0000
0000
0000
0000
0000
0000
0000
0000
0000
0000
0000
0000
0000
0000
0000
0000
0000
0000
0000
0000
0310
0000
0000
0000
0000
0000
0000
0000
0000
0000
0000
0000
0100
0000
0000
0000
0000
0000
0000
0000
0000
0000
0000
0000
0010
0000
0000
0000
0000
0000
0000
0000
0000
0000
0000
0000
1000
0000
0000
0000
0000
0000
0000
0000
0000
0000
0000
0000
0010
0000
0000
0000
0000
0000
0000
0000
0000
0000
0000
0000
0100
0000
0000
0000
0000
0000
0000
0000
0000
0000
0000
0000
0001
0000
0000
0000
0000
0000
0000
0000
0100
0000
0000
0000
0000
0000
0000
0000
0010
0000
0000
0000
0000
0000
0000
0000
,
1000
0000
0000
0100
0000
0000
1000
0000
0001
0000
1000
0000
0020
0000
0000
0000
0000
0000
0000
0000
0000
0000
0000
0000
0230
0000
0000
0000
0000
0000
0000
0000
0000
0000
0000
0000
0000
0000
0000
0000
0000
0000
0000
0000
0000
0000
0000
0000
,
0301
0010
0100
0010
0100
1000
0010
0100
0001
0100
0001
1000
0100
0010
0001
1000
0001
0100
0020
0000
0000
0000
0000
0000
,
0000
0000
0000
0000
,
1030
0100
1000
0001
0100
0010
0100
0010
1000
0100
0010
0100
1000
0000
0000
0000
0000
0000
0110
0000
0000
0000
0000
0000
,
0001
0000
0000
0000
0100
0000
0011
0000
0000
0000
1010
0000
0001
0000
0001
1000
,
0200
0000
0000
0000
0321
0000
0000
0000
0032
0000
0100
0010
1000
0010
1203
0000
,
0000
0000
0320
0000
1000
0000
0000
0000
1031
0100
0010
0001
0100
0010
1000
0001
,
1010
0100
0001
0010
0100
1000
0011
0100
1000
0010
0101
1000
0001
0100
0010
1000
,
0110
0001
1000
0010
0101
1000
0010
0100
0001
0010
0100
0010
1001
0100
1000
0001
,
0100
0010
1001
0010
0100
0001
1010
0100
0001
0010
0100
1000
0011
0100
1000
0110
,
2001
0000
0010
0000
3101
1000
0101
0010
,
1100
0011
1001
0100
0011
1000
0101
1000
,
0120
0000
0001
0000
1130
0012
0100
0023
,
0001
0000
0000
0000
1000
0000
0000
0000
0131
1000
0001
1000
0010
1000
0001
0010
,
1100
0001
0010
0001
1000
0010
0101
1000
0100
0010
1001
0100
0010
1000
0001
0010
,
1100
0001
0100
0010
0101
1000
0010
0100
0001
0010
0001
1000
0101
0010
1000
0100
,
0010
0000
0000
0001
0000
0000
1100
0000
0000
0010
0000
0000
0001
0000
0000
1000
0000
0000
0100
0000
0000
1000
0000
0000
0010
0000
0000
0100
0000
0000
0001
0000
0000
0010
0000
0000
0101
0000
0000
1000
0000
0000
0001
0000
0010
0000
0100
0000
,
2001
0000
0000
0000
0010
3100
0010
1001
,
0100
1001
0020
0000
0100
0000
0132
0000
,
0103
0010
1001
0010
0100
0012
0000
0000
,
0000
0000
0000
0000
1003
0000
0000
0000
1010
0001
0010
0100
1001
0010
0100
0001
,
1000
0100
0011
0100
1000
0001
0110
1000
0001
0100
0010
1000
0101
0010
1000
0100
,
0011
1000
0100
0010
0001
0010
1100
0001
0010
0100
1001
0010
0100
1000
0001
0100
,
0011
1010
0110
1010
0100
0001
0010
0100
0010
0001
0100
0010
1000
0010
0101
1100
,
0011
1000
0100
0010
0001
0100
1000
0001
0010
0100
0001
0100
0010
1000
0010
0100
,
0001
1000
0100
0001
0100
0010
1000
0010
0001
0100
0010
0100
0001
0010
0100
1000
,
0101
0000
0000
0000
,
0000
0000
0000
0000
,
0000
0000
0000
0000
0000
0000
0000
0000
0110
0100
0100
0100
0011
1000
1000
1000
,
0110
1000
1000
0011
0100
0100
1100
1001
0110
0010
0010
0010
1100
0010
0010
0010
,
1001
0100
0100
0011
1000
1000
1001
0101
1010
0010
0010
0010
0101
1000
1000
1000
,
0011
0100
0100
1010
0100
0100
1100
1001
0110
0010
0010
1001
1100
0100
0100
0011
,
1100
1000
1000
0101
1000
1000
1100
0011
0110
0100
0100
0100
0011
0100
0100
0100
,
0011
1000
1000
0101
1010
0010
1010
0101
1100
1000
1000
1000
0011
0100
0100
0100
,
1010
0100
0100
0011
1100
1000
1001
0101
1010
0010
0010
0010
1001
0010
0010
0010
,
0101
1000
1000
0011
1100
0100
1100
0011
1001
1000
1000
0101
1010
0010
0010
1100
,
1001
1000
1000
0101
1010
1001
1100
0110
1001
0100
0010
0001
1100
0010
1000
0001
,
0010
0100
1000
0011
1010
0100
0001
1000
0010
0100
0001
1000
0110
0001
0100
0010
,
0100
0001
1000
0101
1100
0010
0100
1001
0011
0100
1000
0100
1010
0001
0100
0010
,
0100
0001
1000
0110
1001
0010
0001
1100
0011
1010
0100
1001
0110
1000
0001
0100
,
0010
1000
0100
0011
1001
0010
0100
1000
0101
1000
0100
0010
1001
0100
0010
1000
,
0011
0100
0010
1100
0001
0010
0101
1000
0110
0001
0100
0010
1001
0100
0010
1000
,
0011
0100
0001
1010
0100
0010
1001
0010
0101
1000
0010
0100
0011
1000
0100
0010
,
0101
1000
0010
1100
0001
1000
0110
1000
0101
0010
1000
0001
0110
1000
0010
0100
,
0011
0100
1000
0101
0010
0100
1010
0100
1001
0010
0100
1000
0011
0100
0001
1000
,
0110
0001
0100
1010
0001
0100
0011
1000
0110
0001
0100
0010
1100
0001
0010
0100
,
1001
0010
0100
0011
1000
0100
1010
0001
1100
0010
0100
0001
1010
0001
0100
0010
,
1100
0001
1000
0110
1001
0010
0101
1000
0011
0100
0001
1000
0110
0001
0100
0011
,
1000
0001
1010
0100
1001
0001
0001
0001
0101
1000
0010
0100
0011
1000
0100
1010
,
0001
0100
1001
0010
1100
0001
0100
0010
0101
1000
0010
0100
0011
1000
0100
1010
,
0001
1000
0110
0001
1100
0010
0100
0001
0110
1000
0100
0010
0101
1000
0010
1100
,
0011
1000
0110
0001
0110
1100
0110
0011
1010
0010
0010
0010
0110
0010
0010
0010
,
1010
0010
0010
0011
0010
0010
0011
1010
0101
0100
0100
0100
0110
0100
0100
0100
,
0101
0100
0100
1100
0100
0100
0110
1100
0011
0001
0001
0001
1001
0001
0001
0001
,
0101
0001
0001
1001
0001
0001
0101
0011
1100
1000
1000
1000
1001
1000
1000
1000
,
0110
0100
0100
1100
0100
0100
0101
1100
0011
0010
0110
0010
0011
0010
1010
0010
,
0110
0010
1010
0011
0010
0010
0011
1010
0101
0100
1100
0100
0110
0100
1100
0100
,
0101
0100
0101
1100
0100
0100
1100
0110
1001
1000
1010
1000
1100
1000
1001
1000
,
1100
1000
1010
1001
1000
1000
1010
1100
0011
0001
1001
0001
0101
0001
0011
0001
,
1100
1100
1100
1100
1100
1100
1100
1100
1001
0000
0011
0100
1010
0000
0001
1100
,
0010
0101
1000
0011
0101
0000
1010
0001
1100
0000
0011
0100
1010
0000
0001
0110
,
1000
0101
0010
1100
0101
0000
0010
0010
1001
0000
0110
0001
1100
0000
0100
0011
,
1000
0101
0010
1001
0110
0000
1010
0100
0011
0000
1100
0010
0101
0000
1000
0110
,
0001
1010
0100
0011
1100
1100
0101
0000
1100
0010
1001
0000
0100
0011
0100
1010
,
0001
1100
1010
0000
0101
1000
0011
0000
1010
0100
1001
0000
0010
1100
0001
1010
,
0100
0011
1010
0000
0001
1000
0110
0000
1100
0001
1010
0000
0100
0011
1000
0101
,
1000
0000
0110
0000
0011
0000
0000
0000
1100
0000
0010
0000
0101
0000
0000
0000
1010
0000
0000
0000
0011
0000
0000
0000
0100
0000
1001
0000
0010
1000
0011
0010
,
1100
0001
0100
0100
1001
0000
0000
0000
0110
0000
0001
0000
1010
0000
0000
0000
0100
0000
0011
0000
1000
0000
0101
0000
0010
0000
1100
0000
0101
0000
0000
0000
,
1010
0100
0011
0000
1100
0010
1001
0000
0100
1010
0001
0110
1000
0101
0011
0000
,
0100
0100
1001
0000
0110
1000
0011
0000
0100
1010
0001
1100
0010
1001
1010
0000
,
0101
1000
0011
0000
1010
0100
1001
0000
0010
1100
0001
1010
0100
1001
0110
0110
,
1100
0000
0011
1000
0110
0000
0001
1010
0100
1001
0010
1100
0011
0000
1010
0100
,
0011
0000
0110
1000
0101
0000
0010
1100
0001
1010
0100
0011
1001
0000
0100
1000
,
0011
0000
1010
0100
1001
0000
0010
1100
0001
0110
1000
0101
0011
0000
1010
0100
,
1001
0000
0000
0000
0100
0000
1000
0000
0011
0000
0000
0000
0100
0000
0001
0000
1100
0000
0101
0000
1000
0000
1000
0100
0011
0000
0000
0000
1010
0000
0011
0000
,
1001
0000
0100
0011
0000
0000
1000
0000
0001
1010
0000
0000
,
0101
0000
1000
0011
0000
0000
0110
0000
0001
1010
0101
0000
,
0101
0000
1000
0011
0000
0000
0100
0000
0010
1100
0011
1010
,
0101
0000
1000
0011
0000
0000
1001
0000
0001
1100
0010
0000
,
0110
0000
0010
0101
0000
0000
1100
0000
0010
1001
0110
0000
,
1100
0000
1000
0011
0000
0000
1010
0000
0010
0101
0000
0110
,
1001
0000
0001
1100
0000
0000
0010
0000
0010
0101
0000
0000
,
1100
0011
1100
0000
1100
0000
0010
1000
0010
0000
0010
0000
1000
0100
1000
0000
1000
0000
0100
0010
0100
0000
0100
0000
,
1001
0010
0100
0011
1000
0100
1010
0001
1100
0011
1010
0001
,
0110
1000
0100
0011
0100
0010
1001
0100
0010
0101
1000
0001
,
1100
0010
0100
1001
0010
0100
1010
0001
1100
0010
0101
1100
,
0110
1000
0001
1010
0100
0010
0101
1000
0011
1100
1010
0100
,
1001
0010
0001
1100
0010
0100
0001
1000
0100
1010
0011
0100
,
1010
0001
0010
1100
0001
1000
0101
0010
0100
1001
0010
0100
,
1000
0001
1000
0001
1000
0001
1000
0001
1000
0001
1000
0001
1000
0001
1000
0001
1000
0001
1000
0001
1000
0001
1000
0001
,
1100
0011
1100
0011
1100
0001
0010
0100
1001
0010
1000
0001
0110
1001
0110
1001
0110
0001
1000
0010
1100
0001
0010
0100
,
1001
1100
0011
0110
0101
1010
0110
1100
0011
0110
0101
0110
,
1010
0011
0101
0110
1100
0011
1001
0110
1001
1010
0011
0110
,
0101
1100
0110
1100
0011
1010
0110
1100
0011
0110
0101
1010
,
0011
0110
0101
1100
0110
1100
0011
0110
0101
1010
0011
0110
,
1001
0010
0100
1000
0001
0100
0001
0010
0001
1000
0100
0010
0100
1000
0010
0100
,
0001
0000
0000
1000
0000
0000
1000
0000
0000
0010
0000
0000
0010
0000
0000
0100
0000
0000
0100
0000
0000
0001
0000
0000
1000
0000
0100
0000
0010
0000
0100
0000
0010
0000
0001
0000
0010
0000
0100
0000
1000
0000
0010
0000
0100
0000
0001
0000
,
0010
0100
0010
0001
0100
0010
1000
0010
0100
0001
0010
0100
1000
0000
0010
0000
0100
0000
0100
0000
0001
0000
1000
0000
,
0100
0000
0000
0000
0000
0000
0000
0000
0010
0000
0000
0000
0000
0000
0000
0000
0001
0000
0000
0000
0000
0000
0000
0000
0100
0000
0000
0000
0000
0000
0000
0000
0010
0000
0000
0000
0000
0000
0000
0000
1000
0000
0000
0000
0000
0000
0000
0000
0001
0000
0000
0000
0000
0000
0010
0000
0000
0000
0000
0000
0100
0000
0000
0000
0000
0000
1000
0000
0000
0000
0000
0000
0001
0000
0000
0000
0000
0000
0100
0000
0000
0000
0000
0000
0010
0000
0000
0000
0000
0000
1000
0000
0000
0000
0000
0000
0001
0000
0000
0000
0000
0000
0000
0000
0010
0000
0000
0000
0000
0000
0000
0000
0100
0000
0000
0000
0000
0000
0000
0000
1000
0000
0000
0000
0000
0000
0000
0000
0010
0000
0000
0000
0000
0000
0000
0000
0100
0000
0000
0000
0000
0000
0000
0000
0010
0000
0000
0000
0000
0000
0000
0000
1000
0000
0000
0000
0000
0000
0000
0000
0001
0000
0000
0000
0000
0000
0000
0000
1000
0000
0000
0000
0000
0000
0000
0000
0100
0000
0000
0000
0000
0000
0000
0000
0010
0000
0000
0000
0000
0000
0000
0000
,
1001
0000
1000
0011
0100
0001
1010
0000
0010
1100
0001
0100
,
1001
0000
0001
1010
0100
0010
1100
0000
0002
0010
0000
0000
,
1103
0000
0100
1010
0001
0100
0011
0000
0001
1100
0010
0100
,
1010
0000
0010
0101
1000
0100
0011
0000
2000
0001
0000
0000
,
3110
0000
0010
1100
0001
1000
0011
0000
0010
0101
1000
0100
,
1010
0000
0010
1100
0001
1000
0011
0000
0200
0010
0000
0000
,
1301
0000
0001
1010
0001
0100
0011
0000
0010
0101
1000
0001
,
1100
0000
0100
1001
0100
0011
1100
0000
0020
0100
0100
0100
,
1031
0000
1001
0110
1000
0001
1100
0000
1100
0011
1000
0101
,
1010
0000
0101
1000
0001
0100
0011
0000
1000
0011
1100
0011
,
1010
0000
0101
0011
1100
0000
0101
0000
1100
0110
0011
1010
,
1100
0000
0000
0000
0011
0000
0000
0000
1100
0000
0000
0000
0101
0000
0000
0000
0010
0000
0000
0000
1001
0000
0000
0000
0010
0000
0000
0000
0001
0010
0100
1000
0001
0000
0000
0000
1010
0000
0000
0000
0011
0000
0000
0000
1100
0000
0000
0000
,
0011
0000
1010
0101
1100
0011
0101
0000
1010
0011
1100
1001
,
1100
0000
0000
0000
0000
0000
0000
0000
0001
0010
0100
1000
0001
0010
0100
1000
0011
0000
0000
0000
0100
0000
0000
0000
0011
0000
0000
0000
0000
0000
0000
0000
1010
0000
0000
0000
1100
0000
0000
0000
1001
0000
0000
0000
0000
0000
0000
0000
,
0110
0000
1100
0011
1010
0000
0101
0000
1001
1100
0101
1100
,
0101
1010
0011
0100
1001
0010
1100
0001
1010
0101
1100
0010
,
1001
0000
0011
1100
1010
0001
1100
0000
0110
1100
0011
0100
,
1010
0000
0101
1100
0011
0100
1001
0000
0110
0011
1010
0100
,
1001
0000
1000
0011
0100
0001
0110
0000
0010
1100
0001
0100
,
1010
0000
0000
0000
0000
0000
0000
0000
0001
0000
0000
0000
0110
0000
0000
0000
1000
0100
0010
0001
1000
0100
0010
0001
1000
0100
0010
0001
1000
0100
0010
0001
1000
0100
0010
0001
1000
0000
0000
0000
0000
0000
0000
0000
0000
0000
0000
0000
,
0101
0000
1010
0101
0000
1100
0011
0000
0110
1001
0000
1001
,
0000
0001
0010
0100
1000
0010
0101
0000
1000
0000
0001
0100
0010
0000
1000
0000
0010
0100
1001
0000
0100
0000
0010
0000
,
0001
0000
0000
0100
0000
0000
0010
0000
0000
0001
0000
0000
0010
0000
0000
1000
0000
0000
0001
0000
0000
0010
0000
0000
0100
0000
0000
0000
1000
0000
0000
0000
0001
0000
0000
0000
1010
0000
0000
0000
0011
0000
0000
0000
1100
0000
0000
0000
,
0011
1100
0011
0000
0011
0000
1000
0100
1000
0000
1000
0000
0001
0010
0001
0000
0001
0000
0100
0010
0100
0000
0100
0000
,
1001
0000
0000
0000
1000
0000
0011
0000
0000
0000
0000
0000
1010
0000
0000
0000
0010
0100
1001
0000
0000
0000
0000
0000
,
0011
0000
0000
0000
0000
0000
0000
0000
0010
0000
0000
0000
0101
0000
0000
0000
0000
0000
0000
0000
1100
0000
0000
0000
0010
0000
0000
0000
0000
0000
0000
0000
0001
0010
0100
1000
0001
0010
0100
1000
0001
0010
0100
1000
0001
0010
0100
1000
,
0001
0000
1010
0101
1010
0000
1010
0000
0011
1100
1010
0000
,
1001
0000
1000
0110
0000
0011
0100
0000
0100
1010
0000
0010
,
1000
0011
0100
0011
0000
0110
1000
0011
0100
0011
0000
0110
,
1000
0011
0100
0011
0000
0110
0011
0000
0110
1001
1100
0101
,
1010
0000
0010
0101
0000
0000
1000
0000
1000
0110
0000
0000
,
0011
1100
0011
0000
1010
0000
0110
0000
1100
0000
1001
0000
1010
0000
0000
0000
0000
0000
0101
0000
0000
0000
0000
0000
,
1001
0000
0000
0000
0000
0000
0000
0000
1000
0000
0000
0000
0011
0000
0000
0000
0100
0000
0000
0000
0001
0000
0000
0000
1010
0000
0000
0100
0000
0000
0010
0000
0000
0001
0000
0000
0110
0000
0000
1000
0000
0000
0001
0000
0000
0010
0000
0000
,
1100
0001
0010
0100
1001
0100
0010
1000
0110
0001
0100
0010
1001
0100
0010
1000
,
0101
0010
1000
0001
0110
0001
1000
0100
1001
0010
0100
0010
1001
0100
0010
0001
,
1000
0000
0110
0000
0110
0000
0001
0000
1100
0000
1100
0000
1000
0100
0010
0100
0010
0001
0100
0001
1000
0001
1000
0010
,
0101
0000
1000
0101
0010
1100
0101
0000
0010
0101
1000
0010
,
0101
0000
0001
1100
0010
1001
0100
0000
0100
0011
1100
1001
,
1010
0000
0011
1100
0110
0001
1100
0000
0110
0101
0011
0100
,
1010
0000
0000
0000
0000
0000
0000
0000
1000
0000
0000
0000
0101
0000
0000
0000
0010
0000
0000
0000
1001
0000
0000
0000
0100
0000
0000
0000
1000
0100
0010
0001
1000
0100
0010
0001
1000
0100
0010
0001
1000
0100
0010
0001
1000
0000
0000
0000
,
0110
0000
0010
0101
1000
0100
1010
0000
0010
1100
0001
1000
,
0011
0000
0010
0101
0010
0100
1010
0000
0010
1100
0010
0101
,
1010
0000
0010
1001
0100
0010
1100
0000
0011
1100
0101
0010
,
1001
0000
1010
0101
1010
0100
0011
0000
1100
0110
0110
0110
,
1001
0000
0001
1100
0001
1000
0101
0000
0100
0011
1000
0100
,
1010
0000
0010
1001
0100
1000
0101
0000
0020
0001
0000
0000
,
1130
0000
0100
0011
0100
1000
0101
0000
0010
1100
0001
1000
,
0011
0000
0010
0101
0010
0100
1010
0000
0002
1000
0000
1000
,
0113
0000
0010
1100
0001
0010
0101
0000
0100
1010
0001
1000
,
0011
0000
0100
1001
0010
1000
0101
0000
2000
0010
0000
0010
,
3101
1010
1010
1010
0011
0110
0110
0110
1001
0011
0011
0011
,
1010
0000
0101
0000
0101
0000
0101
0000
0001
1000
0001
0000
1000
0000
1000
0100
1000
0000
0010
0000
0010
0100
0010
0000
,
2001
0000
0000
0000
0000
0000
0000
0000
0000
0000
0000
0000
0000
0000
0000
0000
0000
0000
0000
0000
0000
0000
0000
0000
0000
0000
0000
0000
0000
0000
0000
0000
3200
0000
0000
0000
0320
0000
0000
0000
0000
0000
0000
0030
0020
0000
0000
0000
,
0230
0000
0000
0302
0000
0023
0000
0000
0000
0000
0000
0000
,
0032
0000
0000
0000
0000
0000
0000
0000
0000
0000
0000
0000
0000
0000
0000
0000
0000
0000
0000
0000
0000
0000
0000
0013
0000
0000
0000
0100
0000
0000
1000
0000
0001
0000
0010
0000
0100
0000
0000
1000
0000
0001
0000
0000
0100
0000
0010
0000
1000
0000
0010
0000
1000
0000
0001
0000
0100
0000
0000
0001
0000
0010
0000
0000
,
0100
0000
0000
0000
0000
0000
0010
0000
0000
0000
0000
0000
0001
0000
0000
0000
0000
0000
0000
0000
1000
0000
0000
0000
0000
0000
0000
0000
0000
0000
0010
0000
0000
0000
0000
0000
0100
0000
0000
0000
0000
0000
0001
0000
0000
0000
0000
0000
0200
0000
0000
0000
0000
0000
0000
0000
0000
0000
0000
0000
0000
0000
0000
0000
0000
0000
0000
0000
0000
0000
0000
0000
0000
0000
0000
0000
0000
0000
0000
0000
0000
0000
0000
0000
0000
0000
0000
0000
0000
0000
0000
0000
0000
0000
0000
0000
0000
0000
0000
0000
0000
0000
0000
0000
0000
0000
0000
0000
0000
0000
0000
0000
0000
0000
0000
0000
0000
0000
0000
0000
0000
0000
0000
0000
0000
0000
0000
0000
0301
0000
0000
0000
0000
0000
0000
0000
0000
0000
0000
0000
0000
0000
0000
0000
0100
0000
0000
0000
0000
0000
0000
0000
0000
0000
0000
0000
0000
0000
0000
0000
0010
0000
0000
0000
0000
0000
0000
0000
0000
0000
0000
0000
0000
0000
0000
0000
1000
0000
0000
0000
0000
0000
0000
0000
0000
0000
0000
0000
0000
0000
0000
0000
,
0100
0010
0001
0100
0001
1000
0010
0100
0020
0000
0000
0000
,
0130
0001
1000
0010
0100
0001
0010
0100
1000
0010
0100
0001
1000
0100
0010
0001
0100
0010
1000
0001
0010
0001
0100
0010
,
1000
0000
0000
0000
0000
0000
0000
0000
0100
0000
0000
0000
0000
0000
0000
0000
0010
0000
0000
0000
0000
0000
0000
0000
0001
0000
0000
0000
0000
0000
0000
0000
1000
0000
0000
0000
0000
0000
0000
0000
0100
0000
0000
0000
0000
0000
0000
0000
0010
0000
0000
0000
0000
0000
0000
0000
0001
0000
0000
0000
0000
0000
0000
0000
1000
0000
0000
0000
0000
0000
0000
0000
0100
0000
0000
0000
0000
0000
0010
0000
0000
0000
0000
0000
0001
0000
0000
0000
0000
0000
1000
0000
0000
0000
0000
0000
0100
0000
0000
0000
0000
0000
0010
0000
0000
0000
0000
0000
0001
0000
0000
0000
0000
0000
1000
0000
0000
0000
0000
0000
0100
0000
0000
0000
0000
0000
0010
0000
0000
0000
0000
0000
0001
0000
0000
0000
0000
0000
1000
0000
0000
0000
0000
0000
0100
0000
0000
0000
0000
0000
0010
0000
0000
0000
0000
0000
0001
0000
0000
0000
0000
0000
1000
0000
0000
0000
0000
0000
0100
0000
0000
0000
0000
0000
0010
0000
0000
0000
0000
0000
0001
0000
0000
0000
0000
0000
1000
0000
0000
0000
0000
0000
,
0100
0010
0001
0100
0010
1000
0001
0010
0100
1000
0020
0000
0000
0000
0000
0000
0000
0000
0000
0000
0000
0000
0000
0000
0000
0000
0000
0000
0000
0000
0000
0000
,
0131
1000
0100
0010
0010
0001
0100
0001
0010
0100
1000
0010
,
0200
0000
0000
0301
1000
0002
0000
0000
0000
0000
0000
0000
,
1003
0010
0100
0001
0010
0100
1000
0001
0100
0010
1000
0100
0010
0100
1000
0010
0100
0001
0010
0100
1000
0010
0100
0010
,
1000
0100
0010
0001
0100
0001
1000
0010
0100
0010
1000
0001
0010
0100
1000
0100
0010
0001
0100
0001
1000
0001
0010
0100
,
1000
0000
0000
0000
0000
0000
0000
0000
0000
0000
0000
0000
0000
0000
0000
0000
0000
0000
0000
0000
0000
0000
0000
0000
0100
0010
0002
0000
0000
0000
0000
0000
0000
0000
0000
0000
0000
0000
0000
0000
0000
0000
0000
0000
1003
0000
0000
0000
,
0002
0000
0000
0023
0000
0230
0000
0000
0000
0000
0000
0000
,
1300
0000
0100
0000
0010
0000
0100
0000
1000
0000
0001
0000
0100
0000
0010
0000
0100
0001
1000
0010
0100
0001
0100
0010
,
1000
0001
0010
0001
0100
0001
1000
0010
0100
0020
0000
0000
0000
0000
0000
0000
0000
0000
0000
0000
0000
0000
0000
0000
,
1031
0100
0010
0001
1000
0100
0010
0001
1000
0100
0010
0001
1100
0010
1000
0001
0010
0100
1000
0001
0100
0001
1000
0100
,
0021
0000
0000
0000
0000
0000
0000
0000
0000
0000
0000
0000
0000
0030
0000
0010
0000
0000
0001
0000
0000
1000
0000
0000
0210
0000
0000
0000
0000
0000
0000
0000
1300
0000
0010
0000
1000
0000
0001
0000
0010
0000
0100
0000
0010
0000
0001
0000
,
1200
0000
0000
0000
0000
0000
0000
0000
0000
0000
0000
0000
0311
1000
0100
0010
0001
0010
0100
1000
0010
0100
0001
0000
,
1020
0000
0000
0000
0031
0100
0010
1000
0100
1000
0001
0010
1100
0000
0000
0000
1010
0101
1010
0000
0110
0000
0110
0000
,
1001
0000
0000
0000
,
1001
1100
0000
0011
0000
1100
0000
1010
,
0000
1100
0000
0101
0000
0110
1100
0011
,
1010
0101
1100
0101
0000
1001
0000
0101
,
0000
1010
0000
0011
0110
0000
0110
0000
,
0011
1010
0000
1100
0000
1010
0000
0101
,
0000
1010
0000
1001
0000
0110
0011
1010
,
0110
0101
1100
0101
0000
1010
0000
0011
,
0000
0110
0000
1100
1001
0000
1100
0101
,
0000
0110
0011
0000
1001
1010
0000
0011
,
0101
0000
1100
0000
0011
1100
0010
0101
,
1000
0110
1000
0011
0100
1010
0100
1001
,
0010
1100
0110
0011
1010
0101
1100
0110
,
0001
1010
0100
0011
1000
0101
1000
0011
,
1001
0000
1001
0000
1010
1100
0001
0110
,
0001
1100
0010
0101
0010
1001
0100
0011
,
1000
0110
1100
0101
0011
1010
0110
1010
,
0001
1100
0001
1010
0001
0110
1000
0101
,
1100
0000
0000
0101
0000
0000
1010
0000
,
1100
0011
0000
0000
1001
0000
0011
0000
,
1100
0000
0110
0000
0110
0000
0101
0000
1100
0000
1100
0000
0022
0033
0100
0000
,
0100
1010
0001
0001
1100
0001
1010
0100
,
1001
0010
1100
0001
1010
0100
0010
0101
,
1000
0110
1000
0100
0011
0100
1010
0001
,
1100
0010
0100
1001
0010
0101
1000
0100
,
1010
0011
0110
0101
0000
0110
0101
0000
,
1010
0001
1100
0010
0101
0010
0100
1001
,
0010
1100
0001
1000
0011
0100
1010
0100
,
1001
0010
0100
1010
0100
0011
1000
0001
,
1100
0110
0011
1100
0110
0011
1010
0000
,
1010
0000
0101
1000
0110
0001
1010
0100
,
0010
1100
0001
1010
0001
1000
0101
0010
,
1001
0100
0011
0100
1000
0101
0010
1001
,
0100
1010
0011
0000
0110
0000
0101
0000
,
0001
1100
0000
0110
0000
1010
0011
1000
,
0101
0010
1001
0100
1000
0011
0100
1010
,
0001
0100
0011
1000
0101
1000
0110
0001
,
0100
1010
0100
1001
0100
0010
1100
0101
,
0110
1010
0011
0101
0110
0011
1010
0110
,
0101
1100
0110
0000
1001
0000
0000
0000
,
1000
0000
0000
0000
0100
0000
0000
0000
0010
0000
0000
0000
0101
0000
0000
0000
1100
0000
0000
0000
0011
0000
0000
0000
1001
0000
0000
0000
0000
0000
0010
0000
0000
0001
0000
0000
0100
0000
0000
0000
0000
0000
0100
0000
0000
0000
0000
0000
,
1010
0000
0010
1000
0100
0010
0001
0110
,
0011
0110
1100
0000
1010
0000
0001
0010
,
1100
0010
0101
0011
1100
0011
0100
0011
,
1010
0000
0101
1100
0101
1100
1010
0110
,
0101
0010
1001
0000
0110
0001
1000
0001
,
0010
0001
0000
1001
0110
0000
1000
0000
,
1001
0000
0010
0000
0100
0000
0010
0000
0000
1100
0000
0000
0101
0000
0000
0110
0000
0000
1001
0000
0000
0011
0000
0000
,
0110
0000
0001
0010
0100
0000
1010
0000
0011
0000
1100
0000
0011
0000
1010
0000
,
0110
1100
0101
0110
1001
0000
0100
0000
,
1010
0001
0100
0010
1000
0010
0000
0010
,
0101
0000
1000
0010
1000
0001
0010
1100
,
0001
1010
0001
0110
1001
1100
0011
0101
,
1100
0110
1010
0011
0110
0101
1010
1100
,
0011
0000
0000
1010
0000
0000
0101
0000
0000
1100
0000
0000
0011
0000
1000
0000
0010
0000
0100
0000
0000
0011
0000
0000
,
1010
0101
0110
1002
0100
0000
1023
0000
,
0001
0230
0010
0000
2301
0000
0100
3011
,
0100
1100
0101
1010
0110
1100
0011
1010
,
0001
0010
0100
1000
0020
0000
0100
0000
0100
0000
0000
0000
0100
0000
0000
0000
,
1130
0000
0011
0000
1010
0000
0100
0001
0010
0100
1000
0000
0110
0000
0011
0000
,
0110
1100
0101
0110
1100
1001
0101
0110
,
1000
0110
0001
0110
0001
0010
0101
1100
,
0110
1010
0101
1100
0011
1000
0001
0110
,
1001
0010
0100
1000
0001
0100
0011
1000
0100
1010
0001
1100
,
0010
0000
1000
0000
0101
0000
0010
0000
0001
0000
0110
0000
1001
0000
0000
0000
0000
0000
0101
0000
0000
1100
0000
0000
,
0101
0000
0000
0000
1010
0000
0001
0010
0100
0000
0110
0000
1001
0000
1100
0000
,
0011
0000
1010
1100
1010
0100
0011
1001
,
0010
0000
0101
0000
1010
0000
0001
0100
0001
0000
1010
0000
0001
0100
0001
0000
,
1010
0000
0000
0000
0000
0000
0001
0000
0000
0100
0000
0000
0001
0000
0000
0000
0000
0000
1010
0000
0000
0000
0000
0000
0001
0000
0100
0000
0010
0000
1000
0000
0000
0100
0000
0000
0010
0000
0000
0000
0000
0000
0100
0000
0000
0000
0000
0000
,
1000
0010
0200
0000
0000
0000
0000
0311
,
0000
0000
0000
1010
0000
0000
0000
0000
0000
0010
0000
0000
1001
0000
0100
0000
0010
0000
1000
0000
0001
0000
0010
0000
,
1100
0001
0100
0010
0100
0001
0010
0001
1000
0010
1000
0100
,
1001
0010
0100
0001
0100
0010
1001
0100
0010
0001
0010
0100
,
1000
0001
0100
0010
1000
0001
1010
0100
0001
0010
0001
1000
,
0011
0000
0100
0000
0001
0000
1000
0000
0100
0000
0011
0000
2000
0000
0000
0001
0000
0000
3010
0000
0000
1000
0000
0000
,
0101
0000
0010
0000
0100
0000
1000
0000
0000
0001
0000
0000
1100
0000
0010
0000
1000
0000
0011
0000
0000
0100
0001
0000
,
0000
1100
0110
0011
1001
0101
0000
0000
,
1010
0110
1100
0110
0011
1001
1010
0101
,
0110
0000
0000
0000
1200
0000
0000
0000
0000
0000
0000
0000
0000
0000
0000
0000
0000
0310
0000
0000
0001
0000
0000
0010
0000
0000
0100
0000
0000
1000
0000
0000
,
0100
0000
0010
0000
0001
0000
0100
0000
0010
1000
0100
0010
0001
0010
0100
1000
,
0020
0000
0000
0000
0130
0001
0010
0001
,
1000
0000
0100
0000
0010
0000
0100
0000
0000
1000
0000
0000
0010
0000
0000
1000
0000
0000
0001
0000
0000
1010
0000
0000
,
0000
0000
0000
1100
0000
0000
0000
0000
0000
1000
0000
0000
0001
0000
0100
0000
0001
0000
1000
0000
0100
0000
1000
0000
,
0011
0100
0010
1000
0001
0010
0100
0010
1100
0001
0100
1010
,
0001
1000
0010
0100
0001
0010
1100
0001
0010
0100
1000
0001
,
0100
0001
1000
0010
0101
1000
0001
0010
0001
1000
0010
0100
,
1001
0100
0010
0001
1000
0001
0100
0010
1000
0100
0011
1000
,
0100
0010
0001
0100
0010
1000
0101
0010
1000
0001
1000
0110
,
0001
0010
1100
0010
0001
0100
1010
0000
0000
0011
0000
0000
,
1001
0000
0001
1100
0000
0110
0000
0010
,
0101
0000
1010
0000
0011
0000
0001
0110
,
0000
1001
0000
0001
1010
0000
1100
0000
,
0011
0000
0010
1001
0000
0101
0000
0001
,
1100
0000
0110
0000
0011
0000
0010
0101
,
0000
0000
0000
1010
0000
0000
0000
0000
0000
1000
0000
0000
0011
0000
0000
0000
0110
0000
0000
0000
0000
0011
0000
0000
,
1100
0000
0101
0000
1010
0000
0110
0000
1100
0000
0011
0000
,
1100
0000
1001
0000
1010
0000
0201
0000
0000
0000
0000
0000
,
0010
0000
1301
0010
0102
0000
1000
0100
,
2013
0000
3201
0000
1320
0000
0001
1000
,
0100
0000
0000
0000
1032
0000
0000
0000
1103
0020
0000
0000
0001
0000
0100
0000
,
2031
0000
3012
0000
0123
0000
0001
1000
,
0001
0000
0000
0000
1230
0000
0000
0300
1200
0000
0000
0000
0001
0000
0010
0000
,
2301
0000
3012
0000
2103
0010
0100
0001
,
0010
0100
3010
0000
1100
0101
1100
0011
,
1010
0110
1100
0011
0210
0000
1000
0001
,
2310
0000
3102
0000
1013
0001
0120
1000
,
0001
0000
1032
0000
0213
0000
1000
0001
,
1000
0000
0000
0000
0321
0000
0000
0000
0231
0000
1000
0001
1000
0000
0010
0000
,
0302
0010
0100
0000
2013
0000
3101
0101
,
1020
0000
0231
0000
1320
0000
0001
1000
,
0001
0000
0000
0000
1230
0000
0000
0300
0201
0000
0000
0000
1310
0100
0001
0100
,
1010
0100
0001
0100
0010
1000
0100
1000
0001
1000
0010
0100
0001
1000
0100
0010
,
0001
0100
0001
1000
0010
1000
0100
0010
1001
0000
0101
0000
1100
0000
0101
0000
,
1001
0011
1100
1001
0110
1100
0011
1100
,
1001
1100
0011
1010
1100
0011
1001
0110
,
0101
1100
0110
1100
0011
1010
0101
1010
,
0011
0000
0000
1010
0000
0000
0101
0000
0000
1100
0000
0000
0101
0000
0010
0000
0100
0000
0010
0000
0100
0000
1000
0000
,
0011
1000
0100
0010
0001
0100
0001
0010
0100
1000
0010
0100
,
0011
0000
0000
0000
1000
0000
0000
0000
0001
0000
0000
0000
0100
0000
0000
0000
0001
0000
0000
0000
1000
0000
0000
0000
0100
0000
0000
0000
0000
0000
0000
0000
0000
0000
0000
0000
0010
0000
0000
0001
0000
0000
1000
0000
0000
0001
0000
0000
,
0010
0000
0000
0000
0000
0000
0010
0000
0000
0000
0000
0000
0100
0000
0000
0010
0000
0000
0001
0000
0000
0010
0000
0000
0100
0000
0000
1000
0000
0000
0010
0000
0100
0000
0001
0000
1000
0000
0100
0000
0010
0000
0001
0000
0000
1000
0000
0000
,
0001
0000
0100
0000
0001
0000
1000
0000
0001
0000
0010
0000
0101
0000
0000
1100
0000
0000
0110
0000
0000
1010
0000
0000
,
0011
0110
0101
1100
1010
1100
0011
1100
,
0101
0110
0011
1010
0101
1100
0110
1010
,
0011
1100
0110
1001
0011
0110
0101
0011
,
1010
0011
0110
1100
1002
0000
0010
1000
,
0010
0000
0000
0000
0203
0000
0000
0300
0100
0001
0100
0001
0100
0001
0100
0001
,
0100
0001
0100
0001
1000
0000
0100
0000
0101
1000
0100
0010
0200
0000
0000
0000
,
0000
0000
0000
0000
1301
0010
1000
0001
2000
0000
0000
0000
0000
0000
0000
0000
,
3101
0010
0001
0100
0002
0000
0000
0000
0100
0000
1013
0000
0110
0000
1100
0000
,
0011
1001
0110
0120
0000
0000
0000
0000
,
1000
0000
0000
0000
1031
1100
0110
1010
,
0101
0010
1100
0011
0110
0011
1010
0001
,
0110
1100
0011
0001
0001
1010
0011
0110
,
0101
0010
1100
1010
0110
0101
0011
0100
,
1010
1001
1010
0001
0110
1100
0011
1010
,
0101
1100
0110
1010
0011
1000
0101
0110
,
1010
0110
1100
0011
0110
1010
0011
1001
,
1100
0101
1010
0101
1000
0110
0011
0110
,
1010
0011
0100
1010
1001
1100
0101
0110
,
0011
1100
1010
0110
1100
0011
0101
0110
,
0000
1001
1100
0110
1010
0110
0001
1010
,
0011
1010
0011
1001
0011
0110
1100
0101
,
0010
1100
0011
0110
0101
0010
1100
1001
,
0011
1000
0011
0110
0001
0100
0010
1001
,
1000
0100
0010
0100
1001
0010
0001
1010
,
0001
0100
0011
0100
0001
0010
1100
0010
,
0001
0000
0000
0100
0000
0000
0010
0000
0000
1001
0000
0000
0100
0000
0000
0010
0000
0000
0101
1000
0010
0100
0010
1000
,
0001
0010
0100
1000
0010
0000
0000
0000
1100
0000
0000
0000
0011
0000
0000
0000
1010
0000
0000
0000
0101
0000
0000
0000
0110
0000
0000
0000
1100
0000
0000
0000
,
0011
1100
0001
1010
0011
0110
0101
1100
,
1001
0011
0110
0010
1100
0011
1010
0110
,
1100
0000
0000
0000
0000
0000
0000
0000
0000
0000
0000
0000
0000
0000
0000
0000
0000
0000
0000
0000
0000
0000
0000
0000
0101
0000
0000
0000
0000
0000
0000
0000
0000
0000
0000
0000
0000
0000
0000
0000
0000
0000
0000
0000
0000
0000
0000
0000
0110
0000
0000
0000
0000
0000
0000
0000
0001
0000
0000
0000
0000
0000
0000
0000
0000
0000
1000
0000
0000
0000
0000
0000
0100
0000
0000
0000
0000
0000
0000
0000
0000
0000
0000
0000
0010
0000
0000
0000
0000
0000
0000
0000
0000
0000
0000
0000
0001
0000
0000
0000
0000
0000
0000
0000
0100
0000
0000
0000
0000
0000
0000
0000
0001
0000
0000
0000
0000
0000
0000
0000
0000
0000
0000
0000
0000
0000
0000
0000
1000
0000
0000
0000
0000
0000
0000
0000
0000
0000
0000
0000
0000
0000
0000
0000
0010
0000
0000
0000
0000
0000
0000
0000
0100
0000
0000
0000
0000
0000
0000
0000
0001
0000
0000
0000
0000
0000
0000
0000
1000
0000
0000
0000
0000
0000
0000
0000
0100
0000
0000
0000
0000
0000
0000
0000
0010
0000
0000
0000
0000
0000
0000
0000
,
0100
0000
0000
0000
0000
0000
0000
0000
1000
0000
0000
0000
0000
0000
0000
0000
0100
0000
0000
0000
0000
0000
0000
0000
0010
0000
0000
0000
0000
0000
0001
0000
0000
0000
0000
0000
0100
0000
0000
0000
0000
0000
0010
0000
0000
0000
0000
0000
1001
0000
0000
0000
0000
0000
0000
0000
0000
0000
0000
0000
0000
0000
0000
0000
0000
0000
0000
0000
0000
0000
0000
0000
0010
0000
0000
0000
0000
0000
0000
0000
0000
0000
0000
0000
0000
0000
0000
0000
0000
0000
0000
0000
0000
0000
0000
0000
0101
0000
0000
0000
0000
0000
0000
0000
0000
0000
0000
0000
0000
0000
0000
0000
0000
0000
0000
0000
0000
0000
0000
0000
1000
0000
0000
0000
0000
0000
0000
0000
0000
0000
0000
0000
0100
0000
0000
0000
0000
0000
0000
0000
0000
0000
0000
0000
0010
0000
0000
0000
0000
0000
0000
0000
0000
0000
0000
0000
0000
0000
0000
0000
0000
0000
0000
0000
0000
0000
0000
0000
0001
0000
0000
0000
0000
0000
0000
0000
0000
0000
0000
0000
0010
0000
0000
0000
0000
0000
0000
0000
0000
0000
0000
0000
,
0101
0000
1010
0000
0011
0000
1100
0001
1010
0100
0011
0000
0110
0000
0101
1000
,
0110
0001
1010
0000
0110
0000
1001
0000
0011
0000
0110
0001
1000
0000
0011
0100
,
0001
0000
1100
0000
0011
0100
0001
1000
0110
1010
0100
0001
0010
0100
1000
0100
,
0011
1010
0001
0100
1010
0000
0011
0000
1100
0000
0010
0100
0001
0000
0010
0100
,
1000
0001
0100
0000
0011
0000
0110
0000
0101
0000
1100
0000
0110
0000
1010
0000
,
0011
0000
1001
0100
1010
0001
1100
0001
0110
0001
1010
0100
1001
0011
0100
0001
,
1010
0100
0010
0001
1100
0110
1000
0010
0101
0000
0000
0000
0011
1010
0001
1000
,
0100
0000
0000
0010
0000
0000
0001
0000
0000
0100
0000
0000
1010
0000
0000
1100
0000
0000
0001
0000
0000
1000
0000
0000
0110
0000
0000
1000
0000
0000
0011
0000
0000
1100
0000
0000
0011
0000
0000
0000
1100
0000
0000
0000
0110
0000
0000
0000
,
0101
0000
1100
0000
0110
0000
1010
0000
0011
0000
1010
0000
0110
0000
1100
0000
0011
0000
1001
0000
0000
0011
0000
0000
,
0110
0000
0001
0100
0010
0000
1000
0010
1100
0001
0010
0001
1100
0000
0011
0000
,
1010
0110
1100
0101
0110
1001
1100
0110
,
1010
0000
0001
0100
0001
0010
1100
0010
0001
0000
0110
0000
0001
0110
0001
0100
,
1010
1100
0001
0010
0100
1001
0010
0100
1001
0101
0010
1000
0011
0000
1010
0000
,
0110
0000
1000
0100
0010
0001
1010
0100
0001
0000
0011
0000
1010
0000
0110
0000
,
1100
0000
0011
1000
0101
0010
1100
0000
0110
0000
1010
0000
0101
1000
0010
0100
,
1001
0000
0010
0000
1100
0000
0110
0000
0001
0000
1000
0000
0011
0000
1000
0000
0100
0000
0010
0000
0001
0000
0100
0010
1001
0000
0010
0000
0100
0000
0001
0000
,
1010
0000
0000
0000
0101
1100
0001
0100
0010
1000
0110
0011
1000
0001
1100
1001
,
1010
0000
0000
0000
0000
0000
0000
0000
0000
0000
0000
0000
1001
0000
0000
0000
0000
0000
0000
0000
0000
0000
0000
0000
1010
0000
0000
0000
0000
0000
0000
0000
0000
0000
0000
0000
0001
0000
0000
0000
0000
0000
0010
0000
0000
0000
0000
0000
1100
0000
0000
0000
0000
0000
0000
0000
0000
0000
0000
0000
0000
0000
0000
0000
0110
0000
0000
0000
0000
0000
0000
0000
0000
0000
0000
0000
0000
0000
0000
0000
1010
0000
0000
0000
0000
0000
0000
0000
0000
0000
0000
0000
0000
0000
0000
0000
0011
0000
0000
0000
0000
0000
0000
0000
0000
0000
0000
0000
0000
0000
0000
0000
0110
0000
0000
0000
0000
0000
0000
0000
0000
0000
0000
0000
0000
0000
0000
0000
0101
0000
0000
0000
0000
0000
0000
0000
0000
0000
0000
0000
0000
0000
0000
0000
0110
0000
0000
0000
0000
0000
0000
0000
0000
0000
0000
0000
0000
0000
0000
0000
1100
0000
0000
0000
0000
0000
0000
0000
0000
0000
0000
0000
0000
0000
0000
0000
1001
0000
0000
0000
0000
0000
0000
0000
0000
0000
0000
0000
0000
0000
0000
0000
,
0011
0000
1100
0000
0110
0000
0101
1000
0100
0010
0001
0100
0001
1000
0010
0100
0010
0100
0001
0100
0010
0100
0001
0100
,
0010
0000
0100
0000
0001
0000
1000
0000
0100
0000
1000
0000
0011
0000
0000
0100
0000
0000
0100
0000
0000
0011
0000
0000
0100
0000
0000
0100
0000
0000
0011
0000
0000
0100
0000
0000
0100
0000
0000
0011
0000
0000
0100
0000
0000
0100
0000
0000
,
0011
0000
0110
0110
1001
0001
0001
0001
1100
0001
0001
0001
1010
0100
0100
0011
,
0100
0100
1010
0011
0100
0100
0100
0100
1001
0010
0010
0010
0101
1000
1000
0110
,
1000
1000
0011
0110
0001
0001
0001
0001
1100
0010
0010
0010
1001
0100
0100
1010
,
0100
0100
0011
1001
0100
0100
0100
1010
1001
0001
0001
1100
0010
0010
0010
0101
,
0010
0010
1010
0110
1001
0000
0011
0000
1010
0000
0100
1001
0000
0110
0000
0100
,
0011
0000
1010
0000
1100
0000
0100
1001
0000
0011
0000
0010
0101
0000
0110
0000
,
1010
0000
0010
1100
0000
0011
0000
0010
1001
0000
0101
0000
1100
0000
0100
1010
,
0000
0011
0000
0000
1010
1100
0000
0011
0000
1100
0000
0110
0000
1100
0000
0101
,
0000
1010
0011
0110
0101
0110
1010
0011
0000
0101
0000
0110
0000
1100
0000
0011
,
1010
0000
0000
0101
0000
0000
0000
0000
0000
1100
0000
0000
0110
0000
0000
0000
1010
0000
0000
0000
0011
0000
0000
0000
0110
0000
0000
0000
0101
0000
0000
0000
0110
0000
0000
0000
1100
0000
0000
0000
1010
0000
0000
0000
0110
0000
0000
0000
,
2002
0000
3003
0000
,
0000
0000
0000
0000
,
0001
0000
0000
0000
0010
0000
0001
0000
0000
0000
0000
0000
1100
0000
0000
0000
0000
0000
0011
0000
0000
0000
0000
0000
1010
0000
0000
0000
0000
0000
0000
0000
0000
0011
0000
0000
0000
0000
0000
0000
0000
0000
0000
0000
0000
0000
0100
0000
,
0001
0000
1000
0000
0001
0000
0100
0000
0001
0000
1000
0000
0010
0000
0000
0000
0000
0000
1000
0000
0000
0000
0000
0000
0100
0000
0000
0000
0000
0000
1010
0000
0000
0000
0000
0000
0000
0000
0000
1010
0000
0000
0000
0000
0000
0000
0000
0000
,
0011
0000
0000
0000
0100
0000
0011
0000
0000
0000
0000
1000
0000
0010
0000
1000
0000
0010
0000
1000
0000
0001
0000
0000
0110
0000
0000
0000
0000
0000
0000
0000
0000
1001
0000
0000
0000
0000
0000
0000
0001
0000
0000
0000
0000
0000
0000
0000
,
1100
0000
0000
0000
0000
0000
0001
0000
0000
0000
0000
0000
0100
0000
0000
0000
0000
0000
0010
0000
0000
0000
0000
0000
0100
0000
0000
0000
0000
0000
0000
0000
0001
0000
0000
0000
0000
0000
0000
0000
0010
0000
0000
0000
0000
0000
0000
0000
0001
0000
0000
0000
0000
0000
1000
0000
0000
0000
0000
0000
0001
0000
0000
0000
0000
0000
0000
0000
0100
0000
0000
0000
0000
0000
0000
0000
0010
0000
0000
0000
0000
0000
0000
0000
0100
0000
0000
0000
0000
0000
0001
0000
0000
0000
0000
0000
0100
0000
0000
0000
0000
0000
0000
0000
0010
0000
0000
0000
0000
0000
0000
0000
1000
0000
0000
0000
0000
0000
0000
0000
0010
0000
0000
0000
0000
0000
0100
0000
0000
0000
0000
0000
0010
0000
0000
0000
0000
0000
0000
0000
1000
0000
0000
0000
0000
0000
0000
0000
0001
0000
0000
0000
0000
0000
0000
0000
0010
0000
0000
0000
0000
0000
0000
0000
0100
0000
0000
0000
0000
0000
0000
0000
1000
0000
0000
0000
0000
0000
0000
0000
0100
0000
0000
0000
0000
0000
0000
0000
0010
0000
0000
0000
,
0000
0000
0000
0000
0000
0000
0000
0000
0000
0000
0000
0000
0000
0000
0000
0000
0001
0000
0000
0000
0000
0000
0000
0000
0000
0000
0000
0000
0000
0000
0000
0000
0000
0000
0000
0000
0000
0000
0000
0000
0000
0000
0000
0000
0000
0000
0000
0000
1001
0000
0000
0000
0000
0000
0000
0000
0000
0000
0000
0000
0000
0000
0000
0000
0000
0000
0000
0000
0000
0000
0000
0000
1000
0000
0000
0100
0000
0000
0010
0000
0000
0001
0000
0000
1000
0000
0000
0100
0000
0000
0010
0000
0000
0001
0000
0000
1000
0000
0000
0100
0000
0000
0010
0000
0000
0001
0000
0000
1000
0000
0000
0100
0000
0000
0010
0000
0000
0000
0000
0000
0000
0000
0000
0000
0000
0000
0000
0000
0000
0000
0000
0000
0110
0000
0000
0000
0000
0000
0000
0000
0000
0000
0000
0000
0000
0000
0000
0000
0000
0000
0000
0000
0000
0000
0000
0000
0000
0000
0000
0000
0000
0000
0000
0000
0000
0000
0000
0000
0000
0000
0000
0000
0000
0000
0000
0000
0000
0000
0000
0000
0000
0000
0000
0000
0000
0000
0000
0000
0000
0000
0000
0000
;

//---------------dance-single - ----------------
#NOTES:
     dance-single:
     :
     Medium:
     12:
     1.000,1.000,1.000,0.187,1.000,6375.000,1625.000,190.000,0.000,0.000:
1001
0000
0100
0000
0010
0000
0001
0000
1000
0001
1100
0010
0101
0000
1010
0000
,
0011
0000
0110
0000
0001
0000
1000
0000
0001
1000
0110
0001
1010
0000
0100
0000
,
1001
0000
0000
0000
0000
0000
0000
0000
0100
0001
0000
0000
0000
0000
0000
0000
1000
0000
0000
0000
0000
0000
0000
0000
0001
0000
0000
0000
0000
0000
0000
0000
1010
0000
0000
0000
0000
0000
0000
0000
0001
0000
0000
0000
0000
0000
0000
0000
1000
0000
0000
0000
0000
0000
0000
0000
0010
0000
0000
0000
0000
0000
0000
0000
,
0100
0000
0000
0000
0000
0000
0000
0000
0010
0000
0000
0000
0000
0000
0000
0000
1000
0000
0000
0000
0010
0000
0000
0000
0100
0000
0000
0000
0001
0000
1000
0100
0010
0001
0000
0000
0000
0000
0000
0000
0010
0000
0000
0000
0000
0000
0000
0000
1010
0000
0000
0000
0000
0000
0000
0000
0000
0000
0000
0000
0000
0000
0000
0000
,
1001
0000
0100
0000
0000
0010
0000
0100
0011
0000
1000
0000
0110
0000
0001
0000
,
1010
0000
0000
0000
0001
0100
0010
1000
0101
0000
0010
0000
1100
0000
0000
0000
,
0011
0000
0000
0000
0100
0010
1000
0001
1010
0000
0001
0000
0100
0000
0010
0000
,
1001
0000
0000
0000
0000
0000
0000
0000
0100
0000
0001
0000
1000
0000
0010
0000
1100
0000
0000
0000
0001
0000
0000
1000
0010
0000
0000
0000
0000
0000
0000
0000
,
0100
0000
1001
0000
0100
0000
1000
0001
0110
0000
0010
0100
1000
0010
0100
0001
,
1000
0000
0000
0001
0000
0000
0010
0000
0000
0100
0000
0000
1000
0000
0000
0010
0000
0000
1000
0000
0000
0001
0000
0000
0100
0000
0000
0001
0000
0000
1000
0000
0000
0100
0000
0000
0010
0000
0100
0000
1000
0000
0001
0000
0100
0000
0010
0000
,
1000
0000
0000
0000
0000
0000
0011
0000
0000
0000
0000
0000
0100
0000
0000
0000
0000
0000
0001
0000
0000
0100
0000
0000
1010
0000
0000
0000
0000
0000
0001
0000
0010
0000
0100
0000
1000
0000
0000
0000
0000
0000
0000
0000
0000
0000
0000
0000
,
0000
0000
0000
0000
,
1001
0000
0000
0000
0000
0000
0100
0000
0000
0000
0000
0000
1010
0000
0000
0000
1000
0000
0010
0000
0100
0000
0001
0000
0010
0000
0000
0000
0000
0000
0001
0000
0000
0010
0000
0000
1100
0000
0000
0000
0000
0000
0101
0000
0000
0000
0000
0000
,
1100
0011
1010
0110
0101
1100
0101
0110
,
1000
0000
0001
0000
1010
0000
1001
0010
0100
0000
1000
0001
0110
0000
1000
0000
,
0010
0100
0001
1000
0101
0010
0001
0100
0010
1000
0100
0010
1001
0010
1000
0001
,
0100
0000
0000
0000
0000
0000
1000
0000
0000
0000
0000
0000
0011
0000
0000
0000
0010
0000
0100
0000
1000
0000
0001
0000
0100
0000
0000
0000
0000
0000
0011
0000
0000
1000
0000
0000
0100
0000
0000
0000
0000
0000
1010
0000
0000
0000
0000
0000
,
0101
0000
1000
0001
0110
0001
1000
0000
0011
0000
1001
0000
0101
0000
1100
0000
,
0010
0000
0000
0100
0000
0000
1001
0000
0000
0010
0000
0000
0100
0000
0000
1000
0000
0000
0010
0000
1000
0000
0001
0000
0100
0000
0000
0010
0000
0000
0100
0000
0000
0001
0000
0000
1010
0000
0000
0001
0000
0000
0100
0000
0000
0010
0000
0000
,
1001
0100
0010
1000
0011
0000
0000
0000
1010
0001
0100
0010
1000
0101
0010
1000
,
0110
0000
0000
0001
0000
0000
1000
0000
0000
0001
0000
0000
0100
0000
0000
1010
0000
0000
0100
0000
0000
0010
0000
0000
1001
0000
0000
0000
0100
0000
0000
0000
1000
0000
0000
0000
0010
0000
0000
0000
1001
0000
0000
0000
0100
0000
0000
0000
,
1001
0000
0010
0000
0100
0000
1000
0000
0010
0000
0100
0000
2001
0000
0000
0000
0000
0000
0100
0000
0000
3002
0000
0000
,
1000
0000
0023
0000
2030
0000
0001
0010
,
0100
0000
3020
0000
0230
0000
1000
0320
,
0100
0000
0000
0000
2030
0000
0000
0000
3002
0000
0000
0000
1000
0000
0013
0100
,
2000
0000
0001
0010
0100
0000
0010
3200
,
1000
0000
0320
0000
0032
0000
0100
0010
,
1000
0000
0000
0000
0023
0000
0000
0030
0020
0000
0000
0000
0031
1000
0200
0000
,
1000
0000
0000
0000
0320
0000
0000
0030
0020
0000
0000
0000
0000
0000
0000
0000
,
0000
1000
0130
1000
2001
0000
0010
3002
,
1000
0000
0023
0000
0032
0000
1000
0010
,
0203
0000
0001
0000
0320
0000
0001
2030
,
0010
0000
0000
0000
3200
0000
0000
0000
0310
0002
0000
0000
0100
0000
0010
0000
,
1000
0000
0023
1000
0230
0000
0010
1000
,
0001
0000
0320
0000
2030
0000
0001
0100
,
0010
0000
3200
0000
2300
0000
0100
3010
,
0100
0001
1000
0001
0010
0100
1000
0100
0010
0001
0100
0010
1000
0100
0010
0100
,
1000
0010
0100
0001
0010
0001
0100
0010
1002
0000
0000
0000
0100
0000
0010
0000
,
1000
0000
0000
0203
0000
0000
0000
0000
0320
0000
0000
0000
0001
0000
1000
0000
,
0100
0000
1030
0100
2000
0000
0001
0100
,
0010
0000
3002
0000
0203
0000
0010
1000
,
0001
0000
0000
0000
0001
0000
1300
0000
0010
0000
0000
0100
0000
0000
0001
0000
,
2000
0000
3100
0010
0001
0100
0200
0010
,
1000
0000
0301
1000
0010
0010
0010
0010
,
0010
0010
0010
0020
0000
0000
0000
0000
,
0000
0000
0000
0000
0000
0000
0000
0000
1030
0100
0010
0002
0000
0000
0000
0000
,
0000
0000
1003
0010
0200
0000
0000
0000
0310
1000
0002
0000
0000
0000
0000
0000
,
0000
0000
0103
0000
0000
0001
0000
0000
0020
0000
0000
0000
0000
0000
0031
1000
,
0200
0000
0000
0000
1300
0010
0200
0000
0000
0000
0000
0000
0000
0000
0000
0000
,
0000
0000
0310
0000
0000
1000
0000
0000
0002
0000
0000
0000
0000
0000
0000
0000
,
0000
0000
1003
0100
2000
0000
0000
3001
,
0020
0000
0000
0000
0000
0000
0032
0000
0000
0000
0000
0103
,
0001
0000
0100
0000
0002
0000
0000
0000
0000
0000
0000
0000
0000
0000
1003
0100
1000
0000
0010
0000
0100
0000
0020
0000
,
0000
0000
0000
0000
0000
0000
0000
0000
0000
2030
0000
0000
0000
0000
0000
0000
0000
0000
0000
0000
0000
0000
3001
0000
,
0010
0000
0000
0000
0100
0000
0000
0000
0010
0000
0000
0000
0100
0000
0000
1000
0000
0000
0001
0000
0000
0000
0000
0000
1100
0000
0000
0001
0000
0000
0010
0000
0000
0100
0000
0000
1000
0000
0000
0020
0000
0000
1000
0000
0000
0000
0000
0000
,
0001
0000
0100
0000
0001
0000
1030
0000
1001
0000
0000
0000
1001
0000
0000
1001
,
0000
0000
0000
1001
0000
0000
0101
0000
0000
0000
0101
0000
0000
0110
0000
0000
,
0000
0110
0000
0000
1001
0000
0000
0000
1001
0000
0000
1001
0000
0000
0000
1001
,
0000
0000
0000
0000
0000
0000
0000
0000
0101
0000
0000
0000
0000
0000
0000
0000
0000
0000
0000
0000
0000
0000
0000
0000
0101
0000
0000
0000
0000
0000
0000
0000
0000
0000
0000
0000
0110
0000
0000
0000
0000
0000
0000
0000
0000
0000
0000
0000
0000
0000
0000
0000
0110
0000
0000
0000
0000
0000
0000
0000
0001
0010
0100
0000
,
1001
0000
0000
0000
1001
0000
0000
1001
0000
0000
0000
1001
0000
0000
1010
0000
,
0000
0000
1010
0000
0000
0011
0000
0000
0000
0011
0000
0000
1001
0000
0000
0000
,
1001
0000
0000
1001
0000
0000
0000
1001
0000
0000
0101
0000
0000
1000
0101
1000
,
0001
0110
0000
0010
0000
0110
0000
0010
1001
0000
0100
0010
1001
0100
0010
1001
,
0100
0010
0100
1001
0010
0100
1010
0001
0100
0001
1010
0001
1000
0011
0100
1000
,
0100
0011
0100
0010
1001
0100
0010
0100
1001
0010
0100
1001
0010
0100
0010
1001
,
0010
1000
0101
0010
1100
0110
0011
1100
0101
1010
0100
0011
1010
0101
1100
0110
,
1001
0000
0100
0010
1000
0001
0010
0100
0010
0001
0100
0010
1000
0000
0101
0010
,
1000
0100
0010
0100
1000
0001
0010
0100
1000
0010
0100
0000
1100
0001
0010
0001
,
1000
0100
1000
0010
0100
0001
0010
0100
1000
0000
0110
1000
0001
0000
1000
0010
,
1000
0001
0010
0001
1000
0010
0100
0000
1001
0000
0010
0100
0001
1000
0100
0010
,
0100
0001
1000
0010
0100
0000
1010
0001
0100
0010
1000
0100
0010
0100
1000
0001
,
0100
0010
1000
0000
0011
0100
1000
0010
0100
0001
0010
0100
1000
0001
1000
0010
,
0100
0000
0101
0000
0010
0100
0001
0010
0100
1000
0010
0100
0001
1000
0100
0000
,
1001
0000
0001
0010
0100
0000
0010
1000
0101
0000
0010
0000
0010
0000
1100
0000
,
0001
1000
0100
0000
1000
0100
0011
0000
1000
0000
0101
0000
1100
0000
0010
0100
,
0001
0000
0100
0001
1010
0000
0001
0000
1100
0000
0101
0000
1000
0000
0110
0000
,
0001
0000
1000
0100
1000
0000
0110
0000
1001
0000
0010
0000
1100
0000
0001
1000
,
0101
0000
0010
0000
1100
0000
0110
0000
0001
0000
1010
0000
0001
0000
0100
0001
,
0010
0000
1010
0000
1001
0000
0010
0000
0101
0000
1000
0001
0110
0000
1000
0000
,
0110
0000
0101
0000
0010
1000
0100
0000
1000
0000
0011
0000
1000
0000
0101
0000
,
1001
0000
0010
0000
1100
0000
0001
0000
1010
0000
0100
0010
1000
0000
0101
0000
,
0010
0001
0100
0000
0010
0000
0101
0000
1000
0000
0001
0000
1100
0000
0010
0000
,
0101
0000
1000
0000
0011
0000
0100
0001
1000
0000
0010
0100
0001
0000
0100
0001
,
0010
0100
0011
0010
1001
0010
0101
0010
,
1100
0000
0001
1000
0100
0000
0101
0000
0010
0000
1001
0000
0100
0000
1010
0000
,
0100
0010
1001
0000
0010
0000
0100
0000
,
0001
1000
0001
1000
0001
1000
1010
0100
,
1001
0000
1000
0110
0011
0000
1010
0101
,
0000
0001
0000
1100
0101
1010
0011
0000
,
1100
0001
0110
1001
0100
0101
1000
0110
,
0001
0000
1100
0000
0101
0000
0010
0100
1001
0000
0000
0000
1010
0000
0000
0000
,
0011
0000
0100
0000
1000
0000
0101
0000
0010
0000
0101
0000
1000
0000
0100
1000
,
0011
1010
0101
1000
0011
1100
0101
1000
,
0100
0010
0100
0000
1000
0000
0001
0000
0100
0000
0011
0000
1000
0100
0010
0100
,
1001
0000
1010
0110
1001
0011
1000
0101
,
0010
1100
0001
1010
0011
0110
1100
0000
,
0101
1100
0011
1010
0110
1001
0000
0110
,
1000
0001
1010
0100
1001
0010
0101
1100
,
0011
1000
0001
1010
0100
1010
0000
0101
,
0011
0000
1100
0000
0101
0000
1100
0000
1001
0000
0110
0000
1010
0000
0001
1000
,
0100
0000
1001
0000
0000
0000
1001
0000
0000
0000
1001
0000
0011
0000
1000
0001
,
0110
0110
1100
0101
1001
0011
1010
0101
,
1000
0000
0001
0000
0010
0000
1100
0000
0001
0000
0100
0001
1010
0000
0000
0000
,
0001
1000
0110
0011
0100
1001
0010
0101
,
0010
0000
1100
0000
0010
0001
1000
0100
1001
0000
0000
0000
0001
0000
0110
0000
,
1100
0000
0011
0000
0100
0000
1010
0001
1000
0000
0101
0000
1100
0000
0011
0000
,
1010
0110
1001
1100
1001
0101
1001
0011
,
1010
0000
0011
0000
0100
0000
1010
0000
0001
0000
1100
0000
0011
0000
0010
0100
,
1001
0100
0010
1000
0100
1000
0001
0100
0010
1000
0100
0010
0001
0100
0010
1000
,
0001
0010
0100
0010
0001
0100
0001
1000
0010
0100
0001
0010
0001
1000
0100
0000
,
0011
0100
1010
0101
1100
0101
1001
0110
,
1001
0000
0100
0000
0010
0001
0100
0010
1001
0100
0010
0001
0100
0001
1000
0001
,
0100
0010
1000
0100
0010
0100
1000
0001
0010
0100
1000
0100
0010
0001
0100
0010
,
0100
0001
1000
0010
1000
0001
0010
0000
1001
0000
0100
0000
0010
0100
0001
0100
,
0010
1000
0100
0000
1010
0000
0011
0000
1010
0000
0100
0000
0011
0000
0100
0000
,
1001
0100
0010
0001
0100
0010
0100
0001
1000
0010
0100
0001
0010
0001
0100
0001
,
1000
0100
1000
0010
0100
0001
0010
0100
0010
0001
0100
0001
1000
0010
1000
0100
,
1000
0001
1000
0010
0100
0001
0010
0100
1000
0001
0100
0001
1000
0100
1000
0010
,
0100
0001
0100
0010
1000
0001
0010
0100
1001
0010
0100
1000
0010
0100
0001
1000
,
0100
0010
0100
1000
0010
1000
0001
0010
0001
0100
0010
0100
0001
1000
0100
1000
,
0010
0100
0001
0100
0010
1000
0001
0010
0100
1000
0001
0100
0010
1000
0010
0100
,
0001
1000
0100
0010
0001
0100
0001
0000
1000
0001
1000
0000
0001
1000
0100
0010
,
1001
0100
0010
0100
1000
0010
1000
0001
0100
0010
1000
0001
0010
0001
0100
0001
,
1000
0100
0010
0100
0010
0100
1000
0010
1000
0001
0010
0001
0100
0010
1000
0100
,
1000
0100
0010
0001
0100
0010
0100
0001
1000
0010
0100
0001
0010
0100
0010
0001
,
0100
0001
1000
0100
1000
0000
0100
0010
1001
0100
0010
1000
0001
0010
0100
0010
,
0100
1000
0001
0100
0010
1000
0001
0010
0100
1000
0010
0100
0001
1000
0100
0010
,
0001
0100
0010
1000
0100
0000
1010
0000
0001
0010
0100
1000
0010
0000
0101
0000
,
1100
0000
0011
0000
1010
0000
0110
0000
0001
0010
0100
0000
0110
0000
0010
0100
,
1001
0000
0001
0110
0011
1000
0110
1001
,
0100
0011
1000
0110
0001
1100
1001
0100
,
0011
0000
1000
0010
0100
0000
1000
0010
1000
0000
0011
0000
0000
0000
1010
0000
,
0000
0000
0101
0000
1100
0000
0100
0010
1001
0000
0000
0000
0001
0000
0100
0010
,
1000
0100
0010
0001
0100
0010
1001
0000
0100
0000
1010
0000
0001
0000
0100
0010
,
1000
0100
0010
0000
1001
0000
0000
0000
1000
0100
0010
0100
1000
0001
0100
0001
,
0010
0100
1001
0000
0000
0000
1010
0000
0000
0000
0011
0000
0000
0000
0010
0000
,
1001
0101
1100
0011
1010
0110
1001
0011
,
0110
0000
1100
0000
0101
0000
1010
0000
0110
0000
1100
0000
0011
0000
0001
0100
,
0010
1000
0100
0010
0100
1000
0010
0100
0001
1000
0110
1000
0001
0100
0010
0100
,
0001
1000
0010
0100
0001
0010
0100
0010
1001
0000
1100
0000
0011
0000
1010
0000
,
0110
0101
1100
0110
1010
0101
0011
0110
,
1010
0000
0101
0000
1001
0010
0100
1000
0010
0100
0001
1000
0100
0000
0010
0100
,
1000
0000
0011
0000
0100
0000
1001
0000
0010
0100
1000
0010
0100
0010
1000
0100
,
0011
1010
0101
0110
1100
0011
1010
1001
,
0101
0011
1100
0101
0110
0011
1001
1100
,
0101
0110
0011
1010
0101
1100
0110
1010
,
0001
0100
0001
0010
0100
0010
0001
1000
0110
0000
0011
0000
1100
0000
0101
0000
,
0110
0000
1010
0000
0011
0000
1100
0000
0101
0000
0010
0100
0010
0000
1100
0000
,
0101
0000
0110
0000
1001
0100
0010
0001
0100
0010
1000
0001
0010
0000
0001
0000
,
0100
0000
1001
0000
0100
0000
0011
0000
1000
0010
0100
0001
0010
0001
1000
0001
,
0110
1000
0010
0100
0001
0010
0100
0010
0001
0100
0010
1000
0100
0010
0100
0010
,
0001
0100
0010
1000
0100
0010
0100
1000
0010
0100
0001
1000
0010
1000
0001
0010
,
0100
0010
0001
0100
0010
0100
0001
0010
0100
1000
0010
0100
0001
1000
0100
0010
,
0001
0100
0010
1000
0001
0100
0001
0100
0001
1000
0001
0100
0010
1000
0100
0010
,
0001
0100
0010
0100
0001
1000
0100
1000
0001
0100
0001
0010
0100
0010
0001
0100
,
0010
0100
0001
1000
0100
1000
0001
0100
0010
1000
0100
0010
0001
0100
0001
1000
,
0100
0010
0100
1000
0010
1000
0001
0100
0001
1000
0100
1000
0001
0110
0000
0000
,
1001
0010
0000
0000
,
0000
0000
0000
0000
,
0000
0000
0000
0000
0000
0000
0000
0011
,
0000
0000
0000
0000
,
0000
0000
0000
0000
0000
0000
0000
0000
0000
1000
0100
0010
0001
0000
0000
0000
0000
0000
1000
0000
0000
0000
0000
0000
,
1000
0010
0100
0001
0000
0010
0001
1000
,
0101
0000
0000
0000
0001
0000
0000
0000
1000
0011
0000
0000
1010
0000
0100
1001
,
0000
1001
0101
1100
0011
0000
0100
0000
,
1010
0011
0100
0001
1000
0100
0011
1000
0001
1000
0100
0010
,
1001
0000
0000
0000
0011
0000
0000
0000
0010
0100
0000
0000
1000
0000
0011
0000
,
0000
0000
1010
0000
1001
0000
0100
0000
0010
1000
0100
0010
0001
0100
0010
1000
,
0100
0000
0000
0010
0000
0000
0001
0000
0000
0100
0000
0000
0010
0000
0000
1000
0000
0000
0100
0000
0000
1000
0000
0000
0010
0000
0100
0000
0001
0000
1000
0000
0100
0000
0010
0000
0001
0000
0000
0000
0000
0000
0100
0000
0000
0000
0000
0000
,
1010
0000
0100
0000
0011
0000
0100
0001
0110
0000
1010
0000
0100
0010
1000
0100
,
1000
0010
0100
0001
1000
0000
0001
0000
1010
0000
0000
1001
0000
0011
0000
0000
,
0110
0000
1100
0000
0000
1001
0000
0101
0000
0000
1010
0000
0110
0000
1100
0000
,
1001
0000
0000
0101
0000
0110
0000
0000
0011
0000
1010
0000
0000
0110
0000
0101
,
0000
0000
1001
0000
1100
0000
0110
0000
1010
0000
0000
0101
0000
0110
0000
0000
,
0100
0001
0010
0100
1000
0010
1000
0100
0010
0001
0100
0010
0100
0001
1000
0100
0010
0100
1000
0010
0100
0001
0010
0100
,
1000
0000
0000
0000
0000
0000
0000
0000
0000
0000
0000
0000
0000
0000
0000
0000
0000
0000
0000
0000
1000
0001
0010
0100
1000
0000
0000
0000
1010
0000
0000
0000
,
0000
0000
0000
0011
0000
0000
1000
0000
0000
0001
0000
0000
0100
0000
0000
0000
0000
0000
1010
0000
0001
0000
0100
0000
,
0011
0000
0100
0000
0001
0000
1000
0000
0100
0000
0010
0000
0100
0000
1000
0001
1000
0000
0100
0000
0010
0000
1001
0000
,
0100
0010
1000
0001
0010
1000
0001
0100
1000
0001
0100
1010
,
0100
0000
0000
0000
1000
0000
0000
0000
0110
0000
0000
0000
0001
0000
0000
0000
0100
0000
0000
0000
0011
0000
0000
0000
1000
0000
0000
0000
0000
0000
0000
0000
0000
0000
0000
0000
1100
0000
0000
0000
0000
0000
0000
0000
0000
0100
0000
0000
,
0010
0000
0010
0100
1000
0001
0100
0010
1000
0100
0010
0100
1000
0001
0010
0100
,
1001
0000
0000
0000
0000
0000
0010
0100
0001
1000
0100
0010
0100
0010
0001
0100
0001
1000
0010
0100
0001
1000
0010
0100
,
0001
0010
0100
1000
0010
0100
0001
1000
0100
1000
0010
1000
0001
0100
0010
1000
0100
0010
0001
0100
0010
1000
0100
1000
,
0010
0100
0001
1000
0001
0100
0010
1000
0100
0010
0100
1000
0001
1000
0010
0100
0010
1000
0001
0010
0001
1000
0010
0100
,
0001
0000
0000
0000
0000
0000
0001
0000
0000
0000
0000
0000
0010
0001
0100
0001
1000
0010
0100
0001
0010
0001
1000
0100
,
0010
0100
1000
0010
1000
0001
0100
0010
0100
0001
1000
0100
0010
0000
0000
1010
0000
0000
1001
0000
0000
0000
0000
0000
,
0001
1000
0011
0000
0000
0000
1001
0000
1000
0001
1010
0000
0000
0000
0000
0000
,
0100
0001
1000
0100
0010
0100
1000
0010
1000
0001
0100
0010
1000
0100
0010
0001
,
0100
0001
1000
0100
0010
0100
1000
0001
0100
0010
1000
0001
0010
0001
0100
0010
,
1000
0100
0010
0100
1000
0010
0100
1000
0001
0100
0010
1000
0001
0010
0100
0010
,
0101
1000
0010
0100
0011
1000
0100
0010
1001
0100
0010
1000
0100
0010
1100
0010
,
0001
0100
0011
1000
0010
1000
0001
0100
1010
0100
0001
1000
0110
1000
0100
0010
,
0101
1000
0010
1000
0100
1000
0011
0000
0000
0000
0110
0000
0000
0000
0000
0000
,
1000
0000
0100
1000
0010
0000
1100
0000
0100
0000
0010
1000
0100
0000
1010
0000
,
0001
0000
1100
0000
0001
0100
0010
1000
0010
0000
1000
0001
0010
0000
1001
0000
,
0010
0000
0100
1000
0001
0000
0110
0000
1000
0000
0011
0000
0010
0001
1000
0001
,
0010
0000
0001
1000
0001
0000
0110
0000
0001
0000
1000
0100
0010
0000
1100
0000
,
0001
0000
1010
0000
0100
1000
0100
0010
0001
0000
1000
0010
0100
0000
1010
0000
,
0010
0000
0100
0010
1000
0000
1100
0000
0010
0000
0101
0000
1000
0000
0010
0100
,
0001
0000
0100
0001
1010
0000
0100
0000
1001
0000
0010
0100
0011
0000
1100
0000
,
0001
1000
0101
0000
0010
0000
1100
0000
1010
0000
0100
1000
0011
0000
0100
0000
,
1010
0000
0001
1000
0110
0000
0011
0000
0100
0010
1001
0000
0100
0000
1010
0000
,
1100
0000
0010
0100
1001
0000
0010
0000
0101
0000
1000
0100
0011
0000
0110
0000
,
0001
0100
1010
0000
0001
0000
1010
0000
0011
0000
1000
0010
0101
0000
1000
0000
,
0110
0000
0001
0010
1100
0000
0101
0000
0000
0000
1100
0000
0001
1000
0010
0100
,
1001
0000
0101
1000
0011
1100
0001
0110
,
0001
1010
0001
1100
0001
1010
0101
0000
,
0011
0100
1001
0110
0001
1100
0001
1010
,
0011
0110
1001
0000
0011
1000
0101
1010
,
0001
1100
0001
0110
0001
1010
0001
0110
,
0011
0000
1001
0010
0101
1100
0001
1010
,
0001
0000
0110
0000
0011
0000
1010
0000
1001
0010
0100
1000
0010
0100
0001
1000
,
0010
1000
0100
0010
0001
0100
0010
1000
0100
0010
0001
0010
0100
1000
0010
0100
,
0010
1000
0001
1000
0010
1000
0100
0010
0100
1000
0001
1000
0010
0100
0001
0010
,
0001
0100
0010
0100
0001
1000
0100
0010
1001
0100
0010
0001
1000
0100
1000
0001
,
0010
0001
1000
0010
1000
0001
0100
0010
0100
0001
0010
0001
1000
0010
0100
0001
,
0100
0010
1000
0100
0010
0100
1000
0001
0100
0001
0010
0100
0010
0100
1000
0010
,
0100
0001
1000
0001
0010
0001
0010
0100
1001
0010
0001
0100
0010
1000
0100
0010
,
0100
0010
0001
0100
0001
0100
0010
0100
0010
1000
0001
0010
0100
0010
0001
0100
,
0010
1000
0100
1000
0100
1000
0010
1000
0001
0010
0001
1000
0010
0100
0001
0010
,
0100
1000
0001
0100
0010
1000
0010
0100
1001
0100
0010
0001
1000
0001
0100
0010
,
0100
0001
0010
0100
1000
0100
0010
0100
1000
0001
0010
0001
0100
0010
1000
0100
,
0010
0100
1000
0001
1000
0100
1000
0010
0100
0010
1000
0100
1000
0001
0010
0001
,
0100
0001
0100
0010
1000
0010
1000
0010
1001
0100
0010
1000
0001
0100
0010
0100
,
0001
0010
0100
1000
0010
1000
0001
0100
0001
1000
0010
1000
0100
1000
0010
0100
,
0001
0000
0000
0000
0000
0000
0000
0000
0000
0000
0000
0000
0010
0000
0000
0000
0000
0000
0000
0000
0000
0000
0000
0000
0100
0000
0000
0000
0000
0000
0000
0000
0000
0000
0000
0000
1000
0000
0000
0000
0000
0000
0000
0000
0000
0000
0000
0000
0100
0000
0000
0000
0000
0000
0000
0000
0000
0000
0000
0000
0010
0000
0000
0000
0000
0000
0000
0000
0000
0000
0000
0000
0001
0000
0000
0000
0000
0000
0000
0000
0000
0000
0000
0000
0100
0000
0000
0000
0000
0000
0000
0000
0000
0000
0000
0000
0010
0000
0000
0000
0000
0000
0000
0000
0000
0000
0000
0000
2000
0000
0000
0000
0000
0000
0000
0000
0000
0000
0000
0000
0000
0000
0000
0000
0000
0000
0000
0000
0000
0000
0000
0000
0000
0000
0000
0000
0000
0000
0000
0000
0000
0000
0000
0000
0000
0000
0000
0000
0000
0000
0000
0000
0000
0000
0000
0000
3010
0000
0000
0000
0000
0000
0000
0000
0000
0000
0100
0000
0000
0000
0000
0000
0000
0000
0000
0000
0001
0000
0000
0000
0000
0000
0000
0000
0000
0000
0100
0000
0000
0000
0000
0000
,
0000
0000
0000
0000
0010
0000
0000
0000
0000
0000
0000
0000
0000
0000
0100
0000
0000
0000
0000
0000
0000
0000
0000
0000
0001
0000
0000
0000
0000
0000
0000
0000
0000
0000
0100
0000
0000
0000
0000
0000
0000
0000
0000
0000
0010
0000
0000
0000
0000
0000
0000
0000
0000
0000
0100
0000
0000
0000
0000
0000
0000
0000
0000
0000
0001
0000
0000
0000
0000
0000
0000
0000
0000
0000
0100
0000
0000
0000
0000
0000
0000
0000
0000
0000
0010
0000
0000
0000
0000
0000
0000
0000
0000
0000
0100
0000
0000
0000
0000
0000
0000
0000
0000
0000
0001
0000
0000
0000
0000
0000
0000
0000
0000
0000
0100
0000
0000
0000
0000
0000
0000
0000
0000
0000
0010
0000
0000
0000
0000
0000
0000
0000
0000
0000
0100
0000
0000
0000
0000
0000
0000
0000
0000
0000
0001
0000
0000
0000
0000
0000
0000
0000
0000
0000
0100
0000
0000
0000
0000
0000
0000
0000
0000
0000
0010
0000
0000
0000
0000
0000
0000
0000
0000
0000
0100
0000
0000
0000
0000
0000
0000
0000
0000
0000
0001
0000
0000
0000
0000
0000
0000
0000
,
0000
0000
2000
0000
0000
0000
0000
0000
0000
0000
0000
0000
0000
0000
0000
0000
0000
0000
0000
0000
0000
0000
0000
0000
0000
0000
0000
0000
0000
0000
0000
0000
0000
0000
0000
0000
0000
0000
0000
0000
0000
0000
0000
0000
0000
0000
0000
0000
0000
0000
0000
0000
0000
0000
0000
0000
0000
0000
0000
0000
0000
0000
0000
0000
3100
0000
0000
0000
0000
0000
0000
0000
0000
0000
0000
0000
0000
0000
0000
0000
0010
0000
0000
0000
0000
0000
0000
0000
0000
0000
0000
0000
0000
0000
0000
0000
0001
0000
0000
0000
0000
0000
0000
0000
0100
0000
0000
0000
0000
0000
0000
0000
0010
0000
0000
0000
0000
0000
0000
0000
1000
0000
0000
0000
0000
0000
0000
0000
0000
0000
0000
0000
0100
0000
0000
0000
0000
0000
0000
0000
0000
0000
0000
0000
0010
0000
0000
0000
0000
0000
0000
0000
0000
0000
0000
0000
0001
0000
0000
0000
0000
0000
0000
0000
0000
0000
0000
0000
1000
0000
0000
0000
0000
0000
0000
0000
0000
0000
0000
0000
0010
0000
0000
0000
0000
0000
0000
0000
0000
0000
0000
0000
,
0100
0000
0000
0001
0000
0000
1000
0000
0000
0100
0000
0000
0010
0000
0000
0000
0000
0000
0002
0000
0000
0000
0000
0000
0000
0000
0000
0000
0000
0000
0000
0000
0000
0000
0000
0000
0000
0000
0000
0000
0000
0000
0000
0000
1000
0003
0000
0000
,
0100
0000
2000
0000
0000
0000
0000
0000
0000
0000
0000
0000
0000
0000
0000
3200
0000
0000
0320
0000
0000
0032
0000
0000
,
0203
0000
0000
0000
0000
0000
0000
0320
,
0000
1030
0010
0100
0001
0000
0020
0000
,
0000
0000
0032
0000
,
0000
0000
0000
0000
0000
0000
0000
0000
0000
0000
0000
0000
1003
0000
0000
0100
0000
0000
0000
0000
0000
0000
1000
0000
0000
0100
0000
0000
0000
0000
0000
0000
1000
0000
0000
0100
0000
0000
0000
0000
0000
0000
1000
0000
0000
0100
0000
0000
,
0000
0000
0000
0000
0020
0000
0000
0000
0000
0000
0000
0000
0000
0000
0000
0000
0000
0000
0130
0000
0000
1000
0000
0000
0001
0000
0010
0000
0100
0000
1000
0000
0000
0200
0000
0000
0000
0000
0000
0000
0000
0000
0000
0000
0000
0000
0000
0000
,
0000
0000
0000
0000
0000
0000
0000
0300
0100
0000
1000
0001
1000
0000
0010
0100
,
0001
1000
0200
0000
0000
0000
0000
0300
1001
0100
0010
0001
0100
0010
1000
0001
,
0010
0100
0010
0001
1000
0010
0100
0001
0010
0100
1000
0001
1000
0010
0100
0001
,
0010
0000
0000
0000
0000
0000
0000
0000
0000
0000
0000
0000
0100
0000
0000
0000
0000
0000
0000
0000
0000
0000
0000
0000
1000
0000
0000
0000
0000
0000
0000
0000
0000
0000
0000
0000
0010
0000
0000
0000
0000
0000
0000
0000
0000
0000
0000
0000
0100
0000
0000
0000
0000
0000
0000
0000
0000
0000
0000
0000
0001
0000
0000
0000
0000
0000
0000
0000
0000
0000
0000
0000
0010
0000
0000
0000
0000
0000
0000
0000
0000
0000
0000
0000
0001
0000
0000
0000
0000
0000
0000
0000
0000
0000
0000
0000
0100
0000
0000
0000
0000
0000
0000
0000
0000
0000
0000
0000
0010
0000
0000
0000
0000
0000
0000
0000
0000
0000
0000
1000
0000
0000
0000
0000
0000
0000
0000
0000
0000
0000
0001
0000
0000
0000
0000
0000
0000
0000
0000
0000
0000
0100
0000
0000
0000
0000
0000
0000
0000
0000
0001
0000
0000
0000
0000
0000
0000
0000
0000
0010
0000
0000
0000
0000
0000
0000
0000
0000
0100
0000
0000
0000
0000
0000
0000
0000
0000
1000
0000
0000
0000
0000
0000
0000
0000
0000
0100
0000
0000
0000
0000
0000
,
0000
0000
0000
0000
0010
0000
0000
0000
0000
0000
0000
0000
0000
0000
0001
0000
0000
0000
0000
0000
0000
0000
0000
0000
0100
0000
0000
0000
0000
0000
0000
0000
0000
0010
0000
0000
0000
0000
0000
0000
0000
0000
1000
0000
0000
0000
0000
0000
0000
0000
0000
0010
0000
0000
0000
0000
0000
0000
0000
0000
0100
0000
0000
0000
0000
0000
0000
0000
0000
0010
0000
0000
0000
0000
0000
0000
0000
0000
1000
0000
0000
0000
0000
0000
0000
0000
0000
0000
0001
0000
0000
0000
0000
0000
0000
0000
0000
0000
0010
0000
0000
0000
0000
0000
0000
0000
0000
0000
0001
0000
0000
0000
0000
0000
0000
0000
0000
0100
0000
0000
0000
0000
0000
0000
0000
0000
0010
0000
0000
0000
0000
0000
0000
0000
0000
1000
0000
0000
0000
0000
0000
0000
0000
0000
0100
0000
0000
0000
0000
0000
0000
0000
0000
0000
0010
0000
0000
0000
0000
0000
0000
0000
0000
0000
0001
0000
0000
0000
0000
0000
0000
0000
0000
0000
0100
0000
0000
0000
0000
0000
0000
0000
0000
0000
0010
0000
0000
0000
0000
0000
0000
0000
,
0000
0000
1000
0000
0000
0000
0000
0000
0000
0000
0000
0000
0100
0000
0000
0000
0000
0000
0000
0000
0000
1000
0000
0000
0000
0000
0000
0000
0000
0000
0001
0000
0000
0000
0000
0000
0000
0000
0000
0100
0000
0000
0000
0000
0000
0000
0000
0000
0010
0000
0000
0000
0000
0000
0000
0000
0000
0000
1000
0000
0000
0000
0000
0000
0000
0000
0000
0000
0001
0000
0000
0000
0000
0000
0000
0000
0000
0000
0010
0000
0000
0000
0000
0000
0000
0000
0000
0000
0100
0000
0000
0000
0000
0000
0000
0000
0000
0000
0010
0000
0000
0000
0000
0000
0000
0000
0000
0000
0100
0000
0000
0000
0000
0000
0000
0000
0000
0000
1000
0000
0000
0000
0000
0000
0000
0000
0000
0000
0010
0000
0000
0000
0000
0000
0000
0000
0100
0000
0000
0000
0000
0000
0000
0000
0001
0000
0000
0000
0000
0000
0000
0000
1000
0000
0000
0000
0000
0000
0000
0000
0100
0000
0000
0000
0000
0000
0000
0000
0010
0000
0000
0000
0000
0000
0000
0000
0000
0001
0000
0000
0000
0000
0000
0000
0000
0000
1000
0000
0000
0000
0000
0000
,
0000
0000
0000
0100
0000
0000
0000
0000
0000
0000
0000
0000
0010
0000
0000
0000
0000
0000
0000
0000
0001
0000
0000
0000
0000
0000
0000
0000
1000
0000
0000
0000
0000
0000
0000
0000
0010
0000
0000
0000
0000
0000
0000
0000
0000
0000
0000
0000
0100
0000
0000
0000
0000
0000
0000
0000
0000
0000
0000
0000
0002
0000
0000
0000
0000
0000
0000
0000
0000
0000
0000
0000
0000
0000
0000
0000
0000
0000
0000
0000
0000
0000
0000
0000
0000
0000
0000
0000
0000
0000
0000
0000
0000
0000
0000
0000
0000
0000
0000
0000
0000
0000
0000
0000
0000
0000
0000
0000
0000
0000
0000
0000
0000
0000
0000
0000
0000
0000
0000
0000
0000
0000
0000
0000
0000
0000
0000
0000
0000
0000
0000
0000
0000
0000
0000
0000
0000
0000
0000
0000
0000
0000
0000
0000
0000
0000
0000
0000
0000
0000
0000
0000
0000
0000
0000
0000
0000
0000
0000
0000
0000
0000
0000
0000
0000
0000
0000
0000
1000
0000
0000
0000
0000
0000
0000
0000
0000
0000
0000
0000
0000
0000
0000
0000
0000
0000
0000
0000
0000
0000
0000
0000
,
0200
0000
0000
0000
0000
0303
0010
0100
,
0001
0000
0100
0000
0100
0000
0020
0000
0000
0000
0000
0030
0020
0000
0000
0030
,
0010
2000
0000
0000
3010
0100
0100
0001
,
0010
0100
0020
0000
0031
0002
0000
0000
,
0103
0000
0000
0000
0010
0000
1000
0001
0010
0000
0100
0010
0001
0100
0010
1000
,
0200
0000
0000
1300
0001
0100
0001
0020
,
0000
0000
0000
0030
1002
0000
0000
0000
,
0000
0000
0000
0000
0000
0000
0000
0013
0000
0000
0000
0100
0000
0000
0000
1000
0000
0000
0010
0000
0000
0100
0000
0000
0001
0000
0000
0010
0000
0000
0001
0000
0000
0100
0000
0000
0010
0000
0000
1000
0000
0000
0001
0000
0000
1000
0000
0000
,
0010
1000
0001
0010
0200
0000
0000
0000
0000
0000
0000
0000
0000
0000
0000
0000
,
1300
0000
0000
0002
0000
0000
0000
0000
0000
0000
0000
0000
0000
0000
0000
0000
0000
0000
0013
0100
0010
0001
0100
0001
,
1000
0010
0100
0001
1000
0001
0010
0001
0100
0001
0010
0100
1000
0010
0100
0001
1000
0100
0020
0000
0000
0000
0000
0000
,
0000
0000
0000
0000
0000
0000
0000
0000
0031
0000
0100
0000
0001
0000
2000
0000
0000
0000
0000
0000
0000
0000
0000
0000
0000
0000
0000
0000
0000
0000
0000
0000
0000
0000
0000
0000
0000
0000
0000
0000
0000
0000
3010
0000
0000
0100
0000
0000
,
0001
0010
0100
0010
0001
1000
0010
1000
0100
1000
0001
0100
0010
0100
0001
1000
,
0110
0000
0000
0001
0000
0000
0010
0000
0000
0100
0000
0000
0010
0000
0001
0000
0010
0000
0100
0000
1000
0000
0010
0000
0100
0000
0010
0000
1000
0000
0001
0000
0010
0000
0001
0000
1000
0000
0010
0000
0100
0000
0001
0000
0100
0000
0010
0000
,
1000
0000
0000
0000
0000
0000
0000
0000
0100
0000
0000
0000
0000
0000
0000
0000
0010
0000
0000
0000
0000
0000
0000
0000
0100
0000
0000
0000
0000
0000
0000
0000
1000
0000
0000
0000
0000
0000
0000
0000
0000
0000
0001
0000
0000
0000
0000
0000
0000
0000
0000
0000
0000
0000
0010
0000
0000
0000
0000
0000
0000
0000
0000
0000
0100
0000
0000
0000
0000
0000
0000
0000
1000
0000
0000
0000
0000
0000
0000
0000
0001
0000
0000
0000
0000
0000
0000
0000
0100
0000
0000
0000
0000
0000
0000
0000
0010
0000
0000
0000
0000
0000
0000
0000
0000
0000
0000
0000
1000
0000
0000
0000
0000
0000
0000
0000
0000
0000
0000
0000
0200
0000
0000
0000
0000
0000
0000
0000
0000
0000
0000
0000
0000
0000
0000
0000
0000
0000
0000
0000
0000
0000
0000
0000
0000
0000
0000
0000
0000
0000
0000
0000
0000
0000
0000
0000
0000
0000
0000
0000
0000
0000
0000
0000
0000
0000
0000
0000
0000
0000
0000
0000
0000
0000
0000
0000
0000
0000
0000
0000
0000
0000
0000
0000
0000
0000
0000
0000
0000
0000
0000
0000
,
0000
1300
0001
0100
0001
0010
0100
1000
0010
1000
0100
1000
0001
0000
0010
0000
,
0200
0320
0000
0000
,
2030
0000
0000
0000
3001
0100
0010
1000
,
0200
0000
0320
0000
,
0000
0000
0000
0030
1002
0000
0000
0000
,
0000
0000
0103
0020
0000
0000
1030
0200
,
0000
0000
0000
0000
0000
0000
1300
0020
,
0000
0000
0000
0000
1030
0000
0002
0000
0000
0000
0000
0000
0103
0001
1000
0001
,
0010
0000
0000
0000
0001
0000
0000
0000
0100
0000
0000
0000
0001
0000
0000
0000
0010
0000
0000
0000
0001
0000
0000
0000
1000
0000
0000
0000
0001
0000
0000
0000
0100
0000
0000
0001
0000
0000
1000
0000
0000
0001
0000
0000
0100
0000
0000
0001
0000
0000
0010
0000
0000
0001
0000
0000
1000
0000
0000
0001
0000
0000
0010
0000
,
0000
0000
0000
0001
0000
0000
0000
0000
0000
0000
0000
0000
0200
0000
0000
0000
0000
0000
0000
0000
0000
0000
0000
0000
0000
0000
0000
0000
0000
0000
0000
0000
0000
0000
0000
0000
0000
0000
0000
0000
0000
0000
0000
0000
0000
0000
0000
0000
0000
0000
0000
0000
0000
0000
0000
0000
0000
0000
0000
0000
0000
0000
0000
0000
0000
0000
0000
0000
0000
0000
0000
0000
0000
0000
0000
0000
0000
0000
0000
0000
0000
0000
0000
0000
0000
0000
0000
0000
0000
0000
0000
0000
0000
0000
0000
0000
0310
0000
0000
0000
0000
0000
0000
0000
0000
0000
0000
0000
0100
0000
0000
0000
0000
0000
0000
0000
0000
0000
0000
0000
0010
0000
0000
0000
0000
0000
0000
0000
0000
0000
0000
0000
1000
0000
0000
0000
0000
0000
0000
0000
0000
0000
0000
0000
0010
0000
0000
0000
0000
0000
0000
0000
0000
0000
0000
0000
0100
0000
0000
0000
0000
0000
0000
0000
0000
0000
0000
0000
0001
0000
0000
0000
0000
0000
0000
0000
0100
0000
0000
0000
0000
0000
0000
0000
0010
0000
0000
0000
0000
0000
0000
0000
,
1000
0000
0000
0100
0000
0000
1000
0000
0001
0000
1000
0000
0020
0000
0000
0000
0000
0000
0000
0000
0000
0000
0000
0000
0230
0000
0000
0000
0000
0000
0000
0000
0000
0000
0000
0000
0000
0000
0000
0000
0000
0000
0000
0000
0000
0000
0000
0000
,
0301
0010
0100
0010
0100
1000
0010
0100
0001
0100
0001
1000
0100
0010
0001
1000
0001
0100
0020
0000
0000
0000
0000
0000
,
0000
0000
0000
0000
,
1030
0100
1000
0001
0100
0010
0100
0010
1000
0100
0010
0100
1000
0000
0000
0000
0000
0000
0110
0000
0000
0000
0000
0000
,
0001
0000
0000
0000
1100
0000
0010
0000
0000
0000
1000
0000
0001
0000
0001
1000
,
0200
0000
0320
0000
0032
0000
0000
0203
,
0000
0000
0320
0000
0000
0000
0030
0000
1001
0100
0010
0001
0100
0010
1000
0001
,
0010
0100
1000
0001
0100
0010
0100
0001
0010
0100
1000
0010
0100
0001
1000
0100
,
0010
0100
1000
0001
0010
0001
0100
0010
1000
0010
0100
0010
1000
0100
1000
0001
,
0100
0010
1000
0010
0100
0001
0010
0001
0100
0010
1000
0010
0100
0010
1000
0100
,
2000
0000
0000
0000
3100
1000
0100
0010
,
0100
0010
0001
0100
0010
1000
0100
1000
,
0020
0000
0000
0000
1030
0002
0000
0023
,
0000
0000
0000
0000
0000
0000
0000
0000
0130
1000
0001
1000
0010
1000
0001
0010
,
0100
0010
0100
0010
0001
1000
0100
1000
0010
0100
0001
1000
0001
0010
0100
1000
,
0010
1000
0001
0010
0100
0010
0001
0100
0001
1000
0010
0100
0001
0100
0010
1000
,
0001
0000
0000
0100
0000
0000
0010
0000
0000
0100
0000
0000
0001
0000
0000
1000
0000
0000
0100
0000
0000
1000
0000
0000
0010
0000
0000
0100
0000
0000
0001
0000
0000
0010
0000
0000
0100
0000
0000
1000
0000
0000
0001
0000
0010
0000
0100
0000
,
2000
0000
0000
0000
0000
3100
0010
0001
,
0100
0001
0020
0000
0000
0000
0032
0000
,
0103
0010
1000
0010
0100
0002
0000
0000
,
0000
0000
0000
0000
0003
0000
0000
0000
1010
0001
0010
0100
1001
0010
0100
0001
,
1000
0100
0011
0100
1000
0001
0110
0001
0010
0100
1000
0001
1010
0100
0010
0001
,
0110
0001
1000
0010
0100
0001
1100
0010
1000
0100
0011
0100
1000
0001
0100
0010
,
1001
0100
0010
0100
1000
0001
0010
0100
0010
0001
0100
0010
1000
0100
0010
0100
,
0011
1000
0100
0010
0001
0100
1000
0001
0010
0100
0001
0100
0010
1000
0010
0100
,
0001
1000
0100
0001
0100
0010
1000
0010
0001
0100
0010
0100
0001
0010
0100
1000
,
0101
0000
0000
0000
,
0000
0000
0000
0000
,
0000
0000
0000
0000
0000
0000
0000
0000
0110
0100
0100
0100
0011
1000
1000
1000
,
0100
1000
1000
0011
0100
0100
1100
1001
0010
0010
0010
0010
1100
0010
0010
0010
,
0001
0100
0100
0011
1000
1000
1001
0101
0010
0010
0010
0010
0101
1000
1000
1000
,
0001
0100
0100
1010
0100
0100
1100
1001
0010
0010
0010
0001
1100
0100
0100
0010
,
1000
1000
1000
0101
1000
1000
1100
0011
0110
0100
0100
0100
0011
0100
0100
0100
,
0010
1000
1000
0101
0010
0010
1010
0101
1000
1000
1000
1000
0011
0100
0100
0100
,
0010
0100
0100
0011
1000
1000
1001
0101
0010
0010
0010
0010
1001
0010
0010
0010
,
0100
1000
1000
0011
0100
0100
1100
0011
1000
1000
1000
0001
1010
0010
0010
0100
,
1000
1000
1000
0001
1010
1001
1100
0110
1001
0100
0010
0001
1100
0010
1000
0001
,
0010
0100
1000
0011
1010
0100
0001
1000
0010
0100
0001
1000
0110
0001
0100
0010
,
0100
0001
1000
0101
1100
0010
0100
1001
0011
0100
1000
0100
1010
0001
0100
0010
,
0100
0001
1000
0110
1001
0010
0001
1100
0011
1010
0100
1001
0110
1000
0001
0100
,
0010
1000
0100
0011
1001
0010
0100
1000
0101
1000
0100
0010
1001
0100
0010
1000
,
0011
0100
0010
1100
0001
0010
0101
1000
0110
0001
0100
0010
1001
0100
0010
1000
,
0011
0100
0001
1010
0100
0010
1001
0010
0101
1000
0010
0100
0011
1000
0100
0010
,
0101
1000
0010
1100
0001
1000
0110
1000
0101
0010
1000
0001
0110
1000
0010
0100
,
0011
0100
1000
0101
0010
0100
1010
0100
1001
0010
0100
1000
0011
0100
0001
1000
,
0110
0001
0100
1010
0001
0100
0011
1000
0110
0001
0100
0010
1100
0001
0010
0100
,
1001
0010
0100
0011
1000
0100
1010
0001
1100
0010
0100
0001
1010
0001
0100
0010
,
1100
0001
1000
0110
1001
0010
0101
1000
0011
0100
0001
1000
0110
0001
0100
0011
,
1000
0001
1010
0100
1001
0010
0100
1000
0101
1000
0010
0100
0011
1000
0100
1010
,
0001
0100
1001
0010
1100
0001
0100
0010
0101
1000
0010
0100
0011
1000
0100
1010
,
0001
1000
0110
0001
1100
0010
0100
0001
0110
1000
0100
0010
0101
1000
0010
1100
,
0011
1000
0110
0001
0110
1100
0110
0011
1010
0010
0010
0010
0010
0010
0010
0010
,
0010
0010
0010
0010
0010
0010
0010
0010
0100
0100
0100
0100
0100
0100
0100
0100
,
0100
0100
0100
0100
0100
0100
0100
0100
0001
0001
0001
0001
0001
0001
0001
0001
,
0001
0001
0001
0001
0001
0001
0001
0001
1000
1000
1000
1000
1000
1000
1000
1000
,
0100
0100
0100
0100
0100
0100
0100
0100
0010
0010
0010
0010
0010
0010
0010
0010
,
0010
0010
0010
0010
0010
0010
0010
0010
0100
0100
0100
0100
0100
0100
0100
0100
,
0100
0100
0100
0100
0100
0100
0100
0100
1000
1000
1000
1000
1000
1000
1000
1000
,
1000
1000
1000
1000
1000
1000
1000
1000
0001
0001
0001
0001
0001
0001
0001
0001
,
0100
0100
0100
0100
0100
0100
0100
0100
1001
0000
0011
0100
1010
0000
0001
1100
,
0010
0101
1000
0011
0100
0000
1010
0001
1100
0000
0011
0100
1010
0000
0001
0110
,
1000
0101
0010
1100
0001
0000
0010
0010
1001
0000
0110
0001
1100
0000
0100
0011
,
1000
0101
0010
1001
0100
0000
1010
0100
0011
0000
1100
0010
0101
0000
1000
0110
,
0001
1010
0100
0011
1000
1000
0101
0000
1100
0010
1001
0000
0100
0011
0100
1010
,
0001
1100
0010
0000
0101
1000
0011
0000
1010
0100
1001
0000
0010
1100
0001
1010
,
0100
0011
1000
0000
0001
1000
0110
0000
1100
0001
1010
0000
0100
0011
1000
0101
,
1000
0000
0110
0000
0001
0000
0000
0000
1100
0000
0010
0000
0101
0000
0000
0000
1010
0000
0000
0000
0011
0000
0000
0000
0100
0000
1001
0000
0010
1000
0010
0010
,
0100
0001
0100
0100
1001
0000
0000
0000
0110
0000
0001
0000
1010
0000
0000
0000
0100
0000
0011
0000
1000
0000
0101
0000
0010
0000
1100
0000
0001
0000
0000
0000
,
1010
0100
0011
0000
1100
0010
1001
0000
0100
1010
0001
0110
1000
0101
0010
0000
,
0100
0100
1001
0000
0110
1000
0011
0000
0100
1010
0001
1100
0010
1001
0010
0000
,
0101
1000
0011
0000
1010
0100
1001
0000
0010
1100
0001
1010
0100
1001
0010
0010
,
1100
0000
0011
1000
0110
0000
0001
1010
0100
1001
0010
1100
0001
0000
1010
0100
,
0011
0000
0110
1000
0101
0000
0010
1100
0001
1010
0100
0011
1000
0000
0100
1000
,
0011
0000
1010
0100
1001
0000
0010
1100
0001
0110
1000
0101
0010
0000
1010
0100
,
1001
0000
0100
1000
0011
0000
0100
0001
1100
0101
1000
1000
0011
0000
0010
0010
,
1001
0000
0100
0011
0000
0000
1000
0000
0001
1010
0000
0000
,
0101
0000
1000
0011
0000
0000
0110
0000
0001
1010
0101
0000
,
0101
0000
1000
0011
0000
0000
0100
0000
0010
1100
0011
1010
,
0101
0000
1000
0011
0000
0000
1001
0000
0001
1100
0010
0000
,
0110
0000
0010
0101
0000
0000
1100
0000
0010
1001
0110
0000
,
1100
0000
1000
0011
0000
0000
1010
0000
0010
0101
0000
0110
,
1001
0000
0001
1100
0000
0000
0010
0000
0010
0101
0000
0000
,
1001
0000
0000
0000
1001
0000
0010
1000
0010
0000
0010
0000
1000
0100
1000
0000
1000
0000
0010
0100
0010
0000
0010
0000
,
1001
0010
0100
0011
1000
0100
1010
0001
1100
0011
1010
0001
,
0110
1000
0100
0011
0100
0010
1001
0100
0010
0101
1000
0001
,
1100
0010
0100
1001
0010
0100
1010
0001
1100
0010
0101
1100
,
0110
1000
0001
1010
0100
0010
0101
1000
0011
1100
1010
0100
,
1001
0010
0001
1100
0010
0100
0001
1000
0100
1010
0011
0100
,
1010
0001
0010
1100
0001
1000
0101
0010
0100
1001
0010
0100
,
1000
0001
1000
0001
1000
0001
1000
0001
1000
0001
1000
0001
1000
0001
1000
0001
1000
0001
1000
0001
1000
0001
1000
0001
,
0100
0010
1000
0010
0100
0001
0010
0100
1000
0010
1000
0100
0010
0001
0100
0001
0010
0001
1000
0010
1000
0001
0010
0100
,
1000
0000
0010
0000
0100
0000
1010
0000
0001
0000
0100
0000
0010
0000
1000
0000
0100
0000
0011
0000
0100
1000
0001
0000
,
1010
0011
0101
0110
1100
0011
1001
0110
1001
1010
0011
0110
,
0101
1000
0001
1100
0010
0100
0001
0010
0100
1010
0001
1000
,
0011
0110
0101
1100
0110
1100
0011
0110
0101
1010
0011
0110
,
0001
0010
0100
1000
0001
0100
0001
0010
0001
1000
0100
0010
0100
1000
0010
0100
,
0001
0000
0000
1000
0000
0000
1000
0000
0000
0010
0000
0000
0010
0000
0000
0100
0000
0000
0100
0000
0000
0001
0000
0000
1000
0000
0100
0000
0010
0000
0100
0000
0010
0000
0001
0000
0010
0000
0100
0000
1000
0000
0010
0000
0100
0000
0001
0000
,
0010
0100
0010
0001
0100
0010
1000
0010
0100
0001
0010
0100
1000
0000
0010
0000
0100
0000
0100
0000
0001
0000
1000
0000
,
0100
0010
0001
0100
0010
1000
0001
0100
0010
1000
0100
0010
0001
0010
0100
1000
0010
0100
0010
1000
0001
1000
0100
0010
,
0001
0000
1000
0011
0100
0001
1010
0000
0010
1100
0001
0100
,
1001
0000
0001
1010
0100
0010
1100
0000
0002
0010
0000
0000
,
0103
0000
0100
1010
0001
0100
0011
0000
0001
1100
0010
0100
,
1010
0000
0010
0101
1000
0100
0011
0000
2000
0001
0000
0000
,
3010
0000
0010
1100
0001
1000
0011
0000
0010
0101
1000
0100
,
1010
0000
0010
1100
0001
1000
0011
0000
0200
0010
0000
0000
,
0301
0000
0001
1010
0001
0100
0011
0000
0010
0101
1000
0001
,
1100
0000
0100
1001
0100
0011
1100
0000
0020
0100
0100
0130
,
1001
0000
1001
0110
1000
0001
1100
0000
1100
0011
1000
0101
,
1010
0000
0101
1000
0001
0100
0011
0000
1000
0011
1100
0011
,
1010
0000
0101
0011
1100
0000
0101
0000
1100
0110
0011
1010
,
1100
0000
0011
0000
1100
0000
0101
0000
0010
0000
1001
0000
0010
0000
0001
0010
0100
0000
1010
0000
0011
0000
1100
0000
,
0011
0000
1010
0101
1100
0011
0101
0000
1010
0011
1100
1001
,
1100
0000
0000
0000
0001
1000
0100
0010
0001
0000
0100
0000
0011
0000
0000
0000
1010
0000
1100
0000
1001
0000
0000
0000
,
0110
0000
1100
0011
1010
0000
0101
0000
1001
1100
0101
1100
,
0101
1010
0011
0100
1001
0010
1100
0001
1010
0101
1100
0010
,
1001
0000
0011
1100
1010
0001
1100
0000
0110
1100
0011
0100
,
1010
0000
0101
1100
0011
0100
1001
0000
0110
0011
1010
0100
,
1001
0000
1000
0011
0100
0001
0110
0000
0010
1100
0001
0100
,
1010
0000
0000
0000
0001
0000
0110
0000
1000
0001
1000
0100
1000
0010
1000
0001
1000
0010
1000
0000
0000
0000
0000
0000
,
0101
0000
1010
0101
0000
1100
0011
0000
0110
1001
0000
1001
,
0000
0001
0010
0100
1000
0010
0100
0000
0010
0000
1000
0001
0010
0000
0100
0000
1000
0100
0010
0000
0100
0000
0010
0000
,
0001
0000
0000
0100
0000
0000
0010
0000
0000
0001
0000
0000
0010
0000
0000
1000
0000
0000
0001
0000
0000
0010
0000
0000
0100
0000
0000
0000
1000
0000
0000
0000
0001
0000
0000
0000
0010
0000
0000
0000
0001
0000
0000
0000
0100
0000
0000
0000
,
0010
1000
0010
0000
0010
0000
1000
0100
1000
0000
1000
0000
0001
0010
0001
0000
0001
0000
0100
0010
0100
0000
0100
0000
,
1001
0000
1000
0011
0000
0000
1010
0000
0010
1001
0000
0000
,
0011
0000
0000
0000
0010
0000
0101
0000
0000
0000
1100
0000
0010
0000
0000
0000
0001
1000
0100
0010
0100
1000
0010
0100
,
0001
0000
1010
0101
1010
0000
1010
0000
0011
1100
1010
0000
,
1001
0000
1000
0110
0000
0011
0100
0000
0100
1010
0000
0010
,
1000
0011
0100
0011
0000
0110
1000
0011
0100
0011
0000
0110
,
1000
0011
0100
0011
0000
0110
0011
0000
0110
1001
1100
0101
,
1010
0000
0010
0101
0000
0000
1000
0000
1000
0110
0000
0000
,
0010
0100
0001
0000
1010
0000
0110
0000
1100
0000
1001
0000
1010
0000
0000
0000
0000
0000
0101
0000
0000
0000
0000
0000
,
1001
0000
0000
0000
0000
0000
0000
0000
1000
0000
0000
0000
0010
0000
0000
0000
0100
0000
0000
0000
0001
0000
0000
0000
0010
0000
0000
0100
0000
0000
0010
0000
0000
0001
0000
0000
0100
0000
0000
0001
0000
0000
1000
0000
0000
0010
0000
0000
,
0100
0001
0010
0100
1000
0100
0010
1000
0010
0001
0100
0010
0100
0001
1000
0100
,
0010
0100
1000
0001
0010
0001
0100
0001
1000
0010
0100
0001
0010
0100
0010
0001
,
1000
0000
0010
0000
0100
0000
0001
0000
1000
0000
0100
0000
1000
0100
0010
0100
0010
0001
0100
0001
1000
0001
1000
0010
,
0100
0000
1000
0101
0010
1100
0101
0000
0010
0101
1000
0010
,
0101
0000
0001
1100
0010
1001
0100
0000
0100
0011
1100
1001
,
1010
0000
0011
1100
0110
0001
1100
0000
0110
0101
0011
0100
,
1010
0000
0000
0000
1000
0000
0101
0000
0010
0000
1001
0000
0100
0000
1000
0010
0100
0001
0010
0100
1000
0001
1000
0000
,
0110
0000
0010
0101
1000
0100
1010
0000
0010
1100
0001
1000
,
0011
0000
0010
0101
0010
0100
1010
0000
0010
1100
0010
0101
,
1010
0000
0010
1001
0100
0010
1100
0000
0011
1100
0101
0010
,
1001
0000
1010
0101
1010
0100
0011
0000
1100
0110
0110
0110
,
1001
0000
0001
1100
0001
1000
0101
0000
0100
0011
1000
0100
,
1010
0000
0010
1001
0100
1000
0101
0000
0020
0001
0000
0000
,
0130
0000
0100
0011
0100
1000
0101
0000
0010
1100
0001
1000
,
0011
0000
0010
0101
0010
0100
1010
0000
0002
1000
0000
1000
,
0013
0000
0010
1100
0001
0010
0101
0000
0100
1010
0001
1000
,
0011
0000
0100
1001
0010
1000
0101
0000
2000
0010
0000
0010
,
3100
1010
1010
1010
0001
0110
0110
0110
1000
0011
0011
0011
,
1000
0000
0101
0000
0101
0000
0101
0000
0001
1000
0001
0000
1000
0000
1000
0100
1000
0000
0010
0000
0010
0100
0010
0000
,
2001
0000
0000
0000
0000
0000
0000
0000
0000
0000
0000
0000
0000
0000
0000
0000
0000
0000
0000
0000
0000
0000
0000
0000
0000
0000
0000
0000
0000
0000
0000
0000
3200
0000
0000
0000
0320
0000
0000
0000
0000
0000
0000
0030
0020
0000
0000
0000
,
0230
0000
0000
0302
0000
0023
0000
0000
0000
0000
0000
0000
,
0032
0000
0000
0000
0000
0000
0000
0000
0013
0000
0100
1000
0100
0010
0001
0100
0010
1000
0100
1000
0001
0100
0010
0100
,
0001
1000
0010
1000
0100
0010
0200
0000
0000
0000
0000
0000
0000
0000
0000
0000
0301
0000
0100
0000
0010
0000
1000
0000
,
0100
0010
0001
0100
0001
1000
0010
0100
0020
0000
0000
0000
,
0130
0001
1000
0010
0100
0001
0010
0100
1000
0010
0100
0001
1000
0100
0010
0001
0100
0010
1000
0001
0010
0001
0100
0010
,
1000
0100
0010
0001
1000
0100
0010
0001
1000
0010
0100
0001
0010
0001
0100
0001
1000
0100
0010
0100
1000
0010
0100
0001
,
0100
0010
1000
0001
0010
0100
1000
0020
0000
0000
0000
0000
0000
0000
0000
0000
0000
0000
0000
0000
0000
0000
0000
0000
,
0130
1000
0100
0010
0010
0001
0100
0001
0010
0100
1000
0010
,
0200
0000
0000
0301
1000
0002
0000
0000
0000
0000
0000
0000
,
1003
0010
0100
0001
0010
0100
1000
0001
0100
0010
1000
0100
0010
0100
1000
0010
0100
0001
0010
0100
1000
0010
0100
0010
,
1000
0100
0010
0001
0100
0001
1000
0010
0100
0010
1000
0001
0010
0100
1000
0100
0010
0001
0100
0001
1000
0001
0010
0100
,
1000
0000
0000
0000
0000
0000
0000
0000
0000
0000
0000
0000
0100
0002
0000
0000
0000
0000
0000
0000
0000
0000
1003
0000
,
0002
0000
0000
0023
0000
0230
0000
0000
0000
0000
0000
0000
,
1300
0000
0100
0000
0010
0000
0100
0000
1000
0000
0001
0000
0100
0000
0010
0000
0100
0001
1000
0010
0100
0001
0100
0010
,
1000
0001
0010
0001
0100
0001
1000
0010
0100
0020
0000
0000
0000
0000
0000
0000
0000
0000
0000
0000
0000
0000
0000
0000
,
1030
0100
0010
0001
1000
0100
0010
0001
1000
0100
0010
0001
0100
0010
1000
0001
0010
0100
1000
0001
0100
0001
1000
0100
,
0020
0000
0000
0000
0000
0000
0000
0000
0000
0000
0000
0000
0000
0030
0000
0010
0000
0000
0001
0000
0000
1000
0000
0000
0200
0000
0000
0000
0000
0000
0000
0000
1300
0000
0010
0000
1000
0000
0001
0000
0010
0000
0100
0000
0010
0000
0001
0000
,
0200
0000
0000
0000
0000
0000
0000
0000
0000
0000
0000
0000
0310
1000
0100
0010
0001
0010
0100
1000
0010
0100
0001
0000
,
0020
0000
0000
0000
0031
0100
0010
1000
0100
1000
0001
0010
0100
0000
0000
0000
1000
0001
1000
0000
0010
0000
0010
0000
,
1001
0000
0000
0000
,
1001
1100
0000
0011
0000
1100
0000
1010
,
0000
1100
0000
0101
0000
0110
1100
0011
,
1010
0101
1100
0101
0000
1001
0000
0101
,
0000
1010
0000
0011
0110
0000
0110
0000
,
0011
1010
0000
1100
0000
1010
0000
0101
,
0000
1010
0000
1001
0000
0110
0011
1010
,
0110
0101
1100
0101
0000
1010
0000
0011
,
0000
0110
0000
1100
1001
0000
1000
0101
,
0000
0100
0011
0000
0001
1010
0000
0010
,
0101
0000
1100
0000
0011
1100
0010
0101
,
1000
0110
1000
0011
0100
1010
0100
1001
,
0010
1100
0110
0011
1010
0101
1100
0110
,
0001
1010
0100
0011
1000
0101
1000
0011
,
1001
0000
1001
0000
1010
1100
0001
0110
,
0001
1100
0010
0101
0010
1001
0100
0011
,
1000
0110
1100
0101
0011
1010
0110
1010
,
0001
1100
0001
1010
0001
0110
1000
0101
,
1100
0000
0000
0101
0000
0000
1010
0000
,
1000
0011
0000
0000
1001
0000
0011
0000
,
1100
0000
0010
0000
0010
0000
0101
0000
1000
0000
1000
0000
0022
0033
0100
0000
,
0100
1010
0001
0001
1100
0001
1010
0100
,
1001
0010
1100
0001
1010
0100
0010
0101
,
1000
0110
1000
0000
0011
0100
1010
0001
,
1100
0010
0100
1001
0010
0101
1000
0000
,
1010
0011
0110
0101
0000
0110
0101
0000
,
1010
0001
1100
0010
0101
0010
0100
1001
,
0010
1100
0001
0000
0011
0100
1010
0100
,
1001
0010
0100
1010
0100
0011
1000
0000
,
1100
0110
0011
1100
0110
0011
1010
0000
,
1010
0000
0101
1000
0110
0001
1010
0100
,
0010
1100
0001
1010
0001
0000
0101
0010
,
1001
0100
0011
0100
1000
0101
0010
1001
,
0100
1010
0011
0000
0110
0000
0101
0000
,
0001
1100
0000
0110
0000
1010
0011
1000
,
0101
0010
1001
0100
1000
0011
0100
1010
,
0001
0000
0011
1000
0101
1000
0110
0001
,
0100
1010
0100
1001
0100
0000
1100
0101
,
0110
1010
0011
0101
0110
0011
1010
0110
,
0101
1100
0110
0000
1001
0000
0000
0000
,
1000
0000
0000
0000
0100
0000
0000
0000
0010
0000
0000
0000
0001
0000
0000
0000
0100
0000
0000
0000
0010
0000
0000
0000
1001
0000
0000
0000
0000
0000
0010
0000
0000
0001
0000
0000
0100
0000
0000
0000
0000
0000
0100
0000
0000
0000
0000
0000
,
1010
0000
0001
1000
0100
0010
0001
0110
,
0011
0110
1100
0000
1010
0000
0001
0010
,
1100
0010
0101
0011
1100
0011
0100
0011
,
1010
0000
0101
1100
0101
1100
1010
0110
,
0101
0010
1001
0000
0110
0001
1000
0001
,
0010
0001
0000
1001
0110
0000
1000
0000
,
0001
0000
0010
0000
0100
0000
0010
0000
0000
1000
0000
0000
0100
0000
0000
0010
0000
0000
1000
0000
0000
0001
0000
0000
,
0110
0000
0001
0010
0100
0000
1000
0000
0011
0000
1000
0000
0001
0000
0010
0000
,
0100
1000
0101
0110
1001
0000
0100
0000
,
1010
0001
0100
0010
1000
0010
0000
0010
,
0101
0000
1000
0010
1000
0001
0010
1100
,
0001
1010
0001
0110
1001
0100
0010
0001
,
1100
0010
1000
0001
0010
0100
1000
0100
,
0011
0000
0000
1000
0000
0000
0001
0000
0000
0100
0000
0000
0010
0000
1000
0000
0010
0000
0100
0000
0000
0001
0000
0000
,
1000
0101
0010
1002
0100
0000
0023
0000
,
0001
0230
0000
0000
2300
0000
0000
3010
,
0100
0100
0001
0010
0100
1000
0010
1000
,
0001
0010
0100
1000
0020
0000
0100
0000
0100
0000
0000
0000
0000
0000
0000
0000
,
0130
0000
0001
0000
1000
0000
0100
0000
0010
0100
1000
0000
0010
0000
0001
0000
,
0010
1000
0001
0010
0100
1000
0100
0010
,
0000
0010
0000
0010
0000
0010
0001
1000
,
0100
1010
0000
1100
0000
0000
0001
0100
,
0001
0010
0100
1000
0001
0100
0010
1000
0100
0010
0001
0100
,
0010
0000
1000
0000
0001
0000
0010
0000
0001
0000
0100
0000
1001
0000
0000
0000
0000
0000
0001
0000
0000
0100
0000
0000
,
0001
0000
0000
0000
0010
0000
0001
0010
0100
0000
0010
0000
0001
0000
0100
0000
,
0010
0000
1000
0100
1000
0000
0001
1000
,
0000
0000
0100
0000
1000
0000
0001
0100
0001
0000
1000
0000
0001
0100
0001
0000
,
1000
0000
0000
0000
0000
0000
0001
0000
0000
0100
0000
0000
0001
0000
0000
0000
0000
0000
1000
0000
0000
0000
0000
0000
0001
0000
0100
0000
0010
0000
1000
0000
0000
0100
0000
0000
0010
0000
0000
0000
0000
0000
0100
0000
0000
0000
0000
0000
,
1000
0010
0200
0000
0000
0000
0000
0310
,
0000
0000
0000
0010
0000
0000
0000
0000
0000
0010
0000
0000
1001
0000
0100
0000
0010
0000
0100
0000
1000
0000
0010
0000
,
1000
0001
0100
0010
0100
0001
0010
0001
1000
0010
1000
0100
,
1000
0010
0100
0001
0100
0010
1000
0100
0010
0001
0010
0100
,
1000
0001
0100
0010
1000
0001
0010
0100
1000
0100
0010
0001
,
0100
0000
0010
0000
1000
0000
0010
0000
0100
0000
0001
0000
2000
0000
0000
0000
0000
0000
3010
0000
0000
1000
0000
0000
,
0100
0000
0010
0000
0100
0000
1000
0000
0000
0001
0000
0000
0100
0000
0010
0000
1000
0000
0001
0000
0000
0100
0001
0000
,
0000
1000
0100
0010
1001
0100
0000
0000
,
0010
0100
1000
0100
0010
0001
1000
0001
,
0010
0000
0000
0000
0200
0000
0000
0000
0000
0000
0000
0000
0000
0000
0000
0000
0000
0310
0000
0000
0001
0000
0000
0010
0000
0000
0100
0000
0000
1000
0000
0000
,
0100
0000
0010
0000
0001
0000
0100
0000
0010
1000
0100
0010
0001
0010
0100
1000
,
0020
0000
0000
0000
0130
0001
0010
0001
,
1000
0000
0100
0000
0010
0000
0100
0000
0000
1000
0000
0000
0010
0000
0000
1000
0000
0000
0001
0000
0000
1000
0000
0000
,
0000
0000
0000
1000
0000
0000
0000
0000
0000
1000
0000
0000
0001
0000
0100
0000
0001
0000
1000
0000
0100
0000
1000
0000
,
0010
0100
0010
1000
0001
0010
0100
0010
0001
1000
0001
0100
,
0010
0100
0001
0010
0100
1000
0010
1000
0001
0010
0100
0010
,
0001
0100
0010
1000
0010
0100
0001
1000
0010
1000
0100
1000
,
0001
1000
0010
1000
0001
0100
0001
0010
0001
1000
0010
0100
,
0001
0100
0010
1000
0001
1000
0100
0010
0100
1000
0010
1000
,
0001
0010
0100
0010
0001
0100
1010
0000
0000
0011
0000
0000
,
1001
0000
0001
1100
0000
0110
0000
0010
,
0101
0000
1010
0000
0011
0000
0001
0110
,
0000
1001
0000
0001
1010
0000
1100
0000
,
0011
0000
0010
1001
0000
0101
0000
0001
,
1100
0000
0110
0000
0011
0000
0010
0101
,
0000
0000
0000
1010
0000
0000
0000
0000
0000
1000
0000
0000
0011
0000
0000
0000
0100
0000
0000
0000
0000
0010
0000
0000
,
1100
0000
0001
0000
1000
0000
0110
0000
1000
0000
0010
0000
,
1100
0000
0001
0000
1000
0000
0201
0000
0000
0000
0000
0000
,
0000
0000
0301
0010
0002
0000
0000
0000
,
2003
3200
0320
0000
,
0000
0000
0000
0000
0032
0000
0000
0000
0103
0020
0000
0000
0000
0000
0000
0000
,
2030
3002
0023
0000
,
0000
0000
0000
0000
0230
0000
0000
0300
0200
0000
0000
0000
0000
0000
0000
0000
,
2300
3002
2003
0000
,
0000
0000
3000
0000
1000
0100
1000
0001
,
0010
0100
1000
0001
0210
0000
0000
0000
,
2300
0000
3002
0000
0013
0001
0020
0000
,
0000
0032
0203
0000
,
0000
0320
0230
0000
,
0302
0000
0000
0000
2003
0000
3001
0001
,
0020
0230
0320
0000
,
0000
0000
0000
0000
0230
0000
0000
0300
0200
0000
0000
0300
0010
0100
0001
0100
,
0010
0100
0001
0100
0010
1000
0100
1000
0001
1000
0010
0100
0001
1000
0100
0010
,
0001
0100
0001
1000
0010
1000
0100
0010
0001
0000
0100
0000
1000
0000
0100
0000
,
0001
0010
0100
0001
0100
1000
0010
0100
,
1000
0100
0010
1000
0100
0010
0001
0010
,
0100
1000
0010
0100
0001
1000
0100
1000
,
0001
0000
0000
0010
0000
0000
0100
0000
0000
1000
0000
0000
0100
0000
0010
0000
0100
0000
0010
0000
0100
0000
1000
0000
,
0001
1000
0100
0010
0001
0100
0001
0010
0100
1000
0010
0100
,
0010
0000
0000
0000
1000
0000
0000
0000
0001
0000
0000
0000
0100
0000
0000
0000
0001
0000
0000
0000
1000
0000
0000
0000
0100
0000
0000
0000
0000
0000
0000
0000
0000
0000
0000
0000
0010
0000
0000
0001
0000
0000
1000
0000
0000
0001
0000
0000
,
0010
0000
0010
0000
0100
0010
0001
0010
0100
1000
0010
0100
0001
0100
0010
1000
,
0010
0000
0100
0000
0001
0000
1000
0000
0001
0000
0010
0000
0100
0000
0000
1000
0000
0000
0100
0000
0000
0010
0000
0000
,
0001
0100
0001
1000
0010
1000
0010
0100
,
0001
0100
0001
0010
0001
1000
0100
1000
,
0001
0100
0010
1000
0010
0100
0001
0010
,
1000
0010
0100
1000
0002
0000
0000
0000
,
0000
0000
0000
0000
0203
0000
0000
0300
0100
0001
0100
0001
0100
0001
0100
0001
,
0100
0001
0100
0001
1000
0000
0100
0000
0100
1000
0100
0010
0200
0000
0000
0000
,
0000
0000
0000
0000
1300
0010
1000
0001
2000
0000
0000
0000
0000
0000
0000
0000
,
3001
0010
0001
0100
0002
0000
0000
0000
0000
0000
0013
0000
0100
0000
1000
0000
,
0010
0001
0010
0020
0000
0000
0000
0000
,
0000
0000
0000
0030
1001
1100
0110
1010
,
0101
0000
1100
0011
0110
0011
1010
0000
,
0110
1100
0011
0000
0001
1010
0011
0110
,
0101
0000
1100
1010
0110
0101
0011
0000
,
1010
1001
1010
0000
0110
1100
0011
1010
,
0001
1100
0110
1010
0011
0000
0101
0110
,
1010
0110
1100
0011
0110
1010
0011
1001
,
1100
0101
1010
0101
0000
0110
0011
0110
,
1010
0011
0000
1010
1001
1100
0101
0110
,
0011
1100
1010
0110
1100
0011
0101
0110
,
0000
1001
1100
0110
1010
0110
0001
1010
,
0011
1010
0011
1001
0011
0110
1100
0101
,
0010
1100
0011
0110
0101
0010
1100
1001
,
0011
1000
0011
0110
0001
0100
0010
1001
,
1000
0100
0010
0100
1001
0010
0001
1010
,
0001
0100
0011
0100
0001
0010
1100
0010
,
0001
0000
0000
0100
0000
0000
0010
0000
0000
1001
0000
0000
0100
0000
0000
0010
0000
0000
0101
1000
0010
0100
0010
1000
,
0001
0010
0100
1000
0010
0000
0000
0000
1100
0000
0000
0000
0011
0000
0000
0000
1010
0000
0000
0000
0101
0000
0000
0000
0110
0000
0000
0000
1100
0000
0000
0000
,
0011
1100
0001
1010
0011
0110
0101
1100
,
1001
0011
0110
0010
1100
0011
1010
0110
,
1100
0000
0000
0000
0000
0000
0000
0000
0000
0000
0000
0000
0000
0000
0000
0000
0000
0000
0000
0000
0000
0000
0000
0000
0101
0000
0000
0000
0000
0000
0000
0000
0000
0000
0000
0000
0000
0000
0000
0000
0000
0000
0000
0000
0000
0000
0000
0000
0010
0000
0000
0000
0000
0000
0000
0000
0001
0000
0000
0000
0000
0000
0000
0000
0000
0000
1000
0000
0000
0000
0000
0000
0100
0000
0000
0000
0000
0000
0000
0000
0000
0000
0000
0000
0010
0000
0000
0000
0000
0000
0000
0000
0000
0000
0000
0000
0001
0000
0000
0000
0000
0000
0000
0000
0100
0000
0000
0000
0000
0000
0000
0000
0001
0000
0000
0000
0000
0000
0000
0000
0000
0000
0000
0000
0000
0000
0000
0000
1000
0000
0000
0000
0000
0000
0000
0000
0000
0000
0000
0000
0000
0000
0000
0000
0010
0000
0000
0000
0000
0000
0000
0000
0100
0000
0000
0000
0000
0000
0000
0000
0001
0000
0000
0000
0000
0000
0000
0000
1000
0000
0000
0000
0000
0000
0000
0000
0100
0000
0000
0000
0000
0000
0000
0000
0010
0000
0000
0000
0000
0000
0000
0000
,
0100
0000
0000
0000
0000
0000
0000
0000
1000
0000
0000
0000
0000
0000
0000
0000
0100
0000
0000
0000
0000
0000
0000
0000
0010
0000
0000
0000
0000
0000
0001
0000
0000
0000
0000
0000
0100
0000
0000
0000
0000
0000
0010
0000
0000
0000
0000
0000
1000
0000
0000
0000
0000
0000
0000
0000
0000
0000
0000
0000
0000
0000
0000
0000
0000
0000
0000
0000
0000
0000
0000
0000
0010
0000
0000
0000
0000
0000
0000
0000
0000
0000
0000
0000
0000
0000
0000
0000
0000
0000
0000
0000
0000
0000
0000
0000
0101
0000
0000
0000
0000
0000
0000
0000
0000
0000
0000
0000
0000
0000
0000
0000
0000
0000
0000
0000
0000
0000
0000
0000
1000
0000
0000
0000
0000
0000
0000
0000
0000
0000
0000
0000
0100
0000
0000
0000
0000
0000
0000
0000
0000
0000
0000
0000
0010
0000
0000
0000
0000
0000
0000
0000
0000
0000
0000
0000
0000
0000
0000
0000
0000
0000
0000
0000
0000
0000
0000
0000
0001
0000
0000
0000
0000
0000
0000
0000
0000
0000
0000
0000
0010
0000
0000
0000
0000
0000
0000
0000
0000
0000
0000
0000
,
0101
0000
1010
0000
0011
0000
0100
0001
0010
0100
0010
0000
0110
0000
0101
1000
,
0100
0001
1010
0000
0110
0000
1001
0000
0011
0000
0110
0001
1000
0000
0011
0100
,
0001
0000
1100
0000
0011
0100
0001
1000
0110
1000
0010
0100
0001
0010
0100
1000
,
0101
0010
0001
0100
1010
0000
0011
0000
1100
0000
0010
0100
0001
0000
0010
0100
,
1000
0001
0100
0000
0011
0000
0110
0000
0101
0000
1100
0000
0110
0000
1010
0000
,
0011
0000
1000
0100
0010
0001
1100
0001
0100
0001
1010
0100
1000
0010
0100
0001
,
0010
0100
0010
0001
1100
0010
0100
0001
0110
0000
0000
0000
0011
1000
0001
1000
,
0100
0000
0000
0010
0000
0000
0001
0000
0000
0100
0000
0000
0011
0000
0000
0100
0000
0000
0001
0000
0000
1000
0000
0000
0110
0000
0000
1000
0000
0000
0011
0000
0000
0100
0000
0000
0011
0000
0000
0000
1100
0000
0000
0000
0010
0000
0000
0000
,
0001
0000
1000
0000
0110
0000
1000
0000
0001
0000
1000
0000
0100
0000
1000
0000
0010
0000
1001
0000
0000
0011
0000
0000
,
0110
0000
0001
0100
0010
0000
1000
0010
1100
0001
0010
0001
1100
0000
0011
0000
,
1010
0110
1100
0101
0110
1001
1100
0110
,
1010
0000
0001
0100
0001
0010
1100
0010
0001
0000
0110
0000
0001
0110
0001
0100
,
0011
0100
0001
0010
0100
1001
0010
0100
0011
1000
0001
0100
0011
0000
1010
0000
,
0110
0000
1000
0100
0010
0001
1000
0001
0100
0000
0011
0000
1010
0000
0110
0000
,
1100
0000
0011
0000
0101
0000
1100
0000
0110
0000
1010
0000
0011
1000
0001
1000
,
0101
0010
1001
0100
0001
1000
0011
1000
0100
0010
0001
0100
1001
0010
0100
0001
,
1010
0000
0000
0000
0011
1000
0001
0100
0010
1000
0101
0010
0001
0100
0001
0010
,
0001
0000
0000
0010
0000
0000
0001
0000
0000
0010
0000
0000
1100
0000
0000
0000
0010
0000
0000
0000
1000
0000
0000
0000
0001
0000
0000
0000
0110
0000
0000
0000
0001
0000
0000
0000
0110
0000
0000
0000
1000
0000
0000
0000
0001
0000
0000
0000
,
0010
0000
0100
0000
0010
0000
0001
1000
0100
0010
0001
0100
0001
1000
0010
0100
0010
0100
0001
0100
0010
0100
0001
0100
,
0010
0000
0100
0000
0001
0000
1000
0000
0000
0000
0000
0000
0011
0000
0000
0000
0000
0000
0100
0000
0000
0011
0000
0000
0000
0000
0000
0100
0000
0000
0011
0000
0000
0000
0000
0000
0100
0000
0000
0011
0000
0000
0000
0000
0000
0100
0000
0000
,
0011
0000
0010
0010
1001
0001
0001
0001
1100
0001
0001
0001
0010
0100
0100
0011
,
0100
0100
1010
0011
0100
0100
0100
0100
1001
0010
0010
0010
0100
1000
1000
0110
,
1000
1000
0011
0110
0001
0001
0001
0001
1100
0010
0010
0010
1000
0100
0100
1010
,
0100
0100
0011
1001
0100
0100
0100
0010
1001
0001
0001
1000
0010
0010
0010
0101
,
0010
0010
1010
0110
1001
0000
0011
0000
1010
0000
0100
1001
0000
0110
0000
0100
,
0011
0000
1010
0000
1100
0000
0100
1001
0000
0011
0000
0010
0101
0000
0110
0000
,
1010
0000
0010
1100
0000
0011
0000
0010
1001
0000
0101
0000
1100
0000
0100
1010
,
0000
0011
0000
0000
1010
1100
0000
0011
0000
1100
0000
0110
0000
1100
0000
0101
,
0000
1010
0011
0110
0101
0110
1010
0011
0000
0101
0000
0110
0000
1100
0000
0011
,
1010
0000
0000
0101
0000
0000
0000
0000
0000
1100
0000
0000
0110
0000
0000
0000
1010
0000
0000
0000
0011
0000
0000
0000
0110
0000
0000
0000
0101
0000
0000
0000
0110
0000
0000
0000
1100
0000
0000
0000
1010
0000
0000
0000
0110
0000
0000
0000
,
2002
0000
3003
0000
,
0000
0000
0000
0000
,
0001
0000
0000
0000
0010
0000
0001
0000
0000
0000
0000
0000
1100
0000
0000
0000
0000
0000
0011
0000
0000
0000
0000
0000
1010
0000
0000
0000
0000
0000
0000
0000
0000
0011
0000
0000
0000
0000
0000
0000
0000
0000
0000
0000
0000
0000
0100
0000
,
0001
0000
1000
0000
0001
0000
0100
0000
0001
0000
1000
0000
0010
0000
0000
0000
0000
0000
1000
0000
0000
0000
0000
0000
0100
0000
0000
0000
0000
0000
1010
0000
0000
0000
0000
0000
0000
0000
0000
1010
0000
0000
0000
0000
0000
0000
0000
0000
,
0011
0000
0000
0000
0100
0000
0011
0000
0000
0000
0000
1000
0000
0010
0000
1000
0000
0010
0000
1000
0000
0001
0000
0000
0110
0000
0000
0000
0000
0000
0000
0000
0000
1001
0000
0000
0000
0000
0000
0000
0001
0000
0000
0000
0000
0000
0000
0000
,
1100
0000
0000
0000
0000
0000
0000
0000
0000
0000
0000
0000
0010
0000
0000
0000
0000
0000
0000
0000
0000
0000
0000
0000
1000
0000
0000
0000
0000
0000
0000
0000
0001
0000
0000
0000
0000
0000
0000
0000
0010
0000
0000
0000
0000
0000
0000
0000
0001
0000
0000
0000
0000
0000
1000
0000
0000
0000
0000
0000
0001
0000
0000
0000
0000
0000
0000
0000
0100
0000
0000
0000
0000
0000
0000
0000
0010
0000
0000
0000
0000
0000
0000
0000
0100
0000
0000
0000
0000
0000
0001
0000
0000
0000
0000
0000
0100
0000
0000
0000
0000
0000
0000
0000
0010
0000
0000
0000
0000
0000
0000
0000
1000
0000
0000
0000
0000
0000
0000
0000
0010
0000
0000
0000
0000
0000
0100
0000
0000
0000
0000
0000
0010
0000
0000
0000
0000
0000
0000
0000
1000
0000
0000
0000
0000
0000
0000
0000
0001
0000
0000
0000
0000
0000
0000
0000
0010
0000
0000
0000
0000
0000
0000
0000
0100
0000
0000
0000
0000
0000
0000
0000
1000
0000
0000
0000
0000
0000
0000
0000
0100
0000
0000
0000
0000
0000
0000
0000
0010
0000
0000
0000
,
0000
0000
0000
0000
0000
0000
0000
0000
0000
0000
0000
0000
0000
0000
0000
0000
0001
0000
0000
0000
0000
0000
0000
0000
0000
0000
0000
0000
0000
0000
0000
0000
0000
0000
0000
0000
0000
0000
0000
0000
0000
0000
0000
0000
0000
0000
0000
0000
1001
0000
0000
0000
0000
0000
0000
0000
0000
0000
0000
0000
0000
0000
0000
0000
0000
0000
0000
0000
0000
0000
0000
0000
0000
0000
0000
0000
0000
0000
1000
0000
0000
0000
0000
0000
0100
0000
0000
0000
0000
0000
0010
0000
0000
0000
0000
0000
0001
0000
0000
0000
0000
0000
1000
0000
0000
0000
0000
0000
0100
0000
0000
0000
0000
0000
0010
0000
0000
0000
0000
0000
0000
0000
0000
0000
0000
0000
0000
0000
0000
0000
0000
0000
0110
0000
0000
0000
0000
0000
0000
0000
0000
0000
0000
0000
0000
0000
0000
0000
0000
0000
0000
0000
0000
0000
0000
0000
0000
0000
0000
0000
0000
0000
0000
0000
0000
0000
0000
0000
0000
0000
0000
0000
0000
0000
0000
0000
0000
0000
0000
0000
0000
0000
0000
0000
0000
0000
0000
0000
0000
0000
0000
0000
;
