#TITLE:Candy Galy;
#SUBTITLE:;
#ARTIST:Risk Junk G;
#TITLETRANSLIT:;
#SUBTITLETRANSLIT:;
#ARTISTTRANSLIT:;
#CREDIT:;
#BANNER:Candy Galy [HAPPY].png;
#BACKGROUND:Candy Galy [HAPPY]-bg.png;
#LYRICSPATH:;
#CDTITLE:KOMBO.png;
#MUSIC:Candy Galy [HAPPY].ogg;
#OFFSET:-4.310;
#SAMPLESTART:76.019;
#SAMPLELENGTH:12.000;
#SELECTABLE:YES;
#BPMS:0.000=184.000;
#STOPS:;
#BGCHANGES:0.000=Candy Galy-bg.png=1.000=0=0=1,
4.000=-random-=1.000=0=0=1,
43.500=Candy Galy-bg.png=1.000=0=0=1,
48.500=-random-=1.000=0=0=1,
49.000=Candy Galy-bg.png=1.000=0=0=1,
49.500=-random-=1.000=0=0=1,
50.000=Candy Galy-bg.png=1.000=0=0=1,
50.500=-random-=1.000=0=0=1,
51.000=Candy Galy-bg.png=1.000=0=0=1,
51.500=-random-=1.000=0=0=1,
52.000=Candy Galy-bg.png=1.000=0=0=1,
52.063=-random-=1.000=0=0=1,
52.188=-random-=1.000=0=0=1,
84.000=-random-=1.000=0=0=1,
116.000=Candy Galy-bg.png=1.000=0=0=1,
116.500=-random-=1.000=0=0=1,
117.000=Candy Galy-bg.png=1.000=0=0=1,
118.000=-random-=1.000=0=0=1,
118.500=Candy Galy-bg.png=1.000=0=0=1,
119.000=-random-=1.000=0=0=1,
120.000=Candy Galy-bg.png=1.000=0=0=1,
120.500=-random-=1.000=0=0=1,
121.000=Candy Galy-bg.png=1.000=0=0=1,
121.500=-random-=1.000=0=0=1,
122.000=Candy Galy-bg.png=1.000=0=0=1,
123.000=-random-=1.000=0=0=1,
156.000=-random-=1.000=0=0=1,
156.063=-random-=1.000=0=0=1,
204.000=Candy Galy-bg.png=1.000=0=0=1,
204.500=-random-=1.000=0=0=1,
205.000=Candy Galy-bg.png=1.000=0=0=1,
205.500=-random-=1.000=0=0=1,
206.000=Candy Galy-bg.png=1.000=0=0=1,
206.500=-random-=1.000=0=0=1,
207.000=Candy Galy-bg.png=1.000=0=0=1,
207.500=-random-=1.000=0=0=1,
208.000=Candy Galy-bg.png=1.000=0=0=1,
208.250=-random-=1.000=0=0=1,
208.500=Candy Galy-bg.png=1.000=0=0=1,
208.750=-random-=1.000=0=0=1,
209.000=Candy Galy-bg.png=1.000=0=0=1,
209.250=-random-=1.000=0=0=1,
209.500=Candy Galy-bg.png=1.000=0=0=1,
209.750=-random-=1.000=0=0=1,
210.000=Candy Galy-bg.png=1.000=0=0=1,
210.250=-random-=1.000=0=0=1,
210.500=Candy Galy-bg.png=1.000=0=0=1,
210.750=-random-=1.000=0=0=1,
211.000=Candy Galy-bg.png=1.000=0=0=1,
212.000=-random-=1.000=0=0=1,
212.063=-random-=1.000=0=0=1,
213.500=Candy Galy-bg.png=1.000=0=0=1,
214.000=-random-=1.000=0=0=1,
214.500=Candy Galy-bg.png=1.000=0=0=1,
215.000=-random-=1.000=0=0=1,
215.500=Candy Galy-bg.png=1.000=0=0=1,
218.000=-random-=1.000=0=0=1,
218.250=Candy Galy-bg.png=1.000=0=0=1,
218.500=-random-=1.000=0=0=1,
218.750=Candy Galy-bg.png=1.000=0=0=1,
219.000=-random-=1.000=0=0=1,
219.250=Candy Galy-bg.png=1.000=0=0=1,
219.500=-random-=1.000=0=0=1,
219.750=Candy Galy-bg.png=1.000=0=0=1,
220.000=-random-=1.000=0=0=1,
220.063=-random-=1.000=0=0=1,
251.938=-random-=1.000=0=0=1,
286.500=Candy Galy-bg.png=1.000=0=0=1,
288.000=-random-=1.000=0=0=1,
290.500=Candy Galy-bg.png=1.000=0=0=1,
292.000=-random-=1.000=0=0=1,
294.500=Candy Galy-bg.png=1.000=0=0=1,
296.000=-random-=1.000=0=0=1,
296.063=-random-=1.000=0=0=1,
300.000=-random-=1.000=0=0=1,
316.000=-random-=1.000=0=0=1,
348.000=Candy Galy-bg.png=1.000=0=0=1,
348.250=-random-=1.000=0=0=1,
348.500=Candy Galy-bg.png=1.000=0=0=1,
348.750=-random-=1.000=0=0=1,
349.000=Candy Galy-bg.png=1.000=0=0=1,
349.500=-random-=1.000=0=0=1,
350.000=Candy Galy-bg.png=1.000=0=0=1,
350.250=-random-=1.000=0=0=1,
350.500=Candy Galy-bg.png=1.000=0=0=1,
350.750=-random-=1.000=0=0=1,
351.000=Candy Galy-bg.png=1.000=0=0=1,
351.500=-random-=1.000=0=0=1,
352.000=Candy Galy-bg.png=1.000=0=0=1,
352.250=-random-=1.000=0=0=1,
352.500=Candy Galy-bg.png=1.000=0=0=1,
353.000=-random-=1.000=0=0=1,
353.250=Candy Galy-bg.png=1.000=0=0=1,
353.500=-random-=1.000=0=0=1,
354.000=Candy Galy-bg.png=1.000=0=0=1,
99999=-nosongbg-=1.000=0=0=0 // don't automatically add -songbackground-
;
// cache tags:
#FIRSTBEAT:4.000;
#LASTBEAT:355.000;
#SONGFILENAME:Songs/Definitive Keyboard Megapack/Candy Galy [KOMBO]/Candy Galy [HAPPY].sm;
#HASMUSIC:1;
#HASBANNER:1;
#MUSICLENGTH:124.290;
// end cache tags

//---------------dance-single - KOMBO Index steps----------------
#NOTES:
     dance-single:
     KOMBO Index steps:
     Hard:
     11:
     1.000,1.000,0.507,0.748,0.945,799.000,63.000,93.000,0.000,8.000:

0000
0000
0000
0000
,
1001
0100
0010
0100
1000
0001
1000
0200
,
0000
0010
1301
0010
0100
1000
0001
2000
,
0000
0100
3011
1000
0001
0010
0100
0020
,
0000
0000
0001
0000
1130
0000
0001
0000
0010
0000
0100
0000
0001
0010
0100
1000
,
0011
0000
0100
0000
0010
0000
1000
0000
0100
0010
0001
0000
0200
0000
1300
0000
,
1010
0000
0001
0000
1000
0000
0100
0000
0001
1000
0010
0000
0002
0000
0103
0000
,
0101
0000
1000
0000
0001
0000
0010
0000
1000
0001
0100
0000
2000
0000
3010
0000
,
1100
0000
0010
0000
0100
0000
0001
0000
0010
0100
1000
0000
0020
0000
0031
0000
,
0110
0000
1000
0000
0100
0000
0001
0000
1000
0100
0010
0000
2000
0000
3001
0000
,
0011
0000
0100
0000
0010
0000
1000
0000
0100
0010
0001
0000
0200
0000
1300
0000
,
0000
0010
0100
0010
1000
0001
0100
0020
,
0000
0130
1000
0100
0010
0001
0010
0100
,
1000
0000
0010
0000
0100
0000
1000
0100
1000
0000
0010
0000
0001
0000
0010
0000
,
0000
0000
1000
0000
0001
0000
0001
0010
0001
0000
1000
0000
0010
0000
1000
0000
,
0000
0000
0001
0000
1000
0000
0010
0100
0010
0000
0001
0000
0100
0000
0001
0000
,
0000
0000
0100
0000
0010
0000
0001
1000
0001
0000
0100
0000
1000
0000
0100
0000
,
0000
0000
0010
0000
0100
0000
0001
1000
0001
0000
0010
0000
0001
0000
0010
0000
,
0000
0000
1000
0000
0001
0000
0100
0010
0100
0000
1000
0000
0010
0000
1000
0000
,
0000
0000
0001
0000
1000
0000
0010
1000
0010
0000
0001
0000
0100
0000
0001
0000
,
0000
0000
1000
0001
0001
0000
0010
0100
0100
0000
0001
1000
1000
0000
0110
0000
,
1000
0000
0100
0000
0010
0000
0001
1000
0001
0000
0100
0000
1000
0000
0100
0000
,
0000
0000
0001
0000
1000
0000
0010
0100
0010
0000
0001
0000
0100
0000
0001
0000
,
0000
0000
1000
0000
0001
0000
0100
0001
0100
0000
1000
0000
0010
0000
1000
0000
,
0000
0000
0010
0000
0100
0000
1000
0001
1000
0000
0010
0000
0001
0000
0010
0000
,
1100
0000
0001
0000
1000
0000
0010
0100
0010
0000
1000
0000
0001
0000
0010
0000
,
0000
0000
0010
0000
0100
0000
1000
0001
1000
0000
0100
0000
0010
0000
1000
0000
,
0000
0000
0100
0000
0010
0000
0001
1000
0001
0000
0010
0000
0100
0000
0001
0000
,
0010
0000
0100
0010
0001
0000
0010
0100
1000
0000
0010
1000
0001
0000
0000
0000
,
0110
0110
0110
0000
1001
1001
1001
0000
,
1001
1010
0011
0110
2002
0000
0000
3003
,
0020
0030
0000
0000
0000
0000
0000
0000
0200
0300
0000
0000
0000
0000
0000
0000
0020
0030
0000
0000
0000
0000
0000
0000
0200
0300
0000
0000
0000
0000
0000
0000
,
0002
0003
0000
0000
0000
0000
0000
0000
2000
3000
0000
0000
0000
0000
0000
0000
0002
0003
0000
0000
0000
0000
0000
0000
2000
3000
0000
0000
0000
0000
0000
0000
,
0002
0003
0000
0000
0000
0000
0000
0000
0200
0300
0000
0000
0000
0000
0000
0000
0002
0003
0000
0000
0000
0000
0000
0000
0200
0300
0000
0000
0000
0000
0000
0000
,
0020
0030
0000
0000
0000
0000
0000
0000
0200
0300
0000
0000
0000
0000
0000
0000
0020
0030
0000
0000
0000
0000
0000
0000
0200
0300
0000
0000
0000
0000
0000
0000
,
0020
0030
0000
0000
0000
0000
0000
0000
0000
0000
0000
0000
0000
0000
0000
0000
0200
0300
0000
0000
0000
0000
0000
0000
0000
0000
0000
0000
0000
0000
0000
0000
,
0020
0030
0000
0000
0000
0000
0000
0000
0000
0000
0000
0000
0000
0000
0000
0000
2000
3000
0000
0000
0000
0000
0000
0000
0000
0000
0000
0000
0000
0000
0000
0000
,
0002
0003
0000
0000
0000
0000
0000
0000
0000
0000
0000
0000
0000
0000
0000
0000
0000
0000
0000
0000
0000
0000
0000
0000
2000
0000
0000
0000
0000
0000
0000
0000
,
3200
0000
0320
0000
0032
0000
0203
1000
,
0311
0000
0010
0010
1001
0000
0000
0011
,
0000
1100
0200
0000
0311
0000
0000
0011
,
0011
0100
1010
0100
0011
0000
0000
1100
,
0000
0011
0020
0000
1130
0000
0000
1010
,
1010
0100
1010
0001
0110
0000
0000
0000
,
0101
0101
0020
0000
1130
0000
0000
0011
,
0011
0100
0011
0110
1001
0000
0002
0000
,
0023
0230
2300
3020
,
2000
3030
0000
0000
0000
0000
0000
0000
0000
0000
0000
0000
0000
0000
0000
0000
0000
0000
0000
0000
0000
0000
0000
0000
2000
0000
0000
0000
0000
0000
0000
0000
,
3200
0320
0032
0203
,
0302
0023
0230
2300
,
3002
0023
0230
2300
,
3001
0010
0100
1000
0001
0010
0100
1000
,
0001
0010
0100
1000
0001
0010
0100
1000
0000
0000
0100
1000
0010
0001
0100
1000
,
0011
0000
0000
1100
1100
1100
1100
1100
,
0001
0000
0010
0000
0100
0000
0010
0000
1000
0010
0001
0010
1000
0010
0001
0100
,
1000
0100
1000
0001
0010
0001
0100
0010
0100
0001
0010
0001
1000
0001
1000
0010
,
0100
0010
0001
0100
1000
0100
0001
0010
0100
1000
0100
1000
0100
0010
0100
0001
,
0010
0001
0100
0010
1000
0001
1000
0100
0010
0100
0001
1000
0100
0010
0001
0010
,
0001
0010
0100
0010
0001
0010
0100
1000
0100
0010
0100
0001
1000
0001
0100
0010
,
0100
1000
0010
1000
0001
0100
0001
0010
0100
0010
0001
1000
0001
0100
0010
0100
,
0001
1000
0001
0010
0100
0010
0100
1000
0100
0010
0100
1000
0100
1000
0001
0010
,
0001
0010
0100
0010
1000
0001
1000
0100
0010
0100
0001
0010
0001
1000
0010
1000
,
0200
0300
0000
0000
0000
0000
0000
0000
0002
0003
0000
0000
0000
0000
0000
0000
0200
0300
0000
0000
0000
0000
0000
0000
0002
0003
0000
0000
0000
0000
0000
0000
,
0001
0010
0001
1000
0100
1000
0010
0100
0010
1000
0100
1000
0001
1000
0001
0100
,
0010
0100
1000
0010
0001
0010
1000
0100
0010
0001
0010
0001
0010
0100
0010
1000
,
0100
1000
0010
0100
0001
1000
0001
0010
0100
0010
1000
0001
0010
0100
1000
0100
,
1000
0100
0010
0100
1000
0100
0010
0001
0010
0100
0010
1000
0001
1000
0010
0100
,
0010
0001
0100
0001
1000
0010
1000
0100
0010
0100
1000
0001
1000
0010
0100
0010
,
1000
0001
1000
0100
0010
0100
0010
0001
0010
0100
0010
0001
0010
0001
1000
0100
,
1000
0100
0010
0100
0001
1000
0001
0010
0100
0010
1000
0100
1000
0001
0100
0001
,
2000
3000
0000
0000
0000
0000
0000
0000
0020
0030
0000
0000
0000
0000
0000
0000
2000
3000
0000
0000
0000
0000
0000
0000
0020
0030
0000
0000
0000
0000
0000
0000
,
0110
0000
0001
0000
1000
0000
1000
0000
0002
0023
0230
0000
0000
0000
0000
0000
,
0300
0000
0010
0000
0100
0000
0100
0000
0020
2030
3002
0000
0000
0000
0000
0000
,
0003
0000
0100
0000
1000
0000
0000
0200
0302
0023
0230
0000
0000
0000
0000
0000
,
0300
0000
1000
0000
0002
0003
2000
3000
0002
0203
0320
0000
0000
0000
0000
0000
,
1030
0100
0010
0001
0010
0100
0010
0001
0010
0100
1000
0100
0010
0100
1000
0100
,
0010
0001
0010
0100
0010
0001
0010
0100
1000
0100
0010
0100
1000
0100
0010
0001
,
1100
0000
0010
1000
0001
0100
0010
1000
0001
0100
0010
0001
2000
0000
0000
0000
,
3200
0320
0032
1103
,
0001
0010
0001
1000
0100
1000
0010
0100
0010
1000
0100
1000
0001
1000
0001
0100
,
0010
0100
1000
0010
0001
0010
1000
0100
0010
0001
0010
0001
0010
0100
0010
1000
,
0100
1000
0010
0100
0001
1000
0001
0010
0100
0010
1000
0001
0010
0100
1000
0100
,
1000
0100
0010
0100
1000
0100
0010
0001
0010
0100
0010
1000
0001
1000
0010
0100
,
0010
0001
0100
0001
1000
0010
1000
0100
0010
0100
1000
0001
1000
0010
0100
0010
,
1000
0001
1000
0100
0010
0100
0010
0001
0010
0100
0010
0001
0010
0001
1000
0100
,
1000
0100
0010
0100
0001
1000
0001
0010
0100
0010
1000
0100
1000
0001
0100
0001
,
2000
3000
0000
0000
0000
0000
0000
0000
0200
0300
0000
0000
0000
0000
0000
0000
0020
0030
0000
0000
0000
0000
0000
0000
0002
0003
0000
0000
0000
0000
0000
0000
,
0011
0110
0011
0000
1100
0110
1100
0000
,
0001
0010
1000
0000
1000
0100
0001
0000
2002
0000
0000
0000
3003
0000
0000
0000
;
