#TITLE:Flames Of Revenge;
#SUBTITLE:;
#ARTIST:Rhapsody;
#TITLETRANSLIT:;
#SUBTITLETRANSLIT:;
#ARTISTTRANSLIT:;
#CREDIT:;
#BANNER:(cerdo_claro)Flames of Revenge-bn.jpg;
#BACKGROUND:(cerdo_claro)Flames of Revenge-bg.jpg;
#LYRICSPATH:;
#CDTITLE:cdtitle.png;
#MUSIC:(cerdo_claro)Flames of Revenge.mp3;
#OFFSET:-0.120;
#SAMPLESTART:91.099;
#SAMPLELENGTH:15.800;
#SELECTABLE:YES;
#BPMS:0.000=180.000,116.000=90.000,118.000=180.000,182.000=90.000,196.000=180.000,288.000=90.000,302.000=180.000,434.000=90.000,462.000=180.000,662.000=90.000,663.000=180.000,671.000=90.000,671.500=180.000,672.500=90.000,673.000=180.000,694.000=90.000,708.000=180.000,900.000=90.000,908.000=180.000;
#STOPS:;
#BGCHANGES:;
// cache tags:
#FIRSTBEAT:0.000;
#LASTBEAT:908.000;
#SONGFILENAME:Songs/toune 2/(cerdo_claro)Flames of Revenge/(cerdo_claro)Flames of Revenge.sm;
#HASMUSIC:1;
#HASBANNER:1;
#MUSICLENGTH:334.059;
// end cache tags

//---------------dance-single - CHALLENGE1----------------
#NOTES:
     dance-single:
     CHALLENGE1:
     Hard:
     11:
     1.000,1.000,1.000,0.371,1.000,2051.000,346.000,124.000,0.000,2.000:

0001
0100
0010
0001
0100
0010
1000
0001
0010
0100
1000
0001
,
0100
0010
1000
0010
0100
0001
0010
0100
0010
0001
1000
0100
,
0001
0100
0010
1000
0001
0100
0001
1000
0100
0010
0001
0100
,
0001
1000
0001
0010
0100
0010
0001
1000
0010
0100
0001
1000
,
0010
0001
1000
0010
0100
0001
1000
0010
0100
0001
1000
0001
,
0100
0010
0100
0001
1000
0100
0001
0100
1000
0010
0100
0010
,
0001
0100
0010
0001
0010
0100
1000
0100
0010
0001
0010
0100
,
1000
0010
0100
0001
1000
0001
0100
0010
0100
0001
1000
0001
,
1100
0000
0000
0010
0100
0010
1001
0000
0000
0100
0010
0100
,
1001
0010
0100
0001
0100
0010
0001
0010
0100
0001
0100
0010
,
0001
0100
0010
0100
0001
1000
0010
0100
0010
0100
0001
1000
,
0001
0000
0000
0100
0010
0100
1001
0000
0000
0010
0100
0010
,
2200
0000
0000
0000
,
3311
0000
1100
0001
1100
0000
0110
0000
,
0011
0101
1001
1010
,
2002
3003
0000
0000
0000
0000
0000
0000
0000
0000
0000
0000
0000
0000
0000
0000
0101
0000
0000
0000
0000
0000
0000
0000
0010
0000
0000
0000
0000
0000
0000
0000
0101
0000
0000
0000
0000
0000
0000
0000
0000
0000
0000
0000
0000
0000
0000
0000
1010
0000
0000
0000
0000
0000
0000
0000
0000
0000
0000
0000
0000
0000
0000
0000
,
1001
1100
0110
0011
,
2002
3003
0000
0000
0000
0000
0000
0000
0000
0000
0000
0000
0000
0000
0000
0000
0101
0000
0000
0000
0000
0000
0000
0000
0010
0000
0000
0000
0000
0000
0000
0000
0101
0000
0000
0000
0000
0000
0000
0000
0000
0000
0000
0000
0000
0000
0000
0000
1010
0000
0000
0000
0000
0000
0000
0000
0000
0000
0000
0000
0000
0000
0000
0000
,
1001
0101
0110
1010
,
1001
0000
0000
0000
0101
0000
0220
0000
0330
0000
1000
0100
0010
0001
1000
0100
,
0010
0000
0000
0000
0110
0000
2200
0000
3300
0000
0001
0010
0100
1000
0001
0010
,
0100
0000
0011
1000
0011
0000
0110
0000
,
1100
1010
1001
0101
,
2002
3003
0000
0000
0000
0000
0000
0000
0000
0000
0000
0000
0000
0000
0000
0000
1010
0000
0000
0000
0000
0000
0000
0000
0100
0000
0000
0000
0000
0000
0000
0000
1010
0000
0000
0000
0000
0000
0000
0000
0000
0000
0000
0000
0000
0000
0000
0000
0101
0000
0000
0000
0000
0000
0000
0000
0000
0000
0000
0000
0000
0000
0000
0000
,
1001
0011
0110
1100
,
2002
3003
0000
0000
0000
0000
0000
0000
0000
0000
0000
0000
0000
0000
0000
0000
1010
0000
0000
0000
0000
0000
0000
0000
0100
0000
0000
0000
0000
0000
0000
0000
1010
0000
0000
0000
0000
0000
0000
0000
0000
0000
0000
0000
0000
0000
0000
0000
0101
0000
0000
0000
0000
0000
0000
0000
0000
0000
0000
0000
0000
0000
0000
0000
,
1001
1010
0110
0101
,
1001
0000
0000
0000
1010
0000
0220
0000
0330
0000
0001
0010
0100
1000
0001
0010
,
0100
0000
0000
0000
0110
0000
0022
0000
0033
0000
1000
0100
0010
0001
1000
0010
,
2100
0000
0000
0000
0000
0000
0000
0000
3000
0100
0010
1000
0001
0010
0100
0010
,
0001
0010
0100
1000
0001
0100
0010
1000
0001
0100
0010
1000
0001
0010
0100
1000
,
0001
1000
0010
0100
0001
1000
0100
0010
0001
0010
0100
1000
0001
1000
0010
0100
,
0001
1000
0100
0001
0100
1000
0010
0100
0001
1000
0010
0100
0001
0010
0100
0010
,
0001
1000
0010
0100
0001
1000
0100
0010
0001
0010
0100
1000
0010
0100
0001
1000
,
0001
0100
0010
1000
0001
0010
0100
1000
0001
0100
0010
1000
0001
0010
0001
1000
,
0001
0010
0001
0100
0001
1000
0001
0100
0011
0000
0000
0000
0110
0000
0000
0000
,
1100
0000
1001
0000
0011
0110
1100
0011
,
0110
0000
1100
0000
0011
0000
0110
0000
1001
0100
0010
0100
0010
0100
0010
0100
,
0010
0100
0010
0100
0010
0100
0010
0100
0010
0100
0010
0100
0010
0100
0010
0100
,
1001
0000
0110
0000
1001
0100
0011
0100
,
1010
0100
0011
0100
1001
0010
0101
0010
,
1100
0001
0110
1000
0011
1000
0100
0011
,
0000
0011
0100
1000
0001
0100
0010
1001
,
0000
1001
0100
0010
0001
0100
0010
1000
,
0010
0000
0100
0000
0001
0000
0010
0000
0100
1000
0100
1000
0100
0000
0010
0000
,
0001
0000
0010
0000
0001
0000
0010
0000
0001
0000
0010
0000
0001
0000
0010
0000
0002
0000
0000
0000
0000
0023
0000
0000
0000
0000
0230
0000
0000
0000
0000
2300
,
0000
0000
0000
0000
0000
0000
0000
0000
0000
0000
0000
0000
0000
0000
0000
0000
0000
0000
0000
0000
0000
0000
0000
0000
3000
0000
0000
0000
0000
0000
0000
0000
0000
0000
0000
0000
0000
0000
0000
0000
0000
0000
0000
0000
0000
0000
0000
0000
0001
0000
0000
0000
0000
0000
0000
0000
0010
0000
0000
0000
0000
0000
0000
0000
0100
0000
0000
0000
0000
0000
0000
0000
1000
0000
0000
0000
0000
0000
0000
0000
0100
0000
0000
0000
0000
0000
0000
0000
0010
0000
0000
0000
0000
0000
0000
0000
0001
0000
0000
0000
0000
0000
0000
0000
0000
0000
0000
0000
0000
0000
0000
0000
0000
0000
0000
0000
0000
0000
0000
0000
0000
0000
0000
0000
0000
0000
0000
0000
0101
0000
0000
0000
0000
0000
0000
0000
0000
0000
0000
0000
0000
0000
0000
0000
0000
0000
0000
0000
0000
0000
0000
0000
0000
0000
0000
0000
0000
0000
0000
0000
0000
0000
0011
0000
0000
0000
0000
0000
0000
0000
0000
0000
0000
0000
0000
0000
0000
0000
0000
0000
0000
0000
0000
0000
0000
0000
0000
0000
0000
0000
0000
0000
,
1100
0000
0000
0000
0000
0000
0000
0000
0000
0000
0000
0000
0000
0000
0000
0000
0000
0000
0000
0000
0000
0000
0000
0000
0000
0000
0000
0000
0000
0000
0000
0000
0000
0000
0000
0000
0000
0000
0000
0000
0000
0000
0000
0000
0000
0000
0000
0000
1000
0000
0000
0000
0100
0000
0000
0000
0010
0000
0000
0000
0001
0000
0000
0000
0000
0000
0100
0000
0000
0000
0000
0000
0010
0000
0000
0000
0000
0000
1000
0000
0000
0000
0000
0000
0001
0000
0000
0000
0000
0000
1000
0000
0000
0000
0000
0000
0001
0000
0000
0000
0000
0000
0000
0000
0000
0000
0000
0000
0000
0000
0000
0000
0000
0000
0000
0000
0000
0000
0000
0000
0000
0000
0000
0000
0000
0000
1100
0000
0000
0000
0000
0000
0000
0000
0000
0000
0000
0000
0000
0000
0000
0000
0000
0000
0000
0000
0000
0000
0000
0000
0000
0000
0000
0000
0000
0000
0000
0000
0000
0000
0000
0000
0101
0000
0000
0000
0000
0000
0000
0000
0000
0000
0000
0000
0000
0000
0000
0000
0000
0000
0000
0000
0000
0000
0000
0000
0000
0000
0000
0000
0000
0000
,
2020
0000
3030
0000
,
1001
0100
0010
0001
0010
0100
1000
0100
0010
0001
0010
0100
1000
0100
0010
0001
,
0100
0010
1000
0010
0100
0001
0100
0010
1000
0010
0100
0001
0100
0010
1000
0001
,
1100
0000
0000
0000
0001
0010
0100
1000
0011
0000
0000
0000
1000
0001
0100
0010
,
1001
0010
0100
1000
0100
0010
0001
0010
0100
1000
0100
0010
0001
0010
0100
1000
,
0010
0100
0001
0100
0010
1000
0010
0100
0001
0100
0010
1000
0010
0100
0001
1000
,
0011
0000
0000
0000
1000
0001
0100
0010
1001
0000
0000
0000
0010
0100
0001
1000
,
0022
0000
0000
0000
0000
0000
0000
0000
0000
0000
0000
0000
0000
0000
0000
0033
,
0001
0100
0010
1000
0001
0010
0100
0010
0001
0010
0100
1000
0001
0100
0010
1000
,
0001
0100
0010
1000
0001
0010
0100
1000
0001
1000
0010
0100
0001
1000
0100
0010
,
0001
0010
0100
1000
0001
1000
0010
0100
0001
1000
0100
0001
0100
1000
0010
0100
,
0001
1000
0010
0100
0001
0010
0100
0010
0001
1000
0010
0100
0001
1000
0100
0010
,
0001
0010
0100
1000
0010
0100
0001
1000
0001
0100
0010
1000
0001
0010
0100
1000
,
0001
0100
0010
1000
0001
0010
0001
1000
0001
0010
0001
0100
0001
1000
0001
0100
,
0011
0110
1100
1001
,
0011
0110
1100
0011
0110
1100
0011
0110
,
1001
0100
0010
0100
0010
0100
0010
0100
0010
0100
0010
0100
0010
0100
0010
0100
,
0010
0100
0010
0100
0010
0100
0010
0100
1001
0000
0000
0000
0110
0000
0000
0000
,
1001
0100
0011
0100
1010
0100
0011
0100
,
1001
0010
0101
0010
1100
0001
0110
1000
,
0011
1000
0100
0011
0000
0011
0100
1000
,
0001
0100
0010
1001
0000
1001
0100
0010
,
0001
0100
0010
1000
0010
0100
0001
0010
,
0100
1000
0100
1000
0100
0000
0010
0000
0001
0010
0001
0010
0001
0010
0001
0010
,
0002
0000
0000
0000
0000
0000
0000
0000
0000
0000
0000
0000
0000
0000
0000
0000
0000
0000
0000
0000
0000
0000
0000
0000
0000
0000
0000
0000
0000
0000
0023
0000
0000
0000
0000
0000
0000
0000
0000
0000
0000
0000
0000
0000
0000
0000
0000
0000
0000
0000
0000
0000
0000
0000
0000
0000
0000
0000
0000
0000
0230
0000
0000
0000
0000
0000
0000
0000
0000
0000
0000
0000
0000
0000
0000
0000
0000
0000
0000
0000
0000
0000
0000
0000
0000
0000
0000
0000
0000
0000
2300
0000
0000
0000
0000
0000
0000
0000
0000
0000
0000
0000
0000
0000
0000
0000
0000
0000
0000
0000
0000
0000
0000
0000
0000
0000
0000
0000
0000
0000
3000
0000
0000
0000
0000
0000
0000
0000
0000
0000
0000
0000
0000
0000
0000
0000
0000
0000
0000
0000
0000
0000
0000
0000
1000
0000
0000
0000
0000
0000
0000
0000
0100
0000
0000
0000
0000
0000
0000
0000
0010
0000
0000
0000
0000
0000
0000
0000
0001
0000
0000
0000
0000
0000
0000
0000
0010
0000
0000
0000
0000
0000
0000
0000
0100
0000
0000
0000
0000
0000
0000
0000
,
1000
0000
0000
0000
0000
0000
0000
0000
0000
0000
0000
0000
0000
0000
0000
0000
0000
0000
0000
0000
0000
0000
0000
0000
0000
0000
0000
0000
0000
0000
0000
0000
1010
0000
0000
0000
0000
0000
0000
0000
0000
0000
0000
0000
0000
0000
0000
0000
0000
0000
0000
0000
0000
0000
0000
0000
0000
0000
0000
0000
0000
0000
0000
0000
0000
0000
1100
0000
0000
0000
0000
0000
0000
0000
0000
0000
0000
0000
0000
0000
0000
0000
0000
0000
0000
0000
0000
0000
0000
0000
0000
0000
0000
0000
0000
0000
0011
0000
0000
0000
0000
0000
0000
0000
0000
0000
0000
0000
0000
0000
0000
0000
0000
0000
0000
0000
0000
0000
0000
0000
0000
0000
0000
0000
0000
0000
0000
0000
0000
0000
0000
0000
0000
0000
0000
0000
0000
0000
0000
0000
0000
0000
0000
0000
0001
0000
0000
0000
0010
0000
0000
0000
0100
0000
0000
0000
1000
0000
0000
0000
0000
0000
0010
0000
0000
0000
0000
0000
0100
0000
0000
0000
0000
0000
0001
0000
0000
0000
0000
0000
1000
0000
0000
0000
0000
0000
0001
0000
0000
0000
0000
0000
,
1000
0000
0000
0000
0000
1100
0000
0000
0000
0000
0000
0101
0000
0000
0000
0000
2020
0000
0000
0000
0000
0000
0000
0000
0000
0000
0000
0000
0000
0000
0000
0000
,
3030
0000
0000
0000
0000
0000
0000
0000
0100
0001
0010
0100
0010
0001
0100
0010
,
1000
0100
0010
0001
0100
1000
0100
0001
0100
0001
0010
0100
1000
0001
1000
0010
,
0001
1000
0010
0100
0001
0100
1000
0100
0001
1000
0001
1000
0010
0100
0001
1000
,
0010
0100
0001
0010
0100
1000
0010
0100
0001
0010
0100
0010
0001
1000
0010
0001
,
0100
0001
0100
0010
0100
0001
1000
0001
0100
0001
0100
0010
1000
0001
0100
0010
,
1000
0100
0010
0001
1000
0001
1000
0010
0001
1000
0010
0001
0010
1000
0010
0100
,
0001
1000
0010
0100
0001
1000
0001
1000
0010
0001
1000
0010
0100
0001
1000
0001
,
1000
0010
0100
0001
1000
0010
0100
0001
0100
0001
0100
0010
1000
0001
1000
0100
,
0001
1000
0010
0100
0001
1000
0001
1000
0001
1000
0010
1000
0001
0010
0001
1000
,
0010
0100
0001
0100
0001
1000
0001
0010
0100
0010
0001
1000
0010
0100
0001
0010
,
0100
0001
0100
0010
0100
0001
1000
0001
0100
0001
0100
0010
1000
0001
1000
0001
,
0100
0010
0100
0010
0001
0100
1000
0100
0001
0010
0100
1000
0010
0100
0001
0100
,
0001
1000
0010
0100
0001
1000
0001
1000
0001
1000
0010
0100
0001
1000
0001
1000
,
0001
0100
0010
1000
0001
1000
0001
0100
0010
0001
0100
0010
1000
0001
1000
0001
,
0100
0010
0100
0010
0100
0001
1000
0010
0001
1000
0001
0010
0100
1000
0100
0010
,
0001
1000
0010
0001
0010
1000
0001
0010
0100
0001
1000
0010
0100
0001
1000
0010
,
0100
0001
1000
0001
0110
0000
0000
0000
1100
0000
0000
0000
0011
0000
1000
0000
,
0011
0110
1100
1010
,
1001
0000
0000
0000
0000
0000
0000
0000
0000
0000
0000
0000
0000
0000
0000
0000
0101
0000
0000
0000
0000
0000
0000
0000
0000
0000
0000
0000
0000
0000
0000
0000
2002
3003
0000
0000
0000
0000
0000
0000
0000
0000
0000
0000
0000
0000
0000
0000
1010
0000
0000
0000
0000
0000
0000
0000
0100
0000
0000
0000
0000
0000
0000
0000
,
1010
0101
1001
0011
,
0110
0000
0000
0000
0000
0000
0000
0000
0000
0000
0000
0000
0000
0000
0000
0000
1100
0000
0000
0000
0000
0000
0000
0000
0000
0000
0000
0000
0000
0000
0000
0000
2002
3003
0000
0000
0000
0000
0000
0000
0000
0000
0000
0000
0000
0000
0000
0000
1010
0000
0000
0000
0000
0000
0000
0000
0100
0000
0000
0000
0000
0000
0000
0000
,
1010
0101
1001
1010
,
0110
0000
0101
0000
1001
0000
1010
0220
,
0330
0000
0001
0010
0100
1000
0001
0010
0100
0000
0000
0000
0110
0000
0022
0000
,
0033
0000
1000
0100
0010
0001
1000
0100
0010
0000
0000
0000
0011
0000
1000
0000
,
0011
0110
1100
1010
,
1001
0000
0000
0000
0000
0000
0000
0000
0000
0000
0000
0000
0000
0000
0000
0000
0101
0000
0000
0000
0000
0000
0000
0000
0000
0000
0000
0000
0000
0000
0000
0000
2002
3003
0000
0000
0000
0000
0000
0000
0000
0000
0000
0000
0000
0000
0000
0000
1010
0000
0000
0000
0000
0000
0000
0000
0100
0000
0000
0000
0000
0000
0000
0000
,
1010
0101
1001
0011
,
0110
0000
0000
0000
0000
0000
0000
0000
0000
0000
0000
0000
0000
0000
0000
0000
1100
0000
0000
0000
0000
0000
0000
0000
0000
0000
0000
0000
0000
0000
0000
0000
2002
3003
0000
0000
0000
0000
0000
0000
0000
0000
0000
0000
0000
0000
0000
0000
1010
0000
0000
0000
0000
0000
0000
0000
0100
0000
0000
0000
0000
0000
0000
0000
,
1010
0101
1001
1010
,
0110
0000
0101
0000
1001
0000
1010
0220
,
0330
0000
0001
0010
0100
1000
0001
0010
0100
0000
0000
0000
0110
0000
0022
0000
,
0033
0000
1000
0100
0010
0001
1000
0100
2002
0000
0000
0000
0000
0000
0000
0000
,
0000
3003
0011
0001
,
1100
0000
0001
0000
0120
0000
0000
0031
,
2000
0000
0000
3000
0000
0000
1001
0000
0000
0010
1000
0001
,
0100
0000
0001
1000
0020
0000
0000
0000
,
0130
0000
0011
1000
,
0011
0000
0100
0000
2100
0000
0000
3001
,
0200
0000
0000
0300
1010
0000
0001
0000
,
0110
1000
0202
0000
,
0000
0000
0000
0000
,
0000
0000
0303
0000
0001
0000
0000
0001
,
1000
0000
0000
0001
1000
0000
0000
0001
,
1000
0000
0000
0010
1000
0000
0000
0010
,
0100
0000
0000
0001
0100
0000
0000
0001
,
1000
0000
0000
1000
0010
0000
0000
0010
,
0100
0000
0000
0100
0001
0000
0000
0001
,
1000
0000
0000
1000
0010
0000
0000
0010
,
0100
0000
0000
0100
0001
0000
0000
0001
,
0010
0000
0000
0000
0000
0000
0010
0000
0200
0000
0000
0300
0000
0000
1000
0000
,
0011
0000
0000
0100
0110
0000
0000
1000
,
0110
0000
0000
0000
0000
0000
0000
0000
0000
0000
0000
0000
0100
0000
0000
0000
0022
0033
0000
0000
0000
0000
0000
0000
0000
0000
0000
0000
0001
0000
0000
0000
,
0110
0000
0000
0010
1100
0000
0000
0001
,
0110
0000
0000
0000
0000
0000
0000
0000
1010
0000
0000
0000
0000
0000
0000
0000
2020
3030
0000
0000
0000
0000
0000
0000
0000
0000
0000
0000
0010
0000
0000
0000
,
0101
0000
0000
0001
0110
0000
0000
0100
,
1010
0000
0000
0000
0000
0000
0000
0000
0000
0000
0000
0000
0010
0000
0000
0000
0220
0330
0000
0000
0000
0000
0000
0000
0000
0000
0000
0000
0001
0000
0000
0000
,
0110
0000
0000
0100
1010
0000
0000
0010
,
0101
0000
0000
0001
0020
0000
0000
0000
,
0030
0001
1000
0110
0200
0000
0000
0000
,
0300
0001
1000
0110
0020
0000
0000
0000
,
0000
0000
0030
1001
1002
0000
1000
0000
,
1000
0000
0000
0000
0000
0000
0000
0000
0000
0000
0000
0000
1003
0100
0010
0001
2100
0000
0000
0000
0000
0000
0000
0000
0000
0000
0000
0000
0000
0000
0000
0000
,
3000
0001
0100
0010
1000
0000
0000
0000
,
0000
0000
0001
0001
1100
0000
0000
0000
,
0001
0000
0000
0000
0010
0000
0000
0000
0000
0000
0000
0000
0200
0300
0000
0000
0220
0330
0000
0000
0000
0000
0000
0000
0000
0000
0000
0000
0010
0000
0000
0000
,
1000
0000
0000
0001
0100
0000
0000
0000
,
0011
0000
0000
0000
1100
0000
0000
1000
,
1100
0000
0000
0000
0110
0000
0000
0001
,
0101
0000
0000
0000
1000
0000
0000
0010
,
0110
0000
0000
0000
0100
1010
0000
0010
,
0101
0000
0000
0000
0001
1100
0000
1000
,
0011
0000
0000
0000
1001
1001
0000
0110
,
0110
0000
0000
0000
0001
0000
1000
0010
,
0210
0000
0301
0010
0120
0000
1030
0010
,
0210
0000
0301
0010
0100
1000
0001
1000
,
0020
0000
0000
0130
0010
1000
0001
0100
,
0011
1100
0101
0110
,
1010
0101
1001
0110
,
1001
0000
0000
1000
0110
0000
0000
0001
,
0110
0000
0000
0001
0010
0100
1000
0010
,
0200
0000
0000
0301
0010
0100
1000
0010
,
0110
0000
1100
0000
1001
0000
0000
0002
,
1003
0000
0100
0000
0010
0000
0001
0000
1000
0000
0100
0000
0010
0000
0000
0001
0000
0000
0100
0000
0000
0010
0000
0000
1000
0000
0000
0100
0000
0000
0010
0000
0000
0001
0000
0000
0100
0000
0000
0010
0000
0000
1000
0000
0000
0001
0000
0000
,
0010
0100
1000
0010
0100
0001
0010
0100
1000
0010
0100
0001
0010
0100
1000
0010
,
0100
0001
1000
0010
0100
0001
0010
0100
1000
0010
0100
0001
0010
0100
1000
0001
,
2000
0000
0000
0000
0000
0000
0000
0000
0000
3100
0000
0000
0220
0000
0000
0000
0000
0000
0000
0000
0330
0000
0000
0000
,
1000
0000
0010
0000
0100
0000
0001
0000
0010
0000
0100
0000
1000
0100
0010
0001
0010
0100
1000
0000
0010
0000
0100
0000
,
0001
0000
0100
0000
0010
0000
1000
0000
0100
0000
0010
0000
0001
0000
0010
0000
0100
0000
1000
0000
0000
0010
0000
0000
0100
0000
0000
0001
0000
0000
0010
0000
0000
0100
0000
0000
1000
0000
0000
0001
0000
0000
2000
0000
0000
0000
0000
0000
,
3001
0000
0010
0000
0100
0000
1000
0000
0001
0000
0010
0000
0100
0000
0000
1000
0000
0000
0010
0000
0000
0100
0000
0000
0001
0000
0000
1000
0000
0000
0100
0000
0000
0010
0000
0000
0001
0000
0000
0100
0000
0000
0010
0000
0000
0001
0000
0000
,
0200
0000
0000
0000
0000
0000
0000
0000
0302
0000
0003
1000
0110
0001
0010
0100
,
1000
0100
0010
0001
0010
0100
1000
0100
0010
0001
0100
0010
1000
0001
1000
0001
,
0100
0000
0000
0010
0000
0000
0100
0000
0000
0010
0000
0000
1000
0000
0000
0010
0000
0000
0100
0000
0000
0001
0000
0000
0100
0000
0000
0000
0001
0000
0000
0000
1000
0000
0000
0000
0020
0000
0000
0000
0000
0000
1030
0000
0000
0000
0001
0000
,
0000
0010
0000
0200
0000
0000
0301
0000
0100
0000
0010
0000
1000
0000
0100
0000
0010
0000
0100
0000
1000
0000
0010
0000
,
0100
0000
0000
0000
0001
0000
0000
0000
0010
0000
0000
0000
0100
0000
0000
0000
1000
0000
0000
0000
0010
0000
0000
0000
0002
0000
0000
1000
0000
0000
0013
0000
0000
0100
0000
0000
0001
0000
0000
0010
0000
0000
0100
0000
0000
1000
0000
0000
,
0100
0010
0100
1000
0001
0100
0010
1000
0001
1000
0001
0100
0010
0100
0010
0001
,
0010
0100
1000
0010
0100
0001
0100
0010
1000
0010
0100
0001
0010
0100
1000
0001
,
1000
0001
0100
0010
0100
0010
1000
0100
0011
0000
0011
0000
1100
0000
1100
0000
,
0110
0000
0000
0000
0110
0000
0000
0000
1001
0000
0000
0000
1001
0000
0000
0000
0002
0000
0000
0000
0000
0023
0000
0000
0000
0000
0230
0000
0000
0000
0000
2300
,
0000
0000
0000
0000
0000
0000
0000
0000
0000
0000
0000
0000
0000
0000
0000
0000
0000
0000
0000
0000
0000
0000
0000
0000
3000
0000
0000
0000
0000
0000
0000
0000
0000
0000
0000
0000
0000
0000
0000
0000
0000
0000
0000
0000
0000
0000
0000
0000
0001
0000
0000
0000
0000
0000
0000
0000
0010
0000
0000
0000
0000
0000
0000
0000
0100
0000
0000
0000
0000
0000
0000
0000
1000
0000
0000
0000
0000
0000
0000
0000
0100
0000
0000
0000
0000
0000
0000
0000
0010
0000
0000
0000
0000
0000
0000
0000
0001
0000
0000
0000
0000
0000
0000
0000
0000
0000
0000
0000
0000
0000
0000
0000
0000
0000
0000
0000
0000
0000
0000
0000
0000
0000
0000
0000
0000
0000
0000
0000
0101
0000
0000
0000
0000
0000
0000
0000
0000
0000
0000
0000
0000
0000
0000
0000
0000
0000
0000
0000
0000
0000
0000
0000
0000
0000
0000
0000
0000
0000
0000
0000
0000
0000
0011
0000
0000
0000
0000
0000
0000
0000
0000
0000
0000
0000
0000
0000
0000
0000
0000
0000
0000
0000
0000
0000
0000
0000
0000
0000
0000
0000
0000
0000
,
1100
0000
0000
0000
0000
0000
0000
0000
0000
0000
0000
0000
0000
0000
0000
0000
0000
0000
0000
0000
0000
0000
0000
0000
0000
0000
0000
0000
0000
0000
0000
0000
0000
0000
0000
0000
0000
0000
0000
0000
0000
0000
0000
0000
0000
0000
0000
0000
1000
0000
0000
0000
0100
0000
0000
0000
0010
0000
0000
0000
0001
0000
0000
0000
0000
0000
0100
0000
0000
0000
0000
0000
0010
0000
0000
0000
0000
0000
1000
0000
0000
0000
0000
0000
0001
0000
0000
0000
0000
0000
1000
0000
0000
0000
0000
0000
0001
0000
0000
0000
0000
0000
0000
0000
0000
0000
0000
0000
0000
0000
0000
0000
0000
0000
0000
0000
0000
0000
0000
0000
0000
0000
0000
0000
0000
0000
1100
0000
0000
0000
0000
0000
0000
0000
0000
0000
0000
0000
0000
0000
0000
0000
0000
0000
0000
0000
0000
0000
0000
0000
0000
0000
0000
0000
0000
0000
0000
0000
0000
0000
0000
0000
0101
0000
0000
0000
0000
0000
0000
0000
0000
0000
0000
0000
0000
0000
0000
0000
0000
0000
0000
0000
0000
0000
0000
0000
0000
0000
0000
0000
0000
0000
,
0220
0000
0330
0000
,
0100
0001
0010
0100
0010
0001
0100
0010
1000
0100
0010
0001
0100
1000
0100
0001
,
0100
0001
0010
0100
1000
0001
1000
0010
0001
1000
0010
0100
0001
0100
1000
0100
,
0001
1000
0001
1000
0010
0100
0001
1000
0010
0100
0001
0010
0100
1000
0010
0100
,
0001
0010
0100
0010
0001
1000
0010
0001
0100
0001
0100
0010
0100
0001
1000
0001
,
0100
0001
0100
0010
1000
0001
0100
0010
1000
0100
0010
0001
1000
0001
1000
0010
,
0001
1000
0010
0001
0010
1000
0010
0100
0001
1000
0010
0100
0001
1000
0001
1000
,
0010
0001
1000
0010
0100
0001
1000
0001
1000
0010
0100
0001
1000
0010
0100
0001
,
0100
0001
0100
0010
1000
0001
1000
0100
0001
1000
0010
0100
0001
1000
0001
1000
,
0001
1000
0010
1000
0001
0010
0001
1000
0010
0100
0001
0100
0001
1000
0001
0010
,
0100
0010
0001
1000
0010
0100
0001
0010
0100
0001
0100
0010
0100
0001
1000
0001
,
0100
0001
0100
0010
1000
0001
1000
0001
0100
0010
0100
0010
0001
0100
1000
0100
,
0001
0010
0100
1000
0010
0100
0001
0100
0001
1000
0010
0100
0001
1000
0001
1000
,
0001
1000
0010
0100
0001
1000
0001
1000
0001
0100
0010
1000
0001
1000
0001
0100
,
0010
0001
0100
0010
1000
0001
1000
0001
0100
0010
0100
0010
0100
0001
1000
0010
,
0001
1000
0001
0010
0100
1000
0100
0010
0001
1000
0010
0001
0010
1000
0001
0010
,
0100
0001
1000
0010
0100
0001
1000
0010
0100
0001
1000
0001
0110
0000
0000
0000
,
1100
0000
0011
1000
0011
0000
0110
0000
,
1100
1010
1001
0101
,
2002
3003
0000
0000
0000
0000
0000
0000
0000
0000
0000
0000
0000
0000
0000
0000
1010
0000
0000
0000
0000
0000
0000
0000
0100
0000
0000
0000
0000
0000
0000
0000
1010
0000
0000
0000
0000
0000
0000
0000
0000
0000
0000
0000
0000
0000
0000
0000
0101
0000
0000
0000
0000
0000
0000
0000
0000
0000
0000
0000
0000
0000
0000
0000
,
1001
0011
0110
1100
,
2002
3003
0000
0000
0000
0000
0000
0000
0000
0000
0000
0000
0000
0000
0000
0000
1010
0000
0000
0000
0000
0000
0000
0000
0100
0000
0000
0000
0000
0000
0000
0000
1010
0000
0000
0000
0000
0000
0000
0000
0000
0000
0000
0000
0000
0000
0000
0000
0101
0000
0000
0000
0000
0000
0000
0000
0000
0000
0000
0000
0000
0000
0000
0000
,
1001
1010
0110
0101
,
1001
0000
0000
0000
1010
0000
0220
0000
0330
0000
0001
0010
0100
1000
0001
0010
,
0100
0000
0000
0000
0110
0000
0022
0000
0033
0000
1000
0100
0010
0001
1000
0100
,
0010
0000
0011
1000
0011
0000
0110
0000
,
1100
1010
1001
0101
,
2002
3003
0000
0000
0000
0000
0000
0000
0000
0000
0000
0000
0000
0000
0000
0000
1010
0000
0000
0000
0000
0000
0000
0000
0100
0000
0000
0000
0000
0000
0000
0000
1010
0000
0000
0000
0000
0000
0000
0000
0000
0000
0000
0000
0000
0000
0000
0000
0101
0000
0000
0000
0000
0000
0000
0000
0000
0000
0000
0000
0000
0000
0000
0000
,
1001
0011
0110
1100
,
2002
3003
0000
0000
0000
0000
0000
0000
0000
0000
0000
0000
0000
0000
0000
0000
1010
0000
0000
0000
0000
0000
0000
0000
0100
0000
0000
0000
0000
0000
0000
0000
1010
0000
0000
0000
0000
0000
0000
0000
0000
0000
0000
0000
0000
0000
0000
0000
0101
0000
0000
0000
0000
0000
0000
0000
0000
0000
0000
0000
0000
0000
0000
0000
,
1001
1010
0110
0101
,
1001
0000
0000
0000
1010
0000
0220
0000
0330
0000
0001
0010
0100
1000
0001
0010
,
0100
0000
0000
0000
0011
0000
0022
0000
0033
0000
0000
0000
0001
0100
0010
1000
,
0001
0100
0010
0001
0010
1000
0001
0100
0010
0001
1000
0010
,
0001
0100
0010
0100
0010
0100
0001
1000
0010
0001
1000
0001
,
0100
0010
1000
0010
0001
1000
0010
0100
0001
0100
0001
0100
,
0010
1000
0010
0001
1000
0010
0100
0001
1000
0001
1000
0010
,
0100
0001
1000
0010
1000
0010
0100
0001
1000
0001
1000
0010
,
0100
0001
1000
0010
0001
1000
0010
0100
0001
0010
1000
0010
,
1001
0000
0000
0000
1100
0000
2200
0000
3300
0000
0001
0010
0100
1000
0001
0010
,
0100
0000
0000
0000
0110
0000
0022
0000
0033
0000
1000
0100
0010
0001
1000
0100
,
0012
1000
0010
1000
0100
1000
0010
1000
0010
0100
1000
0010
,
2003
0010
0001
0100
0010
0001
3020
1000
0001
0100
1000
0100
,
0032
0100
0010
1000
0010
0100
1000
0010
1000
0100
0010
0100
,
2003
0010
0001
0100
0010
0001
3200
0001
1000
0001
0010
1000
,
0302
0010
1000
0010
0100
0010
1000
0100
1000
0010
0100
0010
,
2003
0000
0000
0000
0010
0000
0000
0000
0001
0000
0000
0000
0100
0000
0000
0000
0010
0000
0000
0000
0100
0000
0000
0000
3002
0000
0000
0000
0010
0000
0000
0000
1000
0000
0000
0000
0100
0000
0000
0000
1000
0000
0000
0000
0010
0003
0000
0000
,
1100
0000
0001
0011
0000
0001
1000
0010
,
0100
0000
1000
1100
0000
0000
0001
1000
,
0102
1000
0010
0100
1000
0100
1000
0010
,
0100
1000
0010
0100
0010
1000
0010
0100
,
1013
0000
0000
0000
;

//---------------dance-single - HEAVY----------------
#NOTES:
     dance-single:
     HEAVY:
     Challenge:
     13:
     1.000,1.000,1.000,0.419,1.000,2083.000,475.000,140.000,0.000,18.000:

1001
0100
0010
0001
0100
0010
1000
0001
0010
0100
1000
0001
,
0100
0010
1000
0010
0100
0001
0010
0100
0010
0001
1000
0100
,
0011
0100
0010
1000
0001
0100
0011
1000
0100
0010
0001
0100
,
0011
1000
0001
0010
0100
0010
0001
1000
0010
0100
0001
1000
,
0110
0001
1000
0010
0100
0001
1000
0010
0100
0001
1000
0001
,
1100
0010
0100
0001
1000
0100
0011
0100
1000
0010
0100
0010
,
1001
0100
0010
1001
0010
0100
1000
0100
0010
1001
0010
0100
,
1000
0010
0100
0011
1000
0001
0100
0010
0100
0011
1000
0001
,
1100
0000
0000
0010
0100
0010
1001
0000
0000
0100
0010
0100
,
1001
0010
0100
1001
0100
0010
0001
0010
0100
1001
0100
0010
,
0001
0100
0010
1100
0001
1000
0010
0100
0010
1100
0001
1000
,
0011
0000
0000
0100
0010
0100
1001
0000
0000
0010
0100
0010
,
2200
0000
0000
0000
,
3311
0000
1100
0001
1100
0000
0110
0000
,
0011
0101
1001
1010
,
2002
3003
0000
0000
0000
0000
0000
0000
0000
0000
0000
0000
0000
0000
0000
0000
0101
0000
0000
0000
0000
0000
0000
0000
0010
0000
0000
0000
0000
0000
0000
0000
0101
0000
0000
0000
0000
0000
0000
0000
0000
0000
0000
0000
0000
0000
0000
0000
1010
0000
0000
0000
0000
0000
0000
0000
0000
0000
0000
0000
0000
0000
0000
0000
,
1001
1100
0110
0011
,
2002
3003
0000
0000
0000
0000
0000
0000
0000
0000
0000
0000
0000
0000
0000
0000
0101
0000
0000
0000
0000
0000
0000
0000
0010
0000
0000
0000
0000
0000
0000
0000
0101
0000
0000
0000
0000
0000
0000
0000
0000
0000
0000
0000
0000
0000
0000
0000
1010
0000
0000
0000
0000
0000
0000
0000
0000
0000
0000
0000
0000
0000
0000
0000
,
1001
0101
0110
1010
,
1001
0000
0000
0000
0101
0000
0220
0000
0330
0000
1000
0100
0010
0001
1000
0100
,
0011
0000
0000
0000
0110
0000
2200
0000
3300
0000
0001
0010
0100
1000
0001
0010
,
1100
0000
0011
1000
0011
0000
0110
0000
,
1100
1010
1001
0101
,
2002
3003
0000
0000
0000
0000
0000
0000
0000
0000
0000
0000
0000
0000
0000
0000
1010
0000
0000
0000
0000
0000
0000
0000
0100
0000
0000
0000
0000
0000
0000
0000
1010
0000
0000
0000
0000
0000
0000
0000
0000
0000
0000
0000
0000
0000
0000
0000
0101
0000
0000
0000
0000
0000
0000
0000
0000
0000
0000
0000
0000
0000
0000
0000
,
1001
0011
0110
1100
,
2002
3003
0000
0000
0000
0000
0000
0000
0000
0000
0000
0000
0000
0000
0000
0000
1010
0000
0000
0000
0000
0000
0000
0000
0100
0000
0000
0000
0000
0000
0000
0000
1010
0000
0000
0000
0000
0000
0000
0000
0000
0000
0000
0000
0000
0000
0000
0000
0101
0000
0000
0000
0000
0000
0000
0000
0000
0000
0000
0000
0000
0000
0000
0000
,
1001
1010
0110
0101
,
1001
0000
0000
0000
1010
0000
0220
0000
0330
0000
0001
0010
0100
1000
0001
0010
,
1100
0000
0000
0000
0110
0000
0022
0000
0033
0000
1000
0100
0010
0001
1000
0010
,
2100
0000
0000
0000
0000
0000
0000
0000
3011
0100
0010
1000
0001
0010
0100
0010
,
1001
0010
0100
1000
0001
0100
0010
1000
0011
0100
0010
1000
0001
0010
0100
1000
,
0101
1000
0010
0100
0011
1000
0100
0010
1001
0010
0100
1000
0011
1000
0010
0100
,
0001
1000
0100
0001
0100
1000
0010
0100
0011
1000
0010
0100
0001
0010
0100
0010
,
0001
1000
0010
0100
0001
1000
0100
0010
1001
0010
0100
1000
0010
0100
0001
1000
,
0011
0100
0010
1000
0001
0010
0100
1000
0011
0100
0010
1000
0101
0010
0001
1000
,
0101
0010
0001
0100
0011
1000
0001
0100
0011
0000
0000
0000
0110
0000
0000
0000
,
1100
0000
1001
0000
0011
0110
1100
0011
,
0110
0000
1100
0000
0011
0000
0110
0000
1001
0100
0010
0100
0010
0100
0010
0100
,
0010
0100
0010
0100
0010
0100
0010
0100
0010
0100
0010
0100
0010
0100
0010
0100
,
1001
0000
0110
0000
1001
0100
0011
0100
,
1010
0100
0011
0100
1001
0010
0101
0010
,
1100
0001
0110
1000
0011
1000
0100
0011
,
0000
0011
0100
1000
0001
0100
0010
1001
,
0000
1001
0100
0010
0001
0100
0010
1000
,
0010
0000
0100
0000
0001
0000
0010
0000
0100
1000
0100
1000
0100
0000
0010
0000
,
0001
0000
0010
0000
0001
0000
0010
0000
0001
0000
0010
0000
0001
0000
0010
0000
0002
0000
0000
0000
0000
0023
0000
0000
0000
0000
0230
0000
0000
0000
0000
2300
,
0000
0000
0000
0000
0000
0000
0000
0000
0000
0000
0000
0000
0000
0000
0000
0000
0000
0000
0000
0000
0000
0000
0000
0000
3000
0000
0000
0000
0000
0000
0000
0000
0000
0000
0000
0000
0000
0000
0000
0000
0000
0000
0000
0000
0000
0000
0000
0000
1001
0000
0000
0000
0000
0000
0000
0000
0010
0000
0000
0000
0000
0000
0000
0000
0100
0000
0000
0000
0000
0000
0000
0000
1000
0000
0000
0000
0000
0000
0000
0000
0100
0000
0000
0000
0000
0000
0000
0000
0010
0000
0000
0000
0000
0000
0000
0000
1001
0000
0000
0000
0000
0000
0000
0000
0000
0000
0000
0000
0000
0000
0000
0000
0000
0000
0000
0000
0000
0000
0000
0000
0000
0000
0000
0000
0000
0000
0000
0000
0101
0000
0000
0000
0000
0000
0000
0000
0000
0000
0000
0000
0000
0000
0000
0000
0000
0000
0000
0000
0000
0000
0000
0000
0000
0000
0000
0000
0000
0000
0000
0000
0000
0000
0011
0000
0000
0000
0000
0000
0000
0000
0000
0000
0000
0000
0000
0000
0000
0000
0000
0000
0000
0000
0000
0000
0000
0000
0000
0000
0000
0000
0000
0000
,
1100
0000
0000
0000
0000
0000
0000
0000
0000
0000
0000
0000
0000
0000
0000
0000
0000
0000
0000
0000
0000
0000
0000
0000
0000
0000
0000
0000
0000
0000
0000
0000
0000
0000
0000
0000
0000
0000
0000
0000
0000
0000
0000
0000
0000
0000
0000
0000
1001
0000
0000
0000
0100
0000
0000
0000
0010
0000
0000
0000
0001
0000
0000
0000
0000
0000
0100
0000
0000
0000
0000
0000
0010
0000
0000
0000
0000
0000
1000
0000
0000
0000
0000
0000
0001
0000
0000
0000
0000
0000
1000
0000
0000
0000
0000
0000
0011
0000
0000
0000
0000
0000
0000
0000
0000
0000
0000
0000
0000
0000
0000
0000
0000
0000
0000
0000
0000
0000
0000
0000
0000
0000
0000
0000
0000
0000
1100
0000
0000
0000
0000
0000
0000
0000
0000
0000
0000
0000
0000
0000
0000
0000
0000
0000
0000
0000
0000
0000
0000
0000
0000
0000
0000
0000
0000
0000
0000
0000
0000
0000
0000
0000
0101
0000
0000
0000
0000
0000
0000
0000
0000
0000
0000
0000
0000
0000
0000
0000
0000
0000
0000
0000
0000
0000
0000
0000
0000
0000
0000
0000
0000
0000
,
2020
0000
3030
0000
,
1001
0100
0010
0001
0010
0100
1000
0100
0010
0001
0010
0100
1000
0100
0010
0001
,
0100
0010
1000
0010
0100
0001
0100
0010
1000
0010
0100
0001
0100
0010
1000
0001
,
1100
0000
0000
0000
0001
0010
0100
1000
0011
0000
0000
0000
1000
0001
0100
0010
,
1001
0010
0100
1000
0100
0010
0001
0010
0100
1000
0100
0010
0001
0010
0100
1000
,
0010
0100
0001
0100
0010
1000
0010
0100
0001
0100
0010
1000
0010
0100
0001
1000
,
0011
0000
0000
0000
1000
0001
0100
0010
1001
0000
0000
0000
0010
0100
0001
1000
,
0022
0000
0000
0000
0000
0000
0000
0000
0000
0000
0000
0000
0000
0000
0000
0033
,
0011
0100
0010
1000
0001
0010
0100
0010
1001
0010
0100
1000
0001
0100
0010
1000
,
0011
0100
0010
1000
0001
0010
0100
1000
0101
1000
0010
0100
0011
1000
0100
0010
,
1001
0010
0100
1000
0011
1000
0010
0100
0001
1000
0100
0001
0100
1000
0010
0100
,
0011
1000
0010
0100
0001
0010
0100
0010
0001
1000
0010
0100
0001
1000
0100
0010
,
1001
0010
0100
1000
0010
0100
0001
1000
0011
0100
0010
1000
0001
0010
0100
1000
,
0011
0100
0010
1000
0101
0010
0001
1000
0101
0010
0001
0100
0011
1000
0001
0100
,
0011
0110
1100
1001
,
0011
0110
1100
0011
0110
1100
0011
0110
,
1001
0100
0010
0100
0010
0100
0010
0100
0010
0100
0010
0100
0010
0100
0010
0100
,
0010
0100
0010
0100
0010
0100
0010
0100
1001
0000
0000
0000
0110
0000
0000
0000
,
1001
0100
0011
0100
1010
0100
0011
0100
,
1001
0010
0101
0010
1100
0001
0110
1000
,
0011
1000
0100
0011
0000
0011
0100
1000
,
0001
0100
0010
1001
0000
1001
0100
0010
,
0001
0100
0010
1000
0010
0100
0001
0010
,
0100
1000
0100
1000
0100
0000
0010
0000
0001
0010
0001
0010
0001
0010
0001
0010
,
0002
0000
0000
0000
0000
0000
0000
0000
0000
0000
0000
0000
0000
0000
0000
0000
0000
0000
0000
0000
0000
0000
0000
0000
0000
0000
0000
0000
0000
0000
0023
0000
0000
0000
0000
0000
0000
0000
0000
0000
0000
0000
0000
0000
0000
0000
0000
0000
0000
0000
0000
0000
0000
0000
0000
0000
0000
0000
0000
0000
0230
0000
0000
0000
0000
0000
0000
0000
0000
0000
0000
0000
0000
0000
0000
0000
0000
0000
0000
0000
0000
0000
0000
0000
0000
0000
0000
0000
0000
0000
2300
0000
0000
0000
0000
0000
0000
0000
0000
0000
0000
0000
0000
0000
0000
0000
0000
0000
0000
0000
0000
0000
0000
0000
0000
0000
0000
0000
0000
0000
3000
0000
0000
0000
0000
0000
0000
0000
0000
0000
0000
0000
0000
0000
0000
0000
0000
0000
0000
0000
0000
0000
0000
0000
1001
0000
0000
0000
0000
0000
0000
0000
0010
0000
0000
0000
0000
0000
0000
0000
0100
0000
0000
0000
0000
0000
0000
0000
1000
0000
0000
0000
0000
0000
0000
0000
0100
0000
0000
0000
0000
0000
0000
0000
0010
0000
0000
0000
0000
0000
0000
0000
,
1001
0000
0000
0000
0000
0000
0000
0000
0000
0000
0000
0000
0000
0000
0000
0000
0000
0000
0000
0000
0000
0000
0000
0000
0000
0000
0000
0000
0000
0000
0000
0000
0101
0000
0000
0000
0000
0000
0000
0000
0000
0000
0000
0000
0000
0000
0000
0000
0000
0000
0000
0000
0000
0000
0000
0000
0000
0000
0000
0000
0000
0000
0000
0000
0000
0000
0011
0000
0000
0000
0000
0000
0000
0000
0000
0000
0000
0000
0000
0000
0000
0000
0000
0000
0000
0000
0000
0000
0000
0000
0000
0000
0000
0000
0000
0000
1100
0000
0000
0000
0000
0000
0000
0000
0000
0000
0000
0000
0000
0000
0000
0000
0000
0000
0000
0000
0000
0000
0000
0000
0000
0000
0000
0000
0000
0000
0000
0000
0000
0000
0000
0000
0000
0000
0000
0000
0000
0000
0000
0000
0000
0000
0000
0000
1001
0000
0000
0000
0100
0000
0000
0000
0010
0000
0000
0000
0001
0000
0000
0000
0000
0000
0100
0000
0000
0000
0000
0000
0010
0000
0000
0000
0000
0000
1000
0000
0000
0000
0000
0000
0001
0000
0000
0000
0000
0000
1000
0000
0000
0000
0000
0000
,
0011
0000
0000
0000
0000
1100
0000
0000
0000
0000
0000
0101
0000
0000
0000
0000
2020
0000
0000
0000
0000
0000
0000
0000
0000
0000
0000
0000
0000
0000
0000
0000
,
3030
0000
0000
0000
0000
0000
0000
0000
1100
0001
0010
0100
0010
0001
0100
0010
,
1000
0100
0010
0001
0100
1000
0100
0001
1100
0001
0010
0100
1000
0001
1000
0010
,
0101
1000
0010
0100
0001
0100
1000
0100
0011
1000
0001
1000
0010
0100
0001
1000
,
0010
0100
0001
0010
0100
1000
0010
0100
0001
0010
0100
0010
0001
1000
0010
0001
,
1100
0001
0100
0010
1100
0001
1000
0001
1100
0001
0100
0010
1000
0001
0100
0010
,
1000
0100
0010
0001
1000
0001
1000
0010
0101
1000
0010
0001
0010
1000
0010
0100
,
0011
1000
0010
0100
0001
1000
0001
1000
0110
0001
1000
0010
0100
0001
1000
0001
,
1000
0010
0100
0001
1000
0010
0100
0001
1100
0001
0100
0010
1000
0001
1000
0100
,
0011
1000
0010
0100
0011
1000
0001
1000
0011
1000
0010
1000
0001
0010
0001
1000
,
0010
0100
0001
0100
0001
1000
0001
0010
0100
0010
0001
1000
0010
0100
0001
0010
,
1100
0001
0100
0010
1100
0001
1000
0001
1100
0001
0100
0010
1000
0001
1000
0001
,
0100
0010
0100
0010
0001
0100
1000
0100
0001
0010
0100
1000
0010
0100
0001
0100
,
0011
1000
0010
0100
0011
1000
0001
1000
0011
1000
0010
0100
0001
1000
0001
1000
,
0001
0100
0010
1000
0011
1000
0001
0100
1010
0001
0100
0010
1000
0001
1000
0001
,
0100
0010
0100
0010
1100
0001
1000
0010
0101
1000
0001
0010
0100
1000
0100
0010
,
0001
1000
0010
0001
0010
1000
0001
0010
1100
0001
1000
0010
0100
0001
1000
0010
,
0100
0001
1000
0001
0110
0000
0000
0000
1100
0000
0000
0000
0011
0000
1000
0000
,
0011
0110
1100
1010
,
1001
0000
0000
0000
0000
0000
0000
0000
0000
0000
0000
0000
0000
0000
0000
0000
0101
0000
0000
0000
0000
0000
0000
0000
0000
0000
0000
0000
0000
0000
0000
0000
2002
3003
0000
0000
0000
0000
0000
0000
0000
0000
0000
0000
0000
0000
0000
0000
1010
0000
0000
0000
0000
0000
0000
0000
0100
0000
0000
0000
0000
0000
0000
0000
,
1010
0101
1001
0011
,
0110
0000
0000
0000
0000
0000
0000
0000
0000
0000
0000
0000
0000
0000
0000
0000
1100
0000
0000
0000
0000
0000
0000
0000
0000
0000
0000
0000
0000
0000
0000
0000
2002
3003
0000
0000
0000
0000
0000
0000
0000
0000
0000
0000
0000
0000
0000
0000
1010
0000
0000
0000
0000
0000
0000
0000
0100
0000
0000
0000
0000
0000
0000
0000
,
1010
0101
1001
1010
,
0110
0000
0101
0000
1001
0000
1010
0220
,
0330
0000
0001
0010
0100
1000
0001
0010
1100
0000
0000
0000
0110
0000
0022
0000
,
0033
0000
1000
0100
0010
0001
1000
0100
0011
0000
0000
0000
0011
0000
1000
0000
,
0011
0110
1100
1010
,
1001
0000
0000
0000
0000
0000
0000
0000
0000
0000
0000
0000
0000
0000
0000
0000
0101
0000
0000
0000
0000
0000
0000
0000
0000
0000
0000
0000
0000
0000
0000
0000
2002
3003
0000
0000
0000
0000
0000
0000
0000
0000
0000
0000
0000
0000
0000
0000
1010
0000
0000
0000
0000
0000
0000
0000
0100
0000
0000
0000
0000
0000
0000
0000
,
1010
0101
1001
0011
,
0110
0000
0000
0000
0000
0000
0000
0000
0000
0000
0000
0000
0000
0000
0000
0000
1100
0000
0000
0000
0000
0000
0000
0000
0000
0000
0000
0000
0000
0000
0000
0000
2002
3003
0000
0000
0000
0000
0000
0000
0000
0000
0000
0000
0000
0000
0000
0000
1010
0000
0000
0000
0000
0000
0000
0000
0100
0000
0000
0000
0000
0000
0000
0000
,
1010
0101
1001
1010
,
0110
0000
0101
0000
1001
0000
1010
0220
,
0330
0000
0001
0010
0100
1000
0001
0010
1100
0000
0000
0000
0110
0000
0022
0000
,
0033
0000
1000
0100
0010
0001
1000
0100
2002
0000
0000
0000
0000
0000
0000
0000
,
0000
3003
0011
0001
,
1100
0000
0001
0000
0120
0000
0000
0031
,
2000
0000
0000
3000
0000
0000
1001
0000
0000
0010
1000
0001
,
0100
0000
0001
1000
0020
0000
0000
0000
,
0130
0000
0011
1000
,
0011
0000
0100
0000
2100
0000
0000
3001
,
0200
0000
0000
0300
1010
0000
0001
0000
,
0110
1000
0202
0000
,
0000
0000
0000
0000
,
0000
0000
0303
0000
0001
0000
0000
0001
,
1000
0000
0000
0001
1000
0000
0000
0001
,
1000
0000
0000
0010
1000
0000
0000
0010
,
0100
0000
0000
0001
0100
0000
0000
0001
,
1000
0000
0000
1000
0010
0000
0000
0010
,
0100
0000
0000
0100
0001
0000
0000
0001
,
1000
0000
0000
1000
0010
0000
0000
0010
,
0100
0000
0000
0100
0001
0000
0000
0001
,
0010
0000
0000
0000
0000
0000
0010
0000
0200
0000
0000
0300
0000
0000
1000
0000
,
0011
0000
0000
0100
0110
0000
0000
1000
,
0110
0000
0000
0000
0000
0000
0000
0000
0000
0000
0000
0000
0100
0000
0000
0000
0022
0033
0000
0000
0000
0000
0000
0000
0000
0000
0000
0000
0001
0000
0000
0000
,
0110
0000
0000
0010
1100
0000
0000
0001
,
0110
0000
0000
0000
0000
0000
0000
0000
1010
0000
0000
0000
0000
0000
0000
0000
2020
3030
0000
0000
0000
0000
0000
0000
0000
0000
0000
0000
0010
0000
0000
0000
,
0101
0000
0000
0001
0110
0000
0000
0100
,
1010
0000
0000
0000
0000
0000
0000
0000
0000
0000
0000
0000
0010
0000
0000
0000
0220
0330
0000
0000
0000
0000
0000
0000
0000
0000
0000
0000
0001
0000
0000
0000
,
0110
0000
0000
0100
1010
0000
0000
0010
,
0101
0000
0000
0001
0020
0000
0000
0000
,
0030
0001
1000
0110
0200
0000
0000
0000
,
0300
0001
1000
0110
0020
0000
0000
0000
,
0000
0000
0030
1001
1002
0000
1000
0000
,
1000
0000
0000
0000
0000
0000
0000
0000
0000
0000
0000
0000
1003
0100
0010
0001
2100
0000
0000
0000
0000
0000
0000
0000
0000
0000
0000
0000
0000
0000
0000
0000
,
3000
0001
0100
0010
1000
0000
0000
0000
,
0000
0000
0001
0001
1100
0000
0000
0000
,
0001
0000
0000
0000
0010
0000
0000
0000
0000
0000
0000
0000
0200
0300
0000
0000
0220
0330
0000
0000
0000
0000
0000
0000
0000
0000
0000
0000
0010
0000
0000
0000
,
1000
0000
0000
0001
0100
0000
0000
0000
,
0011
0000
0000
0000
1100
0000
0000
1000
,
1100
0000
0000
0000
0110
0000
0000
0001
,
0101
0000
0000
0000
1000
0000
0000
0010
,
0110
0000
0000
0000
0100
1010
0000
0010
,
0101
0000
0000
0000
0001
1100
0000
1000
,
0011
0000
0000
0000
1001
1001
0000
0110
,
0110
0000
0000
0000
0001
0000
1000
0010
,
0210
0000
0301
0010
0120
0000
1030
0010
,
0210
0000
0301
0010
0100
1000
0001
1000
,
0020
0000
0000
0130
0010
1000
0001
0100
,
0011
1100
0101
0110
,
1010
0101
1001
0110
,
1001
0000
0000
1000
0110
0000
0000
0001
,
0110
0000
0000
0001
0010
0100
1000
0010
,
0200
0000
0000
0301
0010
0100
1000
0010
,
0110
0000
1100
0000
1001
0000
0000
0002
,
1003
0100
0010
0001
0010
0100
1000
0010
0100
0001
1000
0100
0010
0001
0010
0100
1000
0100
0010
0001
0000
0100
0010
1000
,
0100
0010
0001
1000
0100
0010
0001
0010
0100
1000
0100
0010
0001
0010
0100
1000
0010
0100
0001
1000
0010
0100
0001
1000
,
0100
0010
0001
0010
0100
1000
0100
0010
0001
0010
0100
1000
0010
0100
0001
0010
0100
0010
0001
1000
0010
0100
0001
0010
,
2000
0000
0000
0000
0000
0000
0000
0000
0000
3100
0000
0000
0220
0000
0000
0000
0000
0000
0000
0000
0330
0000
0000
0000
,
1000
0000
0010
0000
0100
0000
0001
0000
0010
0000
0100
0000
1000
0100
0010
0001
0010
0100
1000
0000
0010
0000
0100
0000
,
0001
0100
0010
1000
0100
0010
0001
0010
0100
1000
0100
0010
0001
0100
0010
1000
0100
0010
0001
0010
0100
2000
0000
0000
,
3001
0010
0100
1000
0001
0010
0100
1000
0100
0010
0001
1000
0010
0100
0001
1000
0010
0100
0001
0010
0100
1000
0001
0010
,
0200
0000
0000
0000
0000
0000
0000
0000
0302
0000
0003
1000
0110
0001
0010
0100
,
1000
0100
0010
0001
0010
0100
1000
0100
0010
0001
0100
0010
1000
0001
1000
0001
,
0100
0000
0000
0010
0000
0000
0100
0000
0000
0010
0000
0000
1000
0000
0000
0010
0000
0000
0100
0000
0000
0001
0000
0000
0100
0000
0000
0000
0001
0000
0000
0000
1000
0000
0000
0000
0020
0000
0000
0000
0000
0000
1030
0000
0000
0000
0001
0000
,
0000
0010
0000
0200
0000
0000
0301
0000
0100
0000
0010
0000
1000
0000
0100
0000
0010
0000
0100
0000
1000
0000
0010
0000
,
0100
0000
0000
0000
0001
0000
0000
0000
0010
0000
0000
0000
0100
0000
0000
0000
1000
0000
0000
0000
0010
0000
0000
0000
0002
0000
0000
1000
0000
0000
0013
0000
0000
0100
0000
0000
0001
0000
0000
0010
0000
0000
0100
0000
0000
1000
0000
0000
,
0100
0010
0100
1000
0001
0100
0010
1000
0001
1000
0001
0100
0010
0100
0010
0001
,
0010
0100
1000
0010
0100
0001
0100
0010
1000
0010
0100
0001
0010
0100
1000
0001
,
1000
0001
0100
0010
0100
0010
1000
0100
0011
0000
0011
0000
1100
0000
1100
0000
,
0110
0000
0000
0000
0110
0000
0000
0000
1001
0000
0000
0000
1001
0000
0000
0000
0002
0000
0000
0000
0000
0023
0000
0000
0000
0000
0230
0000
0000
0000
0000
2300
,
0000
0000
0000
0000
0000
0000
0000
0000
0000
0000
0000
0000
0000
0000
0000
0000
0000
0000
0000
0000
0000
0000
0000
0000
3000
0000
0000
0000
0000
0000
0000
0000
0000
0000
0000
0000
0000
0000
0000
0000
0000
0000
0000
0000
0000
0000
0000
0000
1001
0000
0000
0000
0000
0000
0000
0000
0010
0000
0000
0000
0000
0000
0000
0000
0100
0000
0000
0000
0000
0000
0000
0000
1000
0000
0000
0000
0000
0000
0000
0000
0100
0000
0000
0000
0000
0000
0000
0000
0010
0000
0000
0000
0000
0000
0000
0000
1001
0000
0000
0000
0000
0000
0000
0000
0000
0000
0000
0000
0000
0000
0000
0000
0000
0000
0000
0000
0000
0000
0000
0000
0000
0000
0000
0000
0000
0000
0000
0000
0101
0000
0000
0000
0000
0000
0000
0000
0000
0000
0000
0000
0000
0000
0000
0000
0000
0000
0000
0000
0000
0000
0000
0000
0000
0000
0000
0000
0000
0000
0000
0000
0000
0000
0011
0000
0000
0000
0000
0000
0000
0000
0000
0000
0000
0000
0000
0000
0000
0000
0000
0000
0000
0000
0000
0000
0000
0000
0000
0000
0000
0000
0000
0000
,
1100
0000
0000
0000
0000
0000
0000
0000
0000
0000
0000
0000
0000
0000
0000
0000
0000
0000
0000
0000
0000
0000
0000
0000
0000
0000
0000
0000
0000
0000
0000
0000
0000
0000
0000
0000
0000
0000
0000
0000
0000
0000
0000
0000
0000
0000
0000
0000
1001
0000
0000
0000
0100
0000
0000
0000
0010
0000
0000
0000
0001
0000
0000
0000
0000
0000
0100
0000
0000
0000
0000
0000
0010
0000
0000
0000
0000
0000
1000
0000
0000
0000
0000
0000
0001
0000
0000
0000
0000
0000
1000
0000
0000
0000
0000
0000
0011
0000
0000
0000
0000
0000
0000
0000
0000
0000
0000
0000
0000
0000
0000
0000
0000
0000
0000
0000
0000
0000
0000
0000
0000
0000
0000
0000
0000
0000
1100
0000
0000
0000
0000
0000
0000
0000
0000
0000
0000
0000
0000
0000
0000
0000
0000
0000
0000
0000
0000
0000
0000
0000
0000
0000
0000
0000
0000
0000
0000
0000
0000
0000
0000
0000
0101
0000
0000
0000
0000
0000
0000
0000
0000
0000
0000
0000
0000
0000
0000
0000
0000
0000
0000
0000
0000
0000
0000
0000
0000
0000
0000
0000
0000
0000
,
0220
0000
0330
0000
,
1100
0001
0010
0100
0010
0001
0100
0010
1000
0100
0010
0001
0100
1000
0100
0001
,
1100
0001
0010
0100
1000
0001
1000
0010
0101
1000
0010
0100
0001
0100
1000
0100
,
0011
1000
0001
1000
0010
0100
0001
1000
0010
0100
0001
0010
0100
1000
0010
0100
,
0001
0010
0100
0010
0001
1000
0010
0001
1100
0001
0100
0010
1100
0001
1000
0001
,
1100
0001
0100
0010
1000
0001
0100
0010
1000
0100
0010
0001
1000
0001
1000
0010
,
0101
1000
0010
0001
0010
1000
0010
0100
0011
1000
0010
0100
0001
1000
0001
1000
,
0110
0001
1000
0010
0100
0001
1000
0001
1000
0010
0100
0001
1000
0010
0100
0001
,
1100
0001
0100
0010
1000
0001
1000
0100
0011
1000
0010
0100
0011
1000
0001
1000
,
0011
1000
0010
1000
0001
0010
0001
1000
0010
0100
0001
0100
0001
1000
0001
0010
,
0100
0010
0001
1000
0010
0100
0001
0010
1100
0001
0100
0010
1100
0001
1000
0001
,
1100
0001
0100
0010
1000
0001
1000
0001
0100
0010
0100
0010
0001
0100
1000
0100
,
0001
0010
0100
1000
0010
0100
0001
0100
0011
1000
0010
0100
0011
1000
0001
1000
,
0011
1000
0010
0100
0001
1000
0001
1000
0001
0100
0010
1000
0011
1000
0001
0100
,
1010
0001
0100
0010
1000
0001
1000
0001
0100
0010
0100
0010
1100
0001
1000
0010
,
0101
1000
0001
0010
0100
1000
0100
0010
0001
1000
0010
0001
0010
1000
0001
0010
,
1100
0001
1000
0010
0100
0001
1000
0010
0100
0001
1000
0001
0110
0000
0000
0000
,
1100
0000
0011
1000
0011
0000
0110
0000
,
1100
1010
1001
0101
,
2002
3003
0000
0000
0000
0000
0000
0000
0000
0000
0000
0000
0000
0000
0000
0000
1010
0000
0000
0000
0000
0000
0000
0000
0100
0000
0000
0000
0000
0000
0000
0000
1010
0000
0000
0000
0000
0000
0000
0000
0000
0000
0000
0000
0000
0000
0000
0000
0101
0000
0000
0000
0000
0000
0000
0000
0000
0000
0000
0000
0000
0000
0000
0000
,
1001
0011
0110
1100
,
2002
3003
0000
0000
0000
0000
0000
0000
0000
0000
0000
0000
0000
0000
0000
0000
1010
0000
0000
0000
0000
0000
0000
0000
0100
0000
0000
0000
0000
0000
0000
0000
1010
0000
0000
0000
0000
0000
0000
0000
0000
0000
0000
0000
0000
0000
0000
0000
0101
0000
0000
0000
0000
0000
0000
0000
0000
0000
0000
0000
0000
0000
0000
0000
,
1001
1010
0110
0101
,
1001
0000
0000
0000
1010
0000
0220
0000
0330
0000
0001
0010
0100
1000
0001
0010
,
1100
0000
0000
0000
0110
0000
0022
0000
0033
0000
1000
0100
0010
0001
1000
0100
,
0011
0000
0011
1000
0011
0000
0110
0000
,
1100
1010
1001
0101
,
2002
3003
0000
0000
0000
0000
0000
0000
0000
0000
0000
0000
0000
0000
0000
0000
1010
0000
0000
0000
0000
0000
0000
0000
0100
0000
0000
0000
0000
0000
0000
0000
1010
0000
0000
0000
0000
0000
0000
0000
0000
0000
0000
0000
0000
0000
0000
0000
0101
0000
0000
0000
0000
0000
0000
0000
0000
0000
0000
0000
0000
0000
0000
0000
,
1001
0011
0110
1100
,
2002
3003
0000
0000
0000
0000
0000
0000
0000
0000
0000
0000
0000
0000
0000
0000
1010
0000
0000
0000
0000
0000
0000
0000
0100
0000
0000
0000
0000
0000
0000
0000
1010
0000
0000
0000
0000
0000
0000
0000
0000
0000
0000
0000
0000
0000
0000
0000
0101
0000
0000
0000
0000
0000
0000
0000
0000
0000
0000
0000
0000
0000
0000
0000
,
1001
1010
0110
0101
,
1001
0000
0000
0000
1010
0000
0220
0000
0330
0000
0001
0010
0100
1000
0001
0010
,
1100
0000
0000
0000
0011
0000
0022
0000
0033
0000
0000
0000
0001
0100
0010
1000
,
0001
0100
0010
1001
0010
1000
0001
0100
0010
0101
1000
0010
,
0001
0100
0010
1100
0010
0100
0001
1000
0010
0101
1000
0001
,
0100
0010
1000
0110
0001
1000
0010
0100
0001
1100
0001
0100
,
0010
1000
0010
0101
1000
0010
0100
0001
1000
0011
1000
0010
,
0100
0001
1000
0110
1000
0010
0100
0001
1000
0011
1000
0010
,
0100
0001
1000
0110
0001
1000
0010
0100
0001
0110
1000
0010
,
1001
0000
0000
0000
1100
0000
2200
0000
3300
0000
0001
0010
0100
1000
0001
0010
,
1100
0000
0000
0000
0110
0000
0022
0000
0033
0000
1000
0100
0010
0001
1000
0100
,
0012
1000
0010
1000
0100
1000
0010
1000
0010
0100
1000
0010
,
2003
0010
0001
0100
0010
0001
3020
1000
0001
0100
1000
0100
,
0032
0100
0010
1000
0010
0100
1000
0010
1000
0100
0010
0100
,
2003
0010
0001
0100
0010
0001
3200
0001
1000
0001
0010
1000
,
0302
0010
1000
0010
0100
0010
1000
0100
1000
0010
0100
0010
,
2003
0000
0000
0000
0010
0000
0000
0000
0001
0000
0000
0000
0100
0000
0000
0000
0010
0000
0000
0000
0100
0000
0000
0000
3002
0000
0000
0000
0010
0000
0000
0000
1000
0000
0000
0000
0100
0000
0000
0000
1000
0000
0000
0000
0010
0003
0000
0000
,
1100
0000
0001
0011
0000
0001
1000
0010
,
0100
0000
1000
1100
0000
0000
0001
1000
,
0202
2000
0320
3200
2030
0320
3200
2030
,
0320
3200
2030
0320
3200
2030
0320
3230
,
1313
0000
0000
0000
;
