#TITLE:Carnival Night Zone - Act 1;
#SUBTITLE:- Sonic 3;
#ARTIST:Sonic Team;
#TITLETRANSLIT:;
#SUBTITLETRANSLIT:;
#ARTISTTRANSLIT:;
#CREDIT:;
#BANNER:Carnival Night Zone - Act 1 - Banner.PNG;
#BACKGROUND:Carnival Night Zone - Act 1 - Background.PNG;
#LYRICSPATH:;
#CDTITLE:;
#MUSIC:Sonic 3 - Carnival Night Zone - Act 1.mp3;
#OFFSET:-0.060;
#SAMPLESTART:54.595;
#SAMPLELENGTH:12.000;
#SELECTABLE:YES;
#BPMS:0.000=110.000;
#STOPS:12.000=1.090
,58.000=1.090
,116.000=1.670
,129.000=1.090
,175.000=1.091
;
#BGCHANGES:;
// cache tags:
#FIRSTBEAT:8.000;
#LASTBEAT:234.000;
#SONGFILENAME:Songs/new cc/Sonic 3 - Carnival Night Zone - Act 1 (Crazylegz Edit)/Carnival Night Zone.sm;
#HASMUSIC:1;
#HASBANNER:1;
#MUSICLENGTH:135.241;
// end cache tags

//---------------dance-single - ----------------
#NOTES:
     dance-single:
     :
     Hard:
     9:
     0.519,0.452,0.200,0.251,0.296,430.000,27.000,34.000,0.000,0.000:
0000
0000
0000
0000
,
0000
0000
0000
0000
,
0000
0000
0000
0000
,
2002
3003
0000
0000
2000
0000
3000
0100
0010
0000
0001
0000
0010
0000
1000
0000
,
0010
0001
0100
0001
0200
0000
0002
0000
,
0000
0000
0000
0000
0303
0000
0000
0000
0100
0000
0001
0000
1000
0010
1000
0010
,
1000
0000
0001
0000
0010
0000
0100
0000
0000
0000
0100
0000
1000
0100
0010
0000
,
0002
0000
2003
0000
3002
0000
0003
0010
0100
0000
1000
0000
0100
0000
0001
0000
,
0100
1000
0001
1000
1001
0000
2002
0000
,
0000
0000
0000
0000
3003
0000
0000
0000
0001
0000
0010
0000
0100
1000
0100
0010
,
0001
0000
0100
0000
0001
0000
0101
0000
0000
0000
0100
0000
0010
1000
0010
0000
,
0100
0000
0001
0010
0001
0010
0001
0000
1000
0000
0001
0000
0010
0001
0000
0010
,
0001
0000
1000
0000
0001
0000
0010
0000
0001
0000
0100
0000
0001
0100
0000
0001
,
0100
0000
0010
0000
1000
0000
0100
0000
1000
0000
0010
0000
1000
0010
0000
1000
,
0010
0000
0100
0000
0001
0000
1000
0000
2002
0000
3003
0000
0002
0000
0003
0010
,
0100
0010
0001
1000
0010
0100
0001
1000
,
0002
2000
0000
3003
,
1000
0000
0100
0000
0010
0001
0010
0100
1000
0000
0100
0000
1000
0000
1100
0000
,
0000
0000
0010
0000
1000
0010
0100
0000
0101
0000
0101
0000
0020
0000
0030
0100
,
0001
0010
0100
0010
0001
1000
0010
1000
,
1010
2020
0000
3030
,
0100
0000
0001
0000
0010
0100
1000
0100
0010
0000
0001
0000
0010
0000
0011
0000
,
0000
0000
0100
0000
0001
0010
0001
0000
0100
0000
0010
1000
0010
1000
0010
0000
,
1000
0000
0100
0000
0010
0001
0000
0010
0001
0000
0100
0000
0010
0000
1000
0000
,
0010
0000
0100
0000
0010
1000
0000
0010
1000
0000
0010
0000
0100
0000
0010
0000
,
1000
0000
0100
0000
1000
0100
0000
1000
0100
0000
0010
0000
0001
0000
0100
0000
,
0001
0000
1000
0000
0001
1000
0000
0001
1000
0000
0010
0000
1000
0000
0001
0000
,
0010
0000
0001
0000
0010
0100
0000
0100
1000
0000
0100
0000
1000
0000
0010
0000
,
0101
0000
0000
0001
1000
0001
0100
0001
1000
0100
0000
0000
,
1001
0000
1000
0100
0001
0100
1000
0100
,
0001
0100
0010
1000
0010
0001
0100
1000
,
0100
0001
0010
0001
0100
1000
0100
0001
,
1000
0000
0001
0000
2002
0000
3003
0000
0020
0000
0030
0100
0001
0000
0010
0000
,
0100
1000
0100
0010
0100
1000
0200
0000
,
2000
0000
0000
0000
3300
0000
1000
0100
,
0010
0001
0010
0100
1000
0000
0100
0000
1000
0000
1100
0000
0000
0000
0010
0000
,
0001
1000
0100
0000
1100
0000
1001
0000
2000
0000
3000
0010
0100
0000
0001
0000
,
0100
0010
1000
0010
0100
0001
2000
0000
,
0002
0000
0000
0000
3003
0000
0001
0010
,
0100
1000
0010
0100
0001
0000
0100
0000
0001
0000
0101
0000
0000
0000
0010
0000
,
0100
0010
0100
0000
1000
0000
0010
0100
0010
0100
0010
0000
0100
0000
0001
0000
,
0100
0001
0000
0100
0001
0000
0010
0000
0100
0000
1000
0000
0100
0000
0010
0000
,
0100
0010
0000
0100
0010
0000
0001
0000
0010
0000
0001
0000
1000
0000
0010
0000
,
0100
0010
0000
1000
0010
0000
1000
0000
0001
0000
1000
0000
2002
0000
3003
0000
,
0002
0000
0003
0010
0100
0000
1000
0000
0100
0000
0010
0000
0001
0000
0010
0000
,
1000
0010
0002
0000
2000
0000
0000
0000
,
3003
0000
0000
0000
1000
0000
0010
0000
1000
0010
0100
0001
0010
0000
0001
0000
,
0010
0000
0011
0000
0000
0000
0100
0000
0001
0100
0010
0000
1010
0000
1010
0000
,
2000
0000
3000
0100
0010
0000
0100
0000
0010
0000
1000
0000
0010
0000
0001
0000
,
1000
0001
0011
0000
2002
0000
0000
0000
,
3003
0000
0000
0000
0001
0000
0100
0000
0001
0100
0010
1000
0100
0000
1000
0000
,
0100
0000
1100
0000
0000
0000
0001
0000
0010
0100
1000
0000
0010
0000
1000
0100
,
0010
0001
0010
0000
0001
0000
0100
0000
0001
0100
0000
0001
0100
0000
0001
0000
,
0100
0000
0010
0000
1000
0000
0100
0000
1000
0010
0000
1000
0010
0000
1000
0000
,
0100
0000
0010
0000
0100
0000
1000
0000
0100
1000
0000
1000
0100
0000
1000
0000
,
0100
0000
0001
0000
0010
0000
0100
0000
0010
0001
0000
0010
0001
0000
0100
0000
,
0001
0000
1000
0000
0100
0000
0010
0000
0100
0010
0000
0100
0010
0000
0001
0000
,
0100
0000
0000
0010
0000
0000
1010
0000
0000
0000
0000
0000
1000
0000
0010
0000
0100
0000
0001
0000
0010
0000
0100
0000
,
1000
1001
0000
0000
;

//---------------dance-single - ----------------
#NOTES:
     dance-single:
     :
     Medium:
     6:
     0.350,0.368,0.281,0.074,0.015,283.000,38.000,10.000,0.000,0.000:
0000
0000
0000
0000
,
0000
0000
0000
0000
,
0000
0000
0000
0000
,
1001
0000
1000
0000
0100
0010
0001
0010
,
0100
1000
0010
0100
0001
0000
0002
0000
,
0000
0003
1001
0100
,
1000
0100
1000
0100
1000
0000
1000
0000
,
0010
0100
0001
0000
0100
0001
0010
0001
,
1000
0001
0010
0001
1000
0000
2000
0000
,
0000
3000
1001
0001
,
0001
0100
0001
0100
0001
0000
1000
0000
,
0010
0000
0100
0001
1000
0000
0100
0000
,
1100
0100
0010
0001
,
0011
0000
0001
0000
0100
0001
0100
0000
,
0101
0010
1001
0001
,
1000
0010
0100
0001
1000
0010
0100
0001
,
1000
2000
0000
3000
,
0001
0000
0010
0000
0100
1000
0100
0010
,
0001
0000
1000
0000
0010
0100
0001
0000
,
1000
0001
0010
0100
1000
0001
0010
0100
,
0010
0020
0000
0030
,
0110
0000
1000
0000
0010
0100
0001
0100
,
0001
0000
1000
0000
0001
0010
0100
0000
,
1000
1100
0001
0101
,
1000
1100
0001
0101
,
1001
0010
1001
0100
,
1001
0000
0100
0000
0001
0010
0100
1000
,
0100
1100
0010
0011
,
1001
0000
0000
0001
0000
1000
0100
0000
1000
0010
0000
0000
,
1001
0000
0001
0100
0001
0100
0001
0100
,
0001
0100
0001
1000
0001
1000
0001
1000
,
0001
1000
0001
0010
0001
0010
0001
0010
,
0001
0010
0001
0000
1000
0000
0010
0100
,
0010
1000
0100
1000
0010
0100
0010
0000
,
0020
0000
0030
0100
,
0001
0000
0010
0100
1000
0100
0010
0000
,
0100
0000
1000
0001
0100
0000
0001
0010
,
0001
1000
0001
0010
0001
1000
0001
0000
,
0002
0000
0003
1000
,
0010
0000
0100
0001
0100
0001
1000
0000
,
0010
0000
0100
0001
0010
0001
0100
0000
,
0110
1000
1100
0001
,
0101
0010
1001
0010
,
0011
1000
1100
1001
,
0100
0000
0001
0010
0100
0010
0001
0010
,
0100
0010
0001
0000
0002
0000
0000
0000
,
0003
0000
1000
0000
0010
0000
1000
0010
,
1000
0010
1000
0000
0001
0000
0010
0100
,
1000
0000
0001
0100
0001
0010
0001
0100
,
0001
0010
0100
0000
0200
0000
0000
0000
,
0300
0000
1000
0000
0010
0000
0100
0001
,
0010
0001
0100
0000
0001
0000
0010
0100
,
1000
0001
1000
0000
1100
0000
0001
0000
,
0101
0010
1010
0100
,
0101
0010
0011
0100
,
1100
0010
1010
0100
,
1100
0001
0101
0010
,
1001
0000
0000
1001
0000
0000
1000
0000
0001
0010
0000
0001
,
0100
0202
0303
0000
;

//---------------dance-single - ----------------
#NOTES:
     dance-single:
     :
     Challenge:
     10:
     0.595,0.519,0.325,0.244,0.407,486.000,44.000,33.000,0.000,3.000:
0000
0000
0000
0000
,
0000
0000
0000
0000
,
1000
0000
0100
0000
0010
0001
0010
0001
0010
0000
0001
0000
1000
0000
0001
0000
,
2002
0000
3000
0000
1003
0000
0000
0001
0010
0000
0100
0000
1000
0000
0100
0000
,
0010
0001
1000
0001
1001
0000
1001
0000
,
0100
0000
0001
0000
0100
0000
0001
0000
1000
0000
0010
0000
1000
0100
0010
0001
,
0010
0000
0001
0000
0100
0000
0001
0000
0000
0000
0100
0000
0010
1000
0010
0000
,
1010
0000
1010
0000
0002
0000
0000
0013
0100
0000
1000
0000
0100
0000
0001
0000
,
0100
0010
1000
0010
0002
0000
0200
0303
,
0001
0000
0100
0000
0010
0000
1000
0000
0001
0000
0100
0000
0001
0100
0001
0100
,
0010
0000
1000
0000
0010
0000
2000
0000
0000
0000
3001
0000
0010
0100
1000
0000
,
0100
0000
1000
0001
1000
0100
1000
0000
0010
0000
0100
0000
0001
0100
0001
0100
,
0001
0000
0010
0000
0100
1000
0100
1000
0100
0000
1000
0000
0010
0100
0001
0100
,
0002
0000
0000
0000
0000
0003
0000
0100
0001
0000
1000
0000
0010
1000
0010
1000
,
0010
0000
0100
0000
0001
0010
0001
0010
0001
0000
0000
0000
0011
0000
0000
0100
,
1000
0100
1000
0010
1000
0100
1000
0001
,
1001
0000
1001
0000
0001
0100
0001
0100
,
0010
0000
1000
0000
0001
0010
0100
1000
0100
0000
1000
0000
0010
0000
1000
0000
,
0000
0000
1001
0000
0001
0100
0010
0000
1010
0000
1001
0000
2000
0000
0000
3010
,
0100
0001
0010
0100
1000
0001
0100
0001
,
0020
0000
0200
0330
1000
0100
1000
0100
,
0010
0000
0001
0000
0100
0001
0100
0001
1000
0000
0001
0000
0100
0000
0020
0000
,
0000
0000
1030
0000
0010
0100
0010
0000
1000
0000
0001
0100
0001
0100
0001
0000
,
1000
0000
0100
0000
1000
0100
0010
0001
0010
0000
0011
0000
0001
0100
0010
1000
,
0010
0000
1010
0000
1000
0100
0010
0001
0020
0000
0000
0000
0000
0030
0000
0010
,
0001
0000
0010
0000
0001
0010
0100
1000
0100
0000
1100
0000
1000
0010
0100
0001
,
0100
0000
0101
0000
0001
0010
0100
1000
0200
0000
0000
0000
0000
0300
0000
0100
,
1000
0000
0010
0000
1000
0010
0100
0001
0010
0000
0011
0000
0001
0100
0010
1000
,
0100
0000
0000
0100
1000
0010
0100
0001
0010
0100
0000
0000
,
0110
0000
1000
0100
0001
0010
0001
0100
,
1000
0010
0001
0100
0001
0010
1000
0001
,
0010
0000
1000
0000
0100
0000
1000
0000
0010
0001
0100
0001
0100
0000
0001
0000
,
0100
0000
0010
0000
2002
0000
0003
0000
3001
0000
0000
0010
0100
0000
1000
0000
,
0100
0010
0001
0100
0001
1000
1001
0000
,
1001
0000
0100
0001
0100
0001
1000
0100
,
0010
0001
0010
0100
1000
0000
0100
0000
1000
0000
1100
0000
0000
0000
0011
0000
,
0001
1000
0100
0000
1100
0000
1001
0000
1002
0000
0000
0103
0001
0000
0100
0000
,
0010
1000
0100
1000
0010
1000
2002
0000
,
0020
0000
0000
0000
3033
0000
0001
1000
,
0100
1000
0100
1000
0100
0000
1000
0000
0001
0000
0101
0000
0000
0000
0101
0000
,
0001
0100
0010
0000
1000
0000
0010
0100
0010
0100
0010
0000
1000
0000
0001
0000
,
0010
0100
1000
0100
0010
0000
0001
0000
0100
0010
1000
0010
0100
0000
0001
0000
,
0010
0100
1000
0100
0020
0000
0000
0000
0000
0030
0000
0010
0001
0000
1000
0000
,
0100
0010
0001
0010
0100
0000
1000
0000
0010
0100
0001
0100
0020
0000
0030
0000
,
1010
0000
0000
1000
0010
0000
0001
0000
0010
0000
0100
0000
1000
0000
0100
0000
,
0001
0010
0022
0000
0200
0000
0000
0000
,
0333
0000
0000
0000
0100
0000
0010
0000
0100
1000
0100
0010
0001
0000
0010
0000
,
0001
0000
1001
0000
0000
0000
0101
0000
0001
0100
0010
0000
1010
0000
1010
0000
,
2000
0000
3000
0100
0010
0000
0100
0000
1000
0000
0100
0000
0010
0000
1000
0000
,
0010
0001
2002
0000
0220
0000
0000
0000
,
3333
0000
0000
0000
0010
0000
1000
0000
0100
0010
0100
1000
0100
0000
1000
0000
,
1100
0000
1100
0000
0000
0000
1000
0000
0100
0010
0001
0000
0100
0000
0001
0100
,
0001
0100
0001
0000
1000
0000
0010
0000
1000
0001
0100
0010
1000
0000
1001
0000
,
0001
1000
0010
0100
0001
0000
1001
0000
1000
0010
0100
0001
2000
0000
0000
0000
,
0000
3000
0000
1000
0100
0000
0010
0000
0001
0100
0010
1000
0100
0000
1100
0000
,
1000
0010
0100
0001
0010
0000
0011
0000
0001
0100
0010
1000
0200
0000
0000
0000
,
0000
0300
0000
1000
0100
0000
1000
0000
0010
1000
0010
0100
0010
0000
0110
0000
,
0010
0000
0000
1000
0000
0000
0001
0000
0000
1000
0000
0000
0001
0000
0000
0000
0000
0000
0000
0000
0000
0000
0000
0000
0001
0000
0000
0000
0100
0000
0000
0000
1000
0000
0000
0000
0010
0000
0000
0000
0001
0000
0000
0000
0100
0000
0000
0000
,
1000
2002
3003
0000
;

//---------------dance-single - Copied from----------------
#NOTES:
     dance-single:
     Copied from:
     Easy:
     4:
     0.265,0.281,0.200,0.074,0.000,214.000,27.000,10.000,0.000,0.000:
0000
0000
0000
0000
,
0000
0000
0000
0000
,
0000
0000
0000
0000
,
1001
1000
0100
0010
,
0100
1000
0001
0002
,
0000
0003
1000
0100
,
0010
0001
0010
0000
0000
0000
0001
0000
,
1000
0001
0100
0000
0001
0000
0010
0000
,
1000
0010
0001
2000
,
0000
3000
1001
0001
,
0100
0001
0100
0000
0000
0000
1000
0000
,
0100
1000
0100
1000
0100
0000
1000
0000
,
1100
0100
0010
0001
,
0011
0001
0100
0001
,
0101
0010
1001
0001
,
1000
0010
0100
0001
,
1000
2000
0000
3000
,
0001
0000
0010
0000
0100
1000
0100
0000
,
0000
0000
0001
0000
1000
0010
0100
0000
,
0001
0010
0100
0010
,
0001
0002
0000
0003
,
0010
0000
1000
0000
0010
0001
0010
0000
,
0000
0000
0100
0000
0001
1000
0010
1000
,
0010
1010
0001
0100
,
1000
1100
0001
0100
,
1001
0010
1001
0100
,
1001
0010
0001
0010
,
0100
1100
0010
0001
,
1001
0000
0110
0000
,
1001
0001
0001
0001
,
0001
1000
1000
1000
,
1000
0010
0010
0010
,
0010
0010
1000
0010
,
0100
0001
0010
0100
,
0200
0000
0300
1000
,
0001
0000
0010
0001
0010
0000
0000
0000
,
0100
0000
1000
0001
0100
0000
0001
0000
,
0010
1000
0010
0001
,
0002
0000
0003
1000
,
0010
0000
0100
0001
0100
0000
0000
0000
,
0010
0000
0100
0001
0100
0001
0100
0000
,
0001
1000
1100
0001
,
0100
0010
1001
0010
,
0001
0010
0100
1001
,
0100
0010
1000
0010
,
0001
1000
2000
0000
,
3000
0000
1000
0000
0010
0000
1000
0010
,
1000
0000
0000
0000
0001
0000
0010
0100
,
0010
0001
0100
0010
,
0100
0001
0002
0000
,
0003
0000
1000
0000
0010
0000
0100
0010
,
0100
0000
0000
0000
0001
0000
0010
0100
,
0010
0100
0010
0000
0001
0000
0011
0000
,
0001
1000
0010
1010
,
0100
0001
0010
0011
,
0100
1000
0010
1010
,
0100
0001
0101
0010
,
1001
1001
0000
1100
,
0000
2002
3003
0000
;
