#TITLE:Final Countdown;
#SUBTITLE:(MTO CRYBABY STYLE);
#ARTIST:dj TAKA feat. Jasmine;
#TITLETRANSLIT:;
#SUBTITLETRANSLIT:;
#ARTISTTRANSLIT:;
#CREDIT:;
#BANNER:;
#BACKGROUND:;
#LYRICSPATH:;
#CDTITLE:;
#MUSIC:23.Final Count Down (MTO CRY BABY STYLE).mp3;
#OFFSET:-0.720;
#SAMPLESTART:36.584;
#SAMPLELENGTH:12.000;
#SELECTABLE:YES;
#BPMS:0.000=164.000;
#STOPS:;
#BGCHANGES:;
// cache tags:
#FIRSTBEAT:0.000;
#LASTBEAT:297.000;
#SONGFILENAME:Songs/IzzySM Keyboard Mega Pack/Final Countdown, DJ Taka/FinalCountdown.sm;
#HASMUSIC:1;
#HASBANNER:0;
#MUSICLENGTH:117.844;
// end cache tags

//---------------dance-single - ----------------
#NOTES:
     dance-single:
     :
     Hard:
     10:
     0.923,1.000,0.552,0.000,0.955,696.000,65.000,0.000,0.000,0.000:

1100
0000
0000
0000
0000
0000
0100
1000
0001
0000
0000
0000
0100
0000
0010
0000
,
0010
0000
0000
0000
0000
0000
1000
0001
1000
0000
0100
0000
0010
0000
0000
0001
,
0001
0000
0000
0000
0000
0000
1000
0010
0100
0000
0000
0000
0001
0000
1000
0000
,
1000
0000
0000
0000
0000
0000
0001
0100
0010
0000
1000
0000
1001
0000
0001
1000
,
0100
0000
0000
0000
0010
0000
0001
0100
0010
0000
0000
0000
0110
0000
1000
0000
,
1000
0000
0000
0000
0100
0000
0010
0001
0100
0000
0010
0000
0110
0000
0000
1000
,
1000
0000
0000
0000
0100
0000
0010
0001
1000
0000
0000
0000
1001
0000
0001
0000
,
0001
0000
0000
0000
1100
0000
0100
0010
0001
0000
1000
0010
0100
0000
1001
0000
,
1010
0000
0000
0000
1000
0000
0100
0010
0001
0000
0000
0000
1000
0000
0100
0010
,
0001
0100
1010
0100
1100
0000
1001
0000
,
1010
0000
1000
0000
1000
0000
1000
0000
1000
0100
1000
0010
1000
0001
1000
0100
,
1000
0010
1000
0001
1000
0100
1000
0010
1000
0001
1000
0100
1000
0001
1000
0010
,
1000
0100
0000
0100
0000
0100
0000
0100
,
0000
0100
0000
0100
0010
0001
0101
0010
,
0100
0000
0010
0000
0100
0001
1000
0000
1000
0100
0010
0000
0001
1000
0010
0000
,
0110
0000
0000
0000
0000
0000
0001
1000
0010
0000
0000
0000
0000
0000
0010
1000
,
0001
0000
0101
0000
1000
0100
1000
0100
0010
0000
0001
1000
0000
0000
1010
0000
,
0100
0000
0101
0000
0010
1000
0100
1000
0010
0000
0100
0010
1000
0000
1001
0000
,
1000
0000
1001
0000
1000
0100
0010
0001
0100
0000
0010
1000
0100
0000
1100
0000
,
0001
0000
0011
0000
0100
1000
0010
0100
0001
0000
1000
0000
1001
0000
0100
0000
,
0010
0000
1001
0000
0001
1000
0100
0010
0001
0000
0001
1000
0000
0000
1001
0000
,
1000
0000
0101
0000
0001
1000
0010
0100
0001
0000
0001
1000
0100
0000
1100
0000
,
0010
0000
0011
0000
0001
0010
0100
1000
0001
0000
0001
1000
0010
0000
1010
0000
,
0100
0000
0101
0000
1000
0010
0100
0001
1000
0000
1100
0000
0011
0000
0100
0000
,
1000
0100
0010
0000
0001
1000
0010
0000
0010
0100
0001
0000
0000
0001
0100
0000
,
0010
1000
0100
0000
0100
1000
0010
0100
0000
0100
0001
1000
0000
1000
0100
0000
,
0010
0001
0100
0010
1000
0100
0010
0100
1000
0010
0100
0001
1000
0100
1000
0010
,
0100
0001
0010
0100
0010
0001
1000
0010
0100
0001
1000
0100
1000
0100
0010
0001
,
1000
0100
0010
0000
0001
0010
0100
1000
0000
1000
0010
0100
0000
0001
1000
0000
,
1000
0100
0010
0000
0010
0100
1000
0010
0000
0100
0001
1000
0000
1000
0100
0000
,
0000
0000
1001
0000
1001
0000
0000
0000
1001
0000
0000
1001
0000
0000
1001
0000
,
0000
0000
0000
0000
0001
1000
0001
0000
0100
0010
0100
0000
0001
0100
0001
0000
,
1001
0000
0000
0000
1000
0000
0010
0100
0001
0000
0000
0000
0101
0000
0000
0000
,
1000
0000
0000
0000
1000
0000
0001
1000
0100
0000
0010
0000
0011
0000
0000
0000
,
0001
0000
0000
0000
1000
0000
0010
0100
0001
0000
0000
0000
1010
0000
0000
0000
,
1000
0000
0000
0000
1000
0000
0001
1000
0001
0000
1000
0000
1010
0000
1001
0000
,
1100
0000
0000
0000
1000
0000
1000
0001
1000
0000
0000
0000
1100
0000
0000
0000
,
1000
0000
0000
0000
1000
0000
0001
1000
0001
0000
1000
0000
1100
0000
0000
0000
,
1000
0000
0000
0000
1000
0000
0001
0010
0100
0000
0000
0000
0110
0000
0000
0000
,
1000
0000
0000
0000
1000
0000
0010
0100
0001
0000
1000
0000
1100
0000
1010
0000
,
1001
0000
0000
0000
1000
0000
0100
0010
0001
0000
0000
0000
1000
0000
0010
0100
,
0001
1000
1001
0010
1100
0000
1010
0000
,
1001
0000
1000
0000
1000
0000
1000
0000
1000
0000
1000
0000
1000
0001
1000
0100
,
1000
0010
1000
0100
1000
0010
1000
0001
1000
0100
1000
0010
1000
0001
1000
0100
,
1000
0100
0010
0100
0010
0001
0000
0001
0000
1000
0010
0100
0001
1000
0000
0100
,
1000
0010
0100
0010
0100
0010
0100
0010
0100
0010
0100
0010
0100
0010
0100
0010
,
0100
0010
1000
0100
0010
0001
1000
0010
0100
0010
1000
0100
1000
0010
0100
0000
,
0001
1000
0010
0100
0001
1000
0100
1000
0010
0100
0001
1000
0100
1000
0010
0000
,
0100
0010
1000
0100
1000
0010
0100
0001
0010
0100
0010
0001
1000
0010
0100
0000
,
0001
1000
0010
0100
0001
1000
0100
0010
0100
1000
0010
0100
0001
0010
0100
1000
,
0000
0000
0000
0000
1000
0000
0000
0000
1000
0000
0000
0000
1000
0000
0000
0000
0010
0000
0000
0000
0010
0100
0010
0000
1000
0000
0000
0000
0001
0000
0000
0000
,
1000
0100
0010
0001
,
1001
0000
0000
0000
1000
0000
0010
0100
0000
0001
1000
0100
0010
0001
1000
0000
,
0010
0100
0001
1000
0100
1000
0010
0100
0000
0000
0001
0000
1000
0100
0010
0000
,
0001
0010
0100
1000
0010
0100
0001
1000
0100
1000
0010
0100
0001
1000
0100
0000
,
0001
1000
0001
1000
0100
0010
0100
0010
0100
1000
0010
0100
0001
1000
0100
0000
,
0001
1000
0010
0100
0010
1000
0100
0010
0100
1000
0010
0100
0001
0010
0100
0000
,
1000
0001
0100
0010
1000
0100
0010
0001
0010
0100
1000
0010
0100
0001
1000
0100
,
0000
0000
0000
0000
0010
0000
0000
0000
0010
0000
0000
0000
0010
0000
0000
0000
0001
0000
0000
0000
1000
0001
1000
0000
0001
0000
0000
0000
1000
0000
0000
0000
,
0010
0100
0001
1000
,
0100
0000
0000
0000
,
0100
0000
0000
0000
0000
0000
0001
1000
0100
0000
0000
0000
0000
0000
0000
0000
,
1100
0000
0000
0000
0000
0000
1000
0010
0100
0000
0000
0000
0001
0000
1000
0000
,
1000
0000
0000
0000
0000
0000
1000
0001
1000
0000
0100
0000
0010
0000
0000
0001
,
0001
0000
0000
0000
0000
0000
1000
0010
0100
0000
0000
0000
0001
0000
1000
0000
,
1000
0000
0000
0000
0000
0000
1000
0100
0010
0000
0001
0000
0011
0000
0001
1000
,
0010
0000
0000
0000
0100
0000
0010
1000
0100
0000
0000
0000
1100
0000
0000
0000
,
1000
0000
0000
0000
1000
0000
0001
1000
0010
0000
0100
0000
0110
0000
0000
0000
,
0001
0000
0000
0000
1000
0000
0001
1000
0100
0000
0000
0000
1100
0000
0000
0000
,
0000
0000
0000
0000
0000
0000
0001
1000
0001
0000
0100
0000
0010
0000
1000
0000
,
1001
0000
0000
0000
1000
0000
0100
0010
0001
0000
0000
0000
1000
0000
0100
0010
,
0001
0100
1010
0100
1100
0000
1001
0000
,
1010
0000
1000
0000
1000
0000
1000
0000
1000
0000
1000
0000
1000
0001
1000
0010
,
1000
0100
1000
0100
0010
0001
0010
0001
1000
0010
1000
0010
0100
0001
0100
0001
,
0000
1001
0000
0000
,;
