#TITLE:WOODMAN;
#SUBTITLE:;
#ARTIST:YUUKICHAN'S PAPA;
#TITLETRANSLIT:;
#SUBTITLETRANSLIT:;
#ARTISTTRANSLIT:;
#CREDIT:;
#BANNER:WOODMAN.png;
#BACKGROUND:WOODMAN-bg.png;
#LYRICSPATH:;
#CDTITLE:MM2.png;
#MUSIC:WOODMAN.mp3;
#OFFSET:-5.390;
#SAMPLESTART:7.860;
#SAMPLELENGTH:12.500;
#SELECTABLE:YES;
#BPMS:0.000=180.000;
#STOPS:;
#BGCHANGES:;
// cache tags:
#FIRSTBEAT:0.000;
#LASTBEAT:295.500;
#SONGFILENAME:Songs/zelda et megaman/WOODMAN/WOODMAN.sm;
#HASMUSIC:1;
#HASBANNER:1;
#MUSICLENGTH:111.768;
// end cache tags

//---------------dance-single - ----------------
#NOTES:
     dance-single:
     :
     Easy:
     4:
     0.313,0.296,0.009,0.107,0.000,232.000,1.000,12.000,0.000,0.000:
0000
0000
0000
0000
0000
0000
0000
0100
,
0000
0100
0000
0000
0100
0000
0000
0000
,
0001
0001
0010
0001
,
0010
0001
1000
0001
,
1000
1000
0100
1000
,
0100
1000
0001
0010
,
0001
0000
0001
0000
,
1000
0000
1000
0000
,
0010
0010
0100
0100
,
0001
1000
0001
0000
,
0010
0010
0100
0010
,
0100
0100
1000
0001
,
0010
0010
0100
0010
,
0010
0100
0001
1000
,
0100
0000
0010
0000
,
0001
0000
0010
0000
,
0100
1000
0100
0000
,
0010
0001
0010
0000
,
0002
0000
0013
0000
,
0100
0100
1000
0000
,
2000
0000
3010
0000
,
0100
0100
0001
0000
,
0010
0001
0010
0001
,
0010
0000
0100
0000
,
1000
0000
1000
0000
0001
0000
0001
0010
,
0000
0010
0000
0000
0010
0000
0000
0000
,
0100
1000
0100
0100
,
1000
0100
1000
0001
,
0100
0001
0100
0100
,
0001
0100
0001
1000
,
1000
0000
1000
0000
,
0100
0010
0001
0000
,
0001
0000
0001
0000
,
0010
0100
1000
1000
,
0200
0300
0100
0000
,
1000
0010
0100
0001
,
0020
0030
0010
0000
,
0001
0100
0010
1000
,
1000
0100
0010
0001
,
0001
0010
0100
1000
,
1000
0000
0100
0000
,
0010
0000
0001
0001
,
0020
0000
0130
0000
,
1000
0001
1000
0000
,
0200
0000
0310
0000
,
1000
0001
1000
0000
,
0010
0100
0010
0100
,
0010
0100
0010
0000
,
1000
0000
1000
0000
0001
0000
0001
0010
,
0000
0010
0000
0000
0100
0000
0000
0000
,
1000
1000
0100
0010
,
0001
0001
0010
0100
,
2000
3000
2000
3000
,
0010
0100
0010
0000
,
0100
0001
0100
0000
,
0010
1000
0010
0000
,
0100
0100
0001
1000
,
0001
0001
1000
0000
,
0001
0001
0010
0100
,
1000
1000
0100
0010
,
0002
0003
0002
0003
,
0100
0010
0100
0000
,
0010
1000
0010
0000
,
0100
0001
0100
0000
,
0010
0010
1000
0001
,
1000
1000
0001
0000
,
0020
0000
0031
0000
,
0100
0010
0100
0000
,
0020
0000
1030
0000
,
0100
0010
0100
0000
,
0010
0001
0010
0001
,
0010
0010
0100
0100
,
1000
0000
0001
0000
1000
0000
0001
1000
,
0000
0001
0000
0000
1001
0000
0000
0000
;

//---------------dance-single - ----------------
#NOTES:
     dance-single:
     :
     Medium:
     6:
     0.413,0.430,0.188,0.000,0.000,302.000,21.000,0.000,0.000,0.000:
0100
0000
0100
0000
1000
0000
0001
1000
,
0000
1001
0000
0000
1000
0000
0100
1000
,
0000
0000
0000
0000
0010
0010
0000
0100
,
0000
0100
0000
0001
0100
0000
0001
0000
,
0010
0000
0000
0000
0010
0000
0100
0100
,
0000
1000
0000
0000
0000
1000
0001
1000
,
0000
0000
0000
0000
0000
0000
0001
0010
,
0000
0001
0010
0100
,
1000
0100
1000
0100
0000
0000
0000
0010
,
0000
0011
0000
0000
0001
0000
0010
0001
,
0000
0000
0000
0000
0100
0100
0000
0010
,
0000
0010
0000
1000
0010
0000
1000
0000
,
0100
0000
0000
0000
0100
0000
0010
0010
,
0000
0001
0000
0000
0000
0001
1000
0001
,
0000
0000
0000
0000
0000
0000
1000
0100
,
0000
1000
0100
0010
,
0001
0010
0001
0010
0000
0000
0000
0100
,
0000
1100
0000
0000
1000
0000
0001
1000
,
0000
0000
0100
0000
0100
0100
0000
1000
,
0000
0001
0000
0010
0010
0000
0001
0000
,
0010
0000
0000
0000
0000
0000
0000
0100
,
1000
0100
1001
0100
,
0001
0000
0000
0000
0010
0010
0000
0001
,
0000
0010
0001
0000
1001
0000
1001
0000
,
0100
0000
0100
0000
1000
0000
0001
1000
,
0000
1001
0000
0000
0010
0000
0100
0001
,
0000
0000
0010
0000
0001
1000
0000
1000
,
0000
0100
0000
1000
0010
0000
0010
0000
,
1000
0000
0000
0000
1000
0000
0100
0100
,
0000
0010
0000
0000
0000
0001
1000
0001
,
0000
0000
0000
0000
1000
0000
0100
0100
,
0000
0010
0001
0010
,
0100
1000
0100
1000
0000
0000
0000
0010
,
0000
0110
0000
0000
0100
0000
0010
1000
,
0000
0000
0100
0000
1000
0001
0000
0001
,
0000
0010
0000
0001
0100
0000
0100
0000
,
0001
0000
0000
0000
0001
0000
0010
0010
,
0000
0100
0000
0000
0000
1000
0001
1000
,
0000
0000
0000
0000
0001
0000
0010
0010
,
0000
0100
1000
0100
,
0010
0001
0010
0001
0000
0000
0000
0100
,
0000
0110
0000
0000
0010
0000
0001
0001
,
0000
0000
0100
0000
0010
0010
0000
0100
,
0000
0100
0000
0001
1000
0000
1001
0000
,
0100
1000
0100
1000
,
0010
0010
0100
0100
,
0001
0000
0001
0000
0010
0010
0000
0100
,
0000
0100
1000
0000
0001
0000
1001
0000
,
0100
1000
0100
0000
0010
0001
0010
0001
,
0000
1001
0000
0000
0100
0000
0100
0010
,
0000
0000
0010
0000
1000
0100
0000
1000
,
0000
0100
0000
1000
0010
0000
0100
0000
,
0100
0000
0001
0000
0010
0000
0001
0010
,
0000
0011
0000
0000
0000
0001
1000
0001
,
0000
0000
0100
0000
0100
0000
0010
0010
,
0000
0100
0001
0100
,
0010
1000
0010
0000
1000
0001
1000
0001
,
0000
1000
0000
0000
0010
0000
0010
0100
,
0000
0000
0100
0000
0001
0010
0000
0001
,
0000
0010
0000
0001
0100
0000
0010
0000
,
0010
0000
1000
0000
0100
0000
1000
0100
,
0000
1100
0000
0000
0000
1000
0001
1000
,
0000
0000
0010
0000
0010
0000
0100
0100
,
0000
0010
1000
0010
,
0100
0001
0100
0000
0001
1000
0001
1000
,
0000
0100
0000
0000
0010
0000
0001
0010
,
0000
0000
0001
0000
0010
0100
0000
0100
,
0000
1000
0000
0001
1000
0000
1001
0000
,
0100
0100
0010
0010
,
0001
0101
1000
1010
,
0100
0000
0100
0000
1000
0100
0000
1000
,
0000
0001
1000
0000
0011
0000
1100
0000
,
0010
0100
0010
0000
0100
0010
0100
0010
,
0000
1001
0000
0000
1001
0000
1000
0001
;

//---------------dance-single - ----------------
#NOTES:
     dance-single:
     :
     Hard:
     8:
     0.579,0.496,0.752,0.000,0.000,369.000,84.000,0.000,0.000,0.000:
0010
0100
1000
0010
0100
0001
1000
1100
,
0000
0011
0000
0000
1001
0000
0100
1000
,
0000
0000
1100
0000
0010
0001
0000
0010
,
0000
0100
0000
1000
0001
0000
1001
0000
,
0100
0000
0101
0000
0010
0000
1000
0001
,
0000
1001
0000
0000
0000
0100
1000
0100
,
0000
0000
0010
0000
0010
0000
0001
0100
,
0000
0101
0110
1010
,
0100
0010
0001
0100
0010
1000
0001
0011
,
0000
1100
0000
0000
1001
0000
0010
0001
,
0000
0000
0011
0000
0100
1000
0000
0100
,
0000
0010
0000
0001
1000
0000
1001
0000
,
0010
0000
1010
0000
0100
0000
0001
1000
,
0000
1001
0000
0000
0000
0010
0001
0010
,
0000
0000
0100
0000
0100
0000
1000
0010
,
0000
1010
0110
0101
,
0010
0100
1000
0010
0100
0001
1000
1100
,
0000
0011
0000
0000
1001
0000
0100
1000
,
0000
0000
0010
0000
0010
0100
0000
0001
,
0000
0100
0000
0010
1000
0000
1001
0000
,
0100
0000
0010
0000
0100
0000
1000
0001
,
1000
1100
0001
0011
,
0100
0000
0001
0000
0100
0010
0000
1000
,
0000
0010
0100
0000
0001
0000
1000
0000
,
0100
0010
0001
0100
0010
1000
0001
1001
,
0000
0110
0000
0000
1001
0000
0010
0100
,
0000
0000
1100
0000
0100
0010
0001
0010
,
0000
0001
0000
0010
0100
1000
0100
0000
,
1000
0000
1001
0000
0001
0000
0010
0011
,
0000
1100
0000
0000
0000
1000
0100
0010
,
0000
0000
0001
0000
0001
0000
0100
0110
,
0000
0000
1001
0000
0010
0100
0010
0000
,
0100
1000
0010
0100
0001
0010
0100
1100
,
0000
0011
0000
0000
1001
0000
0010
0100
,
0000
0000
0101
0000
0100
0010
1000
0010
,
0000
1000
0000
0010
0100
0001
0100
0000
,
0001
0000
1001
0000
1000
0000
0010
1010
,
0000
0101
0000
0000
0000
0001
0100
0010
,
0000
0000
1000
0000
1000
0000
0100
0110
,
0000
0000
1001
0000
0010
0100
0010
0000
,
0100
0001
0010
0100
1000
0010
0100
0101
,
0000
1010
0000
0000
1001
0000
0100
1000
,
0000
0000
1100
0000
0010
0001
0010
0100
,
0000
0110
0000
1000
0010
1000
0010
0000
,
0100
0001
0100
0000
1001
0000
0100
1000
,
0100
1100
0110
0011
,
0010
0001
0010
0000
0001
0100
0000
1010
,
0000
0100
0001
0000
1000
0001
1000
0000
,
0100
0010
0001
0100
0010
1000
0100
0110
,
0000
1001
0000
0000
1010
0000
0100
0001
,
0000
0000
0110
0000
0010
0001
0000
0010
,
0000
0100
0000
1000
0010
1000
1010
0000
,
0100
0001
0100
0000
0010
1000
0010
0100
,
0000
0001
1001
0000
0000
0100
0010
0100
,
1000
0000
1000
0000
0010
0000
0100
0101
,
0000
0010
1010
1001
,
0100
1000
0010
0100
0001
0010
0100
1100
,
0000
1001
0000
0000
0101
0000
0010
1000
,
0000
0000
0110
0000
0100
1000
0000
0100
,
0000
0010
0000
0001
0100
0001
0101
0000
,
0010
1000
0010
0000
0100
0001
0100
0010
,
0000
1000
1001
0000
0000
0010
0100
0010
,
0001
0000
0001
0000
0100
0000
0010
1010
,
0000
0100
0101
1001
,
0010
0001
0100
0010
1000
0100
0010
0011
,
0000
1001
0000
0000
1100
0000
0100
0010
,
0000
0000
0011
0000
0001
0010
0000
0100
,
0000
1000
0000
0010
0100
0010
0100
0001
,
0010
0000
0011
0000
0100
0000
1100
1000
,
0001
0101
1000
1010
,
0001
0010
0100
1000
0010
0100
0001
0010
,
0000
0100
0010
0000
0001
1000
1001
0000
,
0100
1000
0010
0100
0001
0010
0100
1100
,
0000
0011
0000
0000
1001
0000
0100
0010
;
