#TITLE:1989;
#SUBTITLE:;
#ARTIST:Mindless Self Indulgence;
#TITLETRANSLIT:;
#SUBTITLETRANSLIT:;
#ARTISTTRANSLIT:;
#CREDIT:;
#BANNER:1989.PNG;
#BACKGROUND:1989-bg.PNG;
#LYRICSPATH:;
#CDTITLE:!danceguyTitle.png;
#MUSIC:1989.mp3;
#OFFSET:-0.164;
#SAMPLESTART:99.980;
#SAMPLELENGTH:12.000;
#SELECTABLE:YES;
#BPMS:0.000=184.000,52.000=92.000,54.000=184.000,154.000=92.000,156.000=184.000;
#STOPS:;
#BGCHANGES:;
// cache tags:
#FIRSTBEAT:8.000;
#LASTBEAT:334.000;
#SONGFILENAME:Songs/Community Keyboard Megapack - Volume 3/(Danceguy117) 1989/1989.sm;
#HASMUSIC:1;
#HASBANNER:1;
#MUSICLENGTH:115.879;
// end cache tags

//---------------dance-single - heavy----------------
#NOTES:
     dance-single:
     heavy:
     Hard:
     11:
     0.917,1.000,1.000,0.138,0.233,536.000,192.000,16.000,0.000,0.000:
0000
0000
0000
0000
,
0000
0000
0000
0000
,
0100
0000
0011
0100
0000
0010
1001
0100
,
0100
0000
1010
0001
0000
0010
0010
0010
,
0110
0000
0000
0000
0000
0001
0001
0001
,
1100
0000
0000
0000
0000
0100
0011
0100
,
0100
0000
1010
0001
0000
0100
0011
1000
,
1000
0000
0101
0010
0000
0001
0001
0001
,
0011
0000
0000
0000
0000
1000
1000
1000
,
1100
0000
0000
0000
0000
0100
1010
0100
,
0001
0010
0100
1000
0010
0100
0001
0010
0100
1000
0001
0100
0010
1000
0100
0010
,
0001
1000
0010
0100
0001
0010
0100
1000
0100
0010
0001
1000
0010
0100
0001
0010
,
1100
0000
0000
0000
0110
0000
0010
0010
,
0000
0000
0000
0000
2002
3003
0011
0000
,
0100
0000
1010
0000
0001
0100
1001
0010
,
1000
0000
0101
0010
1000
0001
1100
0010
,
0100
0001
0110
1000
0010
0100
1010
0001
,
1100
0011
1100
0011
0100
0000
0011
0000
,
0001
0000
1010
0000
0010
1000
0101
0010
,
0001
0000
0110
1000
0001
0010
0101
1000
,
0001
0100
1001
0010
1000
0001
1100
0010
,
0001
0010
0100
1000
0010
0100
0001
1000
0100
0000
0011
0000
0100
0000
0000
0000
,
0011
0000
0001
1010
0001
1010
0001
0000
,
0110
0110
0110
0110
1100
0001
1000
0101
,
1000
0001
1100
0001
0110
0001
1000
0110
,
1000
0001
0110
0001
1000
0101
1000
0000
,
0101
0000
0010
1001
0010
1001
0010
0000
,
1001
1001
1001
1001
0100
0000
1010
0100
,
0000
1000
0110
1000
1000
0000
1010
0001
,
0000
0010
0010
0010
0110
0000
0000
0000
,
0000
0001
0001
0001
0101
0000
0000
0000
,
0000
0100
1001
0100
0100
0000
1010
0100
,
0000
0001
0110
0001
0001
0000
1100
0010
,
0000
0010
0010
0010
1010
0000
0000
0000
,
0000
0001
0001
0001
0101
0000
0000
0000
,
0000
0000
1000
0000
0101
0000
1000
0000
0001
0010
0100
1000
0010
0100
0001
0010
,
0100
1000
0001
0100
0010
1000
0100
0010
0100
1000
0010
0100
0001
0010
0100
1000
,
0001
0100
0010
1000
0100
0010
0001
0100
1001
0000
0000
0000
0000
0000
0000
0000
,
0110
0000
0010
0010
0000
0000
0000
0000
,
2002
3003
1010
0000
0100
0000
0011
0000
,
0001
0100
1010
0001
0010
0000
1100
0010
,
0001
1000
0110
0001
0100
0010
0101
1000
,
0100
0010
1001
0010
0101
1010
0101
1010
,
0100
0011
0001
1010
,
0010
1000
0110
0001
0100
0000
1100
0010
,
0001
1000
0011
0100
0001
0010
1001
0100
,
0010
0000
0001
0000
1010
0000
0100
0000
0010
1000
0100
0010
0001
0100
0010
1000
,
0100
0011
0100
0000
0011
0000
0100
1010
,
0100
1010
0100
0000
1010
1010
1010
1010
,
1001
0100
0010
1001
0010
0100
1001
1000
,
1100
0010
0001
1100
0001
1000
1100
0100
,
1000
0011
0100
0000
0011
0000
0001
1100
,
0001
1100
0001
0000
0110
0110
0110
0110
,
1100
0000
0010
1100
0010
0010
1100
0010
,
0101
0000
0010
0101
0010
0010
0101
0010
,
1001
0000
0010
1001
0010
0010
1001
0010
,
0220
0000
0000
0000
0000
0000
0000
0330
,
0101
0000
0000
0101
0000
0000
1001
0000
,
0000
1001
0000
0000
1010
0000
0220
0000
,
0000
0000
0000
0000
0000
0330
1001
1000
,
0011
0100
0000
0010
1001
0000
0001
0000
0110
0001
0000
0010
1100
0000
0000
0000
,
0010
1100
0010
0010
1100
0010
0101
0000
,
0010
0101
0010
0010
0101
0010
1001
0000
,
0010
1001
0010
0010
1001
0010
0220
0000
,
0000
0000
0000
0000
0000
0330
0101
0000
,
0000
0101
0000
0000
1001
0000
0000
1001
,
0000
1010
0220
0000
,
0000
0000
0000
0330
0101
0101
0110
0110
,
1010
1010
1100
1100
1001
0000
0000
0000
,
0000
0000
0000
0000
2000
3200
0320
0032
0103
0000
0000
0000
1010
0000
0000
0000
,
0100
0000
0011
0000
0001
1000
0110
1000
,
0001
0000
0011
0010
0100
1000
1010
0100
,
0001
1000
0110
1000
0001
0010
1100
0010
,
0001
0100
0010
1000
0100
0010
0001
0100
0010
0000
0000
0000
1100
0000
0000
0000
,
0010
0000
0101
0000
0001
1000
0110
1000
,
0001
0000
0011
0010
0100
1000
1010
0010
,
0100
0001
0110
0001
0010
0100
1010
0100
,
1000
0100
0010
0001
0010
0100
1000
0001
0100
0000
1001
0000
0100
0000
0000
0000
,
1001
0000
0001
1100
0001
1100
0001
0000
,
1100
1100
1100
1100
1001
0100
0010
1001
,
0010
0100
1001
0100
1010
0001
1000
0011
,
1000
0001
1010
0001
0100
0011
0100
0000
,
0011
0000
0100
1010
0100
1010
0100
0000
,
1010
1010
1010
1010
1001
0000
0000
0000
;

//---------------dance-single - challenge----------------
#NOTES:
     dance-single:
     challenge:
     Challenge:
     12:
     1.000,1.000,1.000,0.104,0.276,551.000,256.000,12.000,0.000,0.000:
0000
0000
0000
0000
,
0000
0000
0000
0000
,
0100
0000
0011
0100
0000
0010
1001
0100
,
0100
0000
1010
0001
0000
0010
0010
0010
,
0110
0000
0000
0000
0000
0001
0001
0001
,
1100
0000
0000
0000
0000
0100
0011
0100
,
0100
0000
1010
0001
0000
0100
0011
1000
,
1000
0000
0101
0010
0000
0001
0001
0001
,
0011
0000
0000
0000
0000
1000
1000
1000
,
1100
0000
0000
0000
0000
0100
1010
0100
,
1001
0010
0100
1000
0011
0100
0001
0010
0101
1000
0001
0100
0011
1000
0100
0010
,
0101
1000
0010
0100
1001
0010
0100
1000
0101
0010
0001
1000
0011
0100
0001
0010
,
1100
0000
0000
0000
0110
0000
0010
0010
,
0000
0000
0000
0000
2002
3003
0011
0000
,
0101
0000
1010
0000
0101
0100
1001
0010
,
1100
0000
0101
0010
1001
0001
1100
0010
,
0101
0001
0110
1000
1100
0100
1010
0001
,
1100
0011
1100
0011
0101
0000
0011
0000
,
1001
0000
1010
0000
0011
1000
0101
0010
,
1001
0000
0110
1000
0011
0010
0101
1000
,
1001
0100
1001
0010
1010
0001
1100
0010
,
1001
0010
0100
1000
0011
0100
0001
1000
0100
0000
0011
0000
0100
0000
0000
0000
,
0011
0000
0001
1010
0001
1010
0001
0000
,
0110
0110
0110
0110
1100
0001
1000
0101
,
1000
0001
1100
0001
0110
0001
1000
0110
,
1000
0001
0110
0001
1000
0101
1000
0000
,
0101
0000
0010
1001
0010
1001
0010
0000
,
1001
1001
1001
1001
0100
0000
1010
0100
,
0000
1000
0110
1000
1000
0000
1010
0001
,
0000
0010
0010
0010
0110
0000
0000
0000
,
0000
0001
0001
0001
0101
0000
0000
0000
,
0000
0100
1001
0100
0100
0000
1010
0100
,
0000
0001
0110
0001
0001
0000
1100
0010
,
0000
0010
0010
0010
1010
0000
0000
0000
,
0000
0001
0001
0001
0101
0000
0000
0000
,
0000
0000
0001
0000
1100
0000
0001
0000
1100
0001
0010
0100
1001
0010
0100
0001
,
1010
0100
0010
0001
1100
0010
1000
0100
0011
0100
1000
0010
1100
0001
1000
0100
,
1010
0001
0100
0010
1001
0100
0010
0001
1100
0000
0000
0000
0000
0000
0000
0000
,
0110
0000
0010
0010
0000
0000
0000
0000
,
2002
3003
1010
0000
0101
0000
0011
0000
,
1001
0100
1010
0001
0011
0000
1100
0010
,
0101
1000
0110
0001
1100
0010
0101
1000
,
0110
0010
1001
0010
0101
1010
0101
1010
,
1100
0011
0101
1010
,
0011
1000
0110
0001
0101
0000
1100
0010
,
1001
1000
0011
0100
0101
0010
1001
0100
,
0110
0000
0001
0000
1010
0000
0100
0000
0011
1000
0100
0010
1001
0100
0010
1000
,
0100
0011
0100
0000
0011
0000
0100
1010
,
0100
1010
0100
0000
1010
1010
1010
1010
,
1001
0100
0010
1001
0010
0100
1001
1000
,
1100
0010
0001
1100
0001
1000
1100
0100
,
1000
0011
0100
0000
0011
0000
0001
1100
,
0001
1100
0001
0000
0110
0110
0110
0110
,
1100
0000
0010
1100
0010
0010
1100
0010
,
0101
0000
0010
0101
0010
0010
0101
0010
,
1001
0000
0010
1001
0010
0010
1001
0010
,
0220
0000
0000
0000
0000
0000
0000
0330
,
0101
0000
0000
0101
0000
0000
1001
0000
,
0000
1001
0000
0000
1010
0000
0220
0000
,
0000
0000
0000
0000
0000
0330
1001
1000
,
0011
0100
0000
0010
1001
0000
0001
0000
0110
0001
0000
0010
1100
0000
0000
0000
,
0010
1100
0010
0010
1100
0010
0101
0000
,
0010
0101
0010
0010
0101
0010
1001
0000
,
0010
1001
0010
0010
1001
0010
0220
0000
,
0000
0000
0000
0000
0000
0330
0101
0000
,
0000
0101
0000
0000
1001
0000
0000
1001
,
0000
1010
0220
0000
,
0000
0000
0000
0330
0101
0101
0110
0110
,
1010
0000
1010
0000
1100
0000
1100
0000
1001
0100
1000
0001
0100
0010
1000
0100
,
0010
0000
0001
0000
0100
0000
0010
0000
1000
0010
0100
0001
0010
0100
1000
0001
1100
0000
0000
0000
0000
0000
0000
0000
1010
0000
0000
0000
0000
0000
0000
0000
,
0101
0000
0011
0000
1001
1000
0110
1000
,
0101
0000
0011
0010
0101
1000
1010
0100
,
1001
1000
0110
1000
0011
0010
1100
0010
,
1001
0100
0010
1000
0101
0010
0001
0100
0011
0000
0000
0000
1100
0000
0000
0000
,
1010
0000
0101
0000
1001
1000
0110
1000
,
0101
0000
0011
0010
0110
1000
1010
0010
,
1100
0001
0110
0001
0011
0100
1010
0100
,
1001
0100
0010
0001
1010
0100
1000
0001
0100
0000
1001
0000
0100
0000
0000
0000
,
1001
0000
0001
1100
0001
1100
0001
0000
,
1100
1100
1100
1100
1001
0100
0010
1001
,
0010
0100
1001
0100
1010
0001
1000
0011
,
1000
0001
1010
0001
0100
0011
0100
0000
,
0011
0000
0100
1010
0100
1010
0100
0000
,
1010
1010
1010
1010
1001
0000
0000
0000
;
