#TITLE:%%;
#SUBTITLE:;
#ARTIST:Pory;
#TITLETRANSLIT:;
#SUBTITLETRANSLIT:;
#ARTISTTRANSLIT:;
#CREDIT:;
#BANNER:%%-bn.png;
#BACKGROUND:%%-bg.png;
#LYRICSPATH:;
#CDTITLE:!reachTitle.png;
#MUSIC:[-=_Pory_-_%%_=-].mp3;
#OFFSET:-1.770;
#SAMPLESTART:55.298;
#SAMPLELENGTH:18.000;
#SELECTABLE:YES;
#BPMS:0.000=143.000;
#STOPS:;
#BGCHANGES:;
// cache tags:
#FIRSTBEAT:0.000;
#LASTBEAT:324.000;
#SONGFILENAME:Songs/Keyboard Collaboration II/Reach - %%/%%.sm;
#HASMUSIC:1;
#HASBANNER:1;
#MUSICLENGTH:140.912;
// end cache tags

//---------------dance-single - ----------------
#NOTES:
     dance-single:
     :
     Hard:
     13:
     1.000,1.000,1.000,0.035,1.000,976.000,347.000,5.000,0.000,0.000:  // measure 1
1001
0100
0010
0001
0010
0100
1001
0000
0000
0000
0000
0110
0000
0110
1001
0000
,  // measure 2
0110
0001
0010
1000
0010
0100
0001
0000
0000
0000
0000
1010
0000
1010
0101
0000
,  // measure 3
1010
0001
0100
0010
1000
0100
0010
0000
0000
0000
0000
1001
0000
1001
0110
0000
,  // measure 4
0110
0001
1000
0010
0100
0001
0010
0000
0000
0000
0000
1100
0000
1100
0011
0000
,  // measure 5
0011
1000
0100
0010
0100
1000
0001
0000
0000
0000
0000
0011
0000
0011
1100
0000
,  // measure 6
1100
0001
0010
0100
1000
0100
0010
0000
0000
0000
0000
1001
0000
1001
0110
0000
,  // measure 7
0110
1000
0100
0010
0100
1000
0001
0000
0000
0000
0000
0101
0000
0101
1010
0000
,  // measure 8
1000
0100
0010
0100
1000
0100
1000
0010
0001
1000
0001
0010
0100
1000
0010
0100
,  // measure 9
1001
0000
1000
0010
0100
0001
1000
0100
0010
0001
0010
0100
0000
1000
0100
0000
,  // measure 10
0010
0100
0010
0000
0001
1000
0001
0000
0100
0000
0001
1000
0000
0100
0010
0000
,  // measure 11
1000
0010
1000
0000
0001
0100
0001
0000
1000
0000
0001
0100
0000
1000
0010
0000
,  // measure 12
1000
0000
0010
0000
0100
0000
0001
0000
0010
0000
1000
0000
0010
0000
0100
0000
0001
0000
0000
0000
0001
0000
1000
0000
0001
0010
0100
1000
0100
0000
0010
0000
,  // measure 13
0001
0010
0100
1000
0010
0100
0001
1000
0100
0000
0001
0010
0000
0010
0100
0000
,  // measure 14
1000
0001
0100
0010
1000
0001
0010
0100
0010
0000
1000
0001
0000
0010
0100
0000
,  // measure 15
0010
1000
0010
0100
0001
0100
0001
0010
0000
0000
0000
0010
0000
0010
0100
0000
,  // measure 16
0010
1000
0010
1000
0100
0001
0100
0001
0100
0100
0100
0000
0010
0100
0010
0100
,  // measure 17
1001
0010
0100
1000
0100
0010
0001
0010
0100
1000
0100
0010
0000
0100
0010
0000
,  // measure 18
1000
0001
0010
0100
1000
0010
0100
0010
0001
0010
0100
1000
0000
1000
0100
0000
,  // measure 19
0010
0100
0001
0100
0010
0100
0001
0010
0100
1000
0100
0010
0000
1000
0010
0000
,  // measure 20
0100
0000
0001
0000
0100
0000
0001
0000
0010
0000
1000
0000
0010
0000
1000
0000
0100
0000
0010
0000
0001
0000
0010
0000
0100
1000
0100
0010
0001
0000
0010
0000
,  // measure 21
0100
1000
0010
0100
0001
1000
0010
0100
0010
0000
1000
0001
0000
0100
0010
0000
,  // measure 22
1000
0100
1000
0010
1000
0100
1000
0001
0100
0000
1000
0100
0000
0001
0010
0000
,  // measure 23
1000
0010
0100
0001
1000
0010
0100
0001
1000
0001
1000
0010
0000
0100
0001
0000
,  // measure 24
1000
0000
0100
0000
0010
0000
0001
0000
0010
0000
0100
0000
2000
0000
0000
0000
0000
0000
3100
0000
0020
0000
0030
0000
0001
0010
0100
1000
0100
0010
0001
0010
,  // measure 25
0100
0000
0100
0010
0001
0010
0100
1000
0100
0000
0001
0010
0000
0100
1000
0000
,  // measure 26
0001
1000
0001
0100
0001
1000
0001
0100
0001
0000
0010
0100
0000
1000
0010
0000
,  // measure 27
0100
0001
0100
0010
0100
0001
0100
0001
0100
0000
1000
0010
0000
0100
0001
0000
,  // measure 28
1000
0000
0001
0000
1000
0000
0100
0000
1000
0000
0001
0000
1000
0000
0100
0000
1000
0000
0000
0000
1000
0000
0010
0000
0001
0010
0100
1000
0001
0000
0010
0000
,  // measure 29
0001
1000
0010
0100
0001
1000
0100
0010
0001
0000
0010
0100
0000
0100
0010
0000
,  // measure 30
1000
0010
1000
0100
1000
0010
1000
0100
1000
0000
0100
0010
0000
0010
0100
0000
,  // measure 31
0010
1000
0010
0100
0010
1000
0010
0100
0010
0000
0100
0001
0000
0001
0100
0000
,  // measure 32
0011
1100
0011
0100
1010
0101
1010
0100
0001
0010
0001
0010
0001
0100
0001
0100
,  // measure 33
1001
0000
0110
1000
0001
0100
1010
0000
0101
0000
1010
0000
0000
0101
1010
0000
,  // measure 34
1001
0000
0011
1100
0011
0100
0010
0010
1000
0001
0100
0010
1000
0001
0100
0010
,  // measure 35
1001
0000
0110
0000
1001
0000
1100
0000
1100
0000
0101
1010
0000
0101
1010
0000
,  // measure 36
0101
0000
1010
0000
0101
0000
1001
0110
0000
1001
0110
0000
0110
0000
0000
0000
,  // measure 37
1010
0000
0110
0000
0101
0000
1010
0100
0011
0000
1100
0011
0000
1100
0011
0000
,  // measure 38
1001
0010
1100
0000
1001
0000
0110
0101
0000
0110
0101
0000
1001
0000
0100
0010
,  // measure 39
1001
0010
1100
0000
0101
0000
1010
0000
0110
0000
0110
1001
0000
0110
1001
0000
,  // measure 40
1100
0000
0011
0000
1100
1100
1100
1100
0110
0011
0011
0011
0100
1000
0100
0010
,  // measure 41
1001
0100
1010
0000
0110
0000
0101
0000
1010
0000
1010
0110
0000
1010
0110
0000
,  // measure 42
1001
0010
1100
0000
1001
0000
0011
1100
0011
0000
0011
0100
0010
0100
1000
0010
,  // measure 43
1001
0010
0101
0000
1010
0000
0110
0000
0101
0000
0011
1010
0000
0011
1010
0000
,  // measure 44
1100
0010
1001
0000
1010
0000
0101
0110
0000
0011
0101
0000
1001
0000
0010
0100
,  // measure 45
1001
0100
0011
0000
1010
0000
0101
0010
1100
0000
0110
0011
0000
0110
0011
0000
,  // measure 46
1001
0010
1001
0000
1100
0000
0101
0110
0000
0110
1100
0000
1001
0010
0100
0010
,  // measure 47
1001
0110
1001
0000
0110
0000
0110
1100
0110
0000
0101
0011
0000
0101
0110
0000
,  // measure 48
1001
0110
0000
0110
1001
0000
0110
0110
1001
0100
0010
1000
0010
0100
0010
0100
,  // measure 49
1001
0010
0100
0001
0010
0100
0001
0010
,  // measure 50
0100
1000
0100
0010
0001
0010
0100
1000
0100
0010
0001
0010
0100
1000
0100
0010
,  // measure 51
0001
0010
0100
0001
0010
0100
0001
0010
,  // measure 52
0100
1000
0100
0010
0002
0000
0000
0000
0013
0100
1000
0100
0010
0001
0010
0100
,  // measure 53
1000
0100
0010
1000
0100
0010
1000
0100
,  // measure 54
0010
1000
0100
0010
1000
0100
0010
1000
,  // measure 55
0100
0000
0000
0100
0000
0000
0000
0000
0000
0100
0000
0000
0100
0000
0000
0000
0000
0000
1000
0000
0100
0000
0010
0000
0001
0000
0000
0001
0000
0000
0100
0000
0000
0000
0000
0000
0010
0000
0000
0000
0000
0000
0100
0000
0000
0010
0000
0000
,  // measure 56
0001
0000
0000
0000
0000
0000
0010
0000
0000
0000
0000
0000
0100
0000
0000
0000
0000
0000
0001
0000
0000
0000
0000
0000
1010
0000
0000
0000
1010
0000
0000
0000
1010
0000
0000
0000
1010
0000
0000
0100
0000
0000
0010
0000
0000
0001
0000
0000
,  // measure 57
1010
0100
0011
0100
1010
0000
0101
0010
0101
0000
1100
0110
0000
0110
0011
0000
,  // measure 58
1100
0010
0101
0000
1000
0100
0011
0100
1010
0000
0101
1010
0000
0011
1100
0010
,  // measure 59
0101
1000
0010
0100
0010
0000
1100
0010
0100
0001
1010
0000
0101
0000
0110
0000
,  // measure 60
1001
1001
0100
0010
1100
1100
0010
0100
1000
0010
0100
0001
1000
0010
0100
0010
,  // measure 61
1001
0000
1100
0000
0011
0000
1100
0010
0101
0000
0101
0011
0000
0101
0011
0000
,  // measure 62
1001
0100
0010
1000
0101
0000
1100
0110
0000
0110
0011
0000
1001
0000
0110
0110
,  // measure 63
1001
0000
0100
0001
0000
0001
0000
0001
0010
0100
1000
0000
0100
0000
0010
0000
,  // measure 64
1000
0000
0100
0000
0010
0000
1000
0010
1100
0000
0010
1100
0000
0010
1001
0100
,  // measure 65
1001
0010
1100
0010
0101
0000
0110
0000
0101
0000
0110
0101
0000
0110
1010
0000
,  // measure 66
1010
0001
0100
0010
1100
0001
0100
0010
0101
1000
0010
0100
1001
0100
0010
0100
,  // measure 67
1001
0000
0110
0000
0101
0010
1100
0000
1100
0000
0110
0011
0000
0011
0110
0000
,  // measure 68
1100
0001
1100
0000
1010
0000
0110
0000
0011
0000
0000
0000
0101
0000
1010
0000
,  // measure 69
0110
0001
1100
0000
0101
0000
0110
0000
1010
0000
0110
1010
0000
0110
0011
0000
,  // measure 70
0101
0010
0101
0000
1010
0000
0011
1100
0010
0100
0001
1100
0011
0100
0010
0100
,  // measure 71
1001
0000
0110
0000
1001
0000
1100
0000
0011
0000
1100
0011
0000
1100
0011
0000
,  // measure 72
0101
0000
0101
0000
0011
0000
0011
0000
0000
0000
0101
0000
1010
0000
0000
0000
0010
0000
0001
0000
0010
0100
1000
0100
0010
0000
0000
0000
0010
0000
0100
0000
,  // measure 73
1001
0100
0011
0000
0101
0000
1010
0100
0011
1000
0110
0011
0000
0110
1100
0000
,  // measure 74
0011
0000
0000
0000
1010
0000
0000
0000
0101
0000
0010
0000
1000
0100
0010
0001
0010
0000
0100
0000
1000
0000
0010
0000
0100
0000
0001
0000
1000
0000
0010
0000
,  // measure 75
1001
0100
1010
0000
0101
0000
0110
0001
1100
0000
0110
1001
0000
0110
1001
0000
,  // measure 76
1100
0010
1100
0000
0101
0010
1000
0010
0100
1001
0000
1001
0110
0000
0110
1001
,  // measure 77
0110
1000
0011
0100
1010
0000
0110
0011
0110
0000
0101
0011
0000
0101
0011
0000
,  // measure 78
0101
0010
1100
0000
1001
0000
1100
0110
0011
0000
0110
0101
0000
0110
1100
0000
,  // measure 79
1010
0100
0011
0100
1010
0000
0101
0010
0101
0000
1100
0110
0000
0110
0011
0000
,  // measure 80
1100
0000
0010
0000
0101
0000
0000
0000
1010
0000
0000
0000
1001
0000
0110
0000
1001
0000
0100
0000
0010
0000
0001
0000
0010
0100
1000
0100
0010
0001
0010
0100
,  // measure 81
2002
0000
0000
0000
,  // measure 82
3003
0000
0000
0000
;
