#TITLE:A Quick Death;
#SUBTITLE:;
#ARTIST:Kkrusty;
#TITLETRANSLIT:;
#SUBTITLETRANSLIT:;
#ARTISTTRANSLIT:;
#CREDIT:;
#BANNER:../fallback-bn.png;
#BACKGROUND:../fallback-bg.png;
#LYRICSPATH:;
#CDTITLE:;
#MUSIC:11.A Quick Death.ogg;
#OFFSET:-0.023;
#SAMPLESTART:32.004;
#SAMPLELENGTH:12.000;
#SELECTABLE:YES;
#BPMS:0.000=250.000;
#STOPS:;
#BGCHANGES:;
// cache tags:
#FIRSTBEAT:42.000;
#LASTBEAT:476.000;
#SONGFILENAME:Songs/SSSC PACK/[Zero] - A Quick Death/aquickdeath.sm;
#HASMUSIC:1;
#HASBANNER:1;
#MUSICLENGTH:119.714;
// end cache tags

//---------------dance-single - ----------------
#NOTES:
     dance-single:
     :
     Challenge:
     15:
     1.000,1.000,0.443,0.050,1.000,841.000,53.000,6.000,9.000,0.000:

0000
0000
0000
0000
,
0000
0000
0000
0000
,
0000
0000
0000
0000
,
0000
0000
0000
0000
,
0000
0000
0000
0000
,
0000
0000
0000
0000
,
0000
0000
0000
0000
,
0000
0000
0000
0000
,
0000
0000
0000
0000
,
0000
0000
0000
0000
,
0000
0000
0001
0000
,
0100
0010
1000
0010
,
0100
0000
0000
0000
,
0000
0000
0000
0000
,
0000
0000
0000
0000
,
0001
0010
0100
0000
,
1000
0000
0000
0000
,
0000
0000
0000
0000
,
0000
0000
0001
0000
,
0100
0010
1000
0010
,
0100
0000
0000
0000
,
0000
0000
0000
0000
,
0000
0000
0000
0000
,
0001
0010
0100
0000
,
0000
0000
0000
0000
,
1001
0000
0000
0000
0001
0010
0001
0010
0001
0000
0100
0000
0010
1000
0010
0000
,
0100
0000
0010
0000
0100
0000
0001
0000
0101
0000
0100
0000
0100
0010
1000
0001
,
0010
0000
0100
1000
0100
0000
1000
0000
1001
0000
0001
0100
0001
0000
0100
0000
,
0100
1001
0001
1000
1001
0001
1000
0100
,
0100
0000
0000
0000
0010
0100
0010
0000
0011
0000
0001
0000
0100
0010
0100
0000
,
0100
0000
0010
0000
1000
0000
0001
0000
0101
0000
0100
0000
0001
0010
0001
0010
,
0001
0000
1000
0100
1000
0000
0100
0000
1100
0000
1000
0001
1000
0000
0010
0000
,
0010
0110
0100
0010
0110
0100
0001
0100
,
0010
0000
0000
0000
1000
0010
1000
0010
1000
0000
0001
0000
0100
0010
0100
0000
,
0001
0000
1000
0000
0100
0000
1000
0000
1100
0000
0100
0000
0010
0001
0010
0000
,
0100
0000
1000
0100
0010
0000
0001
0000
0011
0000
0001
0100
0010
0000
0100
0000
,
0100
0000
0110
0000
0100
0000
0010
0000
4004
0000
0000
3003
0000
0000
0000
0000
,
1000
0100
1000
0100
1000
0000
0010
0000
0100
0010
0100
0010
0100
0000
0001
0000
,
0010
0001
0010
0001
0010
0000
0100
0000
1000
0001
1000
0001
1000
0000
0000
0000
,
0000
0000
0000
0000
,
0010
0100
0010
0000
0100
0010
0100
0000
0010
0000
0000
0000
1000
0000
0010
0100
,
0001
0000
0000
0000
1000
0100
1000
0001
0100
0010
1000
0000
0000
0000
0000
0000
,
0001
0010
0001
0100
0010
0100
0010
0100
0001
0000
0000
0000
1000
0100
1000
0001
,
0010
0000
0100
0000
1000
0001
0100
0000
0001
0100
0001
0100
0001
0100
0001
0100
,
0001
0000
0101
0000
0100
0001
1000
0001
1000
0000
1000
0000
0001
0010
0100
1000
,
0001
0000
0001
0000
0010
0100
1000
0001
0010
0000
0000
0000
0100
1000
0100
1000
,
0100
0000
0000
0000
1000
0001
0010
0000
0100
0000
1000
0000
0010
0100
0001
0000
,
0400
0000
0000
0300
0000
0000
0000
0000
0010
0000
0000
0000
0100
0000
0000
0000
0010
0000
0000
0000
0000
0000
0000
0000
0010
0000
0000
0000
0000
0000
0000
0000
1000
0000
0000
0000
0000
0000
0000
0000
0001
0000
0000
0000
0100
0000
0000
0000
0010
0000
0000
0000
1000
0000
0000
0000
0010
0000
0000
0000
0100
0000
0000
0000
,
0001
0010
0100
1000
0100
0010
0100
1000
0001
0000
0010
0000
0001
0000
0100
0000
,
0010
1000
0010
1000
0010
0100
0010
0100
0040
0030
1000
0000
1000
0001
0040
0030
,
0100
0000
1000
0001
1000
0100
1000
0001
0000
0000
0010
0000
0000
0100
0000
0000
,
1000
0000
0010
0100
0010
0000
1000
0000
0001
0010
0100
0010
0001
1000
0100
0000
,
0100
0000
0010
0000
0001
0100
0010
0000
0010
0000
0010
0000
0010
0000
0010
0000
,
1000
0000
0001
0000
1000
0000
0001
0000
1000
0000
0000
0000
1000
0000
0000
0000
1000
0000
0000
0000
0040
0000
0400
0000
0000
0300
0030
0000
0000
0000
0000
0000
,
0100
0010
1000
0100
0010
0100
1000
0001
0010
0100
1000
0000
0010
0100
0010
0000
,
1000
0000
0001
0100
0001
1000
0010
0000
0100
0001
0100
0010
1000
0100
0010
0001
,
0000
0100
0000
0000
0000
0010
0000
1000
0000
0000
0010
0000
0000
0100
0000
0000
0001
0000
0000
0000
0010
0000
0000
0000
0100
0000
1000
0000
0100
0000
1000
0000
,
0100
0000
0100
0000
0100
1000
0010
0100
,
0001
1000
0001
1000
0001
1000
0001
1000
0004
0000
0000
0000
0003
0000
0000
0000
,
0000
0000
0000
0000
,
0000
0000
0000
0000
,
0000
0000
0000
0000
,
1000
0000
1000
0010
,
0101
0000
0010
0000
0101
0000
0040
0030
,
0101
0000
0100
0010
0100
0000
0001
0000
1000
0000
0100
0000
0100
0000
0010
0000
,
0001
0100
0010
0010
1010
1000
0001
0100
,
0010
1000
0010
0100
0100
0001
0001
1010
,
1000
0010
0010
0100
0100
0001
0010
0001
,
0001
0010
0110
0100
1000
1100
1000
0010
,
0010
0100
0100
0001
1001
1001
0001
1000
,
1100
0100
0010
0001
0101
0100
0100
0001
,
1001
1000
0100
0100
0110
0010
0010
0001
,
0011
0000
0001
1000
0001
0000
0100
0000
0010
0000
0100
0000
0100
0000
0001
0000
,
1001
0000
0000
0000
0000
0000
0000
0000
1001
0000
1000
0000
0010
0100
0010
1000
,
0001
0000
0001
0000
0001
0000
0010
0000
0110
0000
0100
0000
0100
1000
0001
0000
,
1000
0000
0000
0100
0000
0000
0010
0000
0000
0000
0000
0000
0001
0000
0000
0000
0000
0000
0100
0000
0000
0010
0000
0000
4000
0000
0400
0000
0000
0000
3000
0300
0000
0000
0000
0000
0000
0000
0000
0000
0000
0000
1000
0000
0000
0000
0000
0000
,
1000
0010
0010
0100
0010
1000
1000
0001
,
0001
0010
0001
1000
1001
0001
0100
0100
,
0010
0010
1000
1000
0001
0001
0010
0010
,
0100
0100
1000
1000
0010
0110
0100
0100
,
0001
0000
0001
1000
0001
0000
0100
0000
0010
1000
0010
0100
0001
0100
0010
1000
,
0001
0010
0100
1000
0001
0000
0001
0100
0001
1000
0010
0100
0010
0000
0010
0000
,
1000
0100
0010
0100
1000
0001
0100
0010
2000
0000
3002
0000
1003
0000
0100
0000
,
0010
0001
0010
0100
0010
0001
1000
0000
0100
0000
0010
0000
0011
0000
0001
0000
,
1000
0000
0010
0000
0110
0000
0100
0000
0101
0000
0001
1000
0010
0100
0010
0000
,
0100
0000
0001
1000
0001
0000
0010
0100
1000
0000
0010
0100
0010
1000
0001
0010
,
0001
0000
0100
0010
0100
0001
1000
0000
1100
0000
0100
0000
0110
0000
0010
0000
,
0010
0001
0010
0000
0001
0000
1001
0000
1010
0000
1001
0000
1000
0010
1000
0000
,
0010
0000
0100
0001
0100
0000
0010
0000
0010
0000
1000
0000
0001
0000
0010
0000
,
0100
1000
0010
0100
0001
0010
0100
1000
0100
0000
0010
0001
0010
0000
0001
0000
,
1000
0000
0000
0000
0010
0000
0000
0000
0100
0000
0000
0000
0010
0000
0000
0000
1000
0000
0000
0000
0001
0000
0000
0000
0100
0000
0000
0000
0010
0000
0000
0000
0100
0000
0000
0000
0001
0000
0000
0000
0100
0000
0000
0000
0000
0000
0000
0000
0040
0000
0400
0000
0030
0300
0000
0000
0000
0000
0000
0000
0000
0000
0000
0000
,
0001
0000
1000
0000
0040
0030
0000
0000
0400
0300
0000
0000
0001
0000
0000
0000
1001
0000
0000
0000
1000
0000
0000
0000
0010
0000
0100
0000
0001
0000
0010
0000
,
0100
0000
1000
0000
0040
0400
0330
0000
0100
0000
0000
0000
0001
0000
0100
0000
0010
0000
1000
0000
0010
0000
0000
0000
0400
0004
0003
0000
0301
0000
0000
0000
,
0010
1000
0010
0000
0100
0001
0100
0000
0110
0000
1010
0000
0110
0000
0100
0001
,
0100
0000
0010
0000
1000
0100
0010
0001
1000
0100
0010
0100
1000
0010
0100
0001
,
0010
0000
0100
1000
0100
1000
0010
0100
0010
0000
0010
0000
1000
0001
1000
0000
,
0004
0000
0000
0000
0000
0000
0400
0000
0000
0000
0000
0000
0000
0000
0000
0000
0000
0000
0000
0000
0000
0000
0000
0000
0000
0000
0000
0003
0000
0000
0000
0000
0000
0000
0000
0000
0000
0000
0000
0000
0000
0000
0000
0300
0000
0000
0000
0000
0000
0000
0000
0000
0000
0000
0000
0000
0000
0000
0000
0000
0000
0000
0000
0000
0000
0000
0000
0000
0000
0000
0000
0000
0000
0000
0000
0000
0000
0000
0000
0000
0000
0000
0000
0000
0000
0000
0000
0000
0000
0000
0000
0000
0000
0000
0000
0000
0001
0000
0000
0000
0000
0000
0000
0000
0000
0000
0000
0000
0010
0000
0000
0000
0000
0000
0000
0000
0000
0000
0000
0000
0100
0000
0000
0000
0000
0000
0000
0000
0000
0000
0000
0000
0010
0000
0000
0000
0000
0000
0000
0000
0000
0000
0000
0000
0001
0000
0000
0000
0000
0000
0000
0000
0000
0000
0000
0000
0000
0000
0000
0000
0000
0000
0000
0000
0000
0000
0000
0000
0001
0000
0000
0000
0000
0000
0000
0000
0000
0000
0000
0000
0000
0000
0000
0000
0000
0000
0000
0000
0000
0000
0000
0000
,
1000
0000
0010
0000
0100
0000
0001
0000
0100
0000
0010
0000
1000
0000
0000
0000
0004
4000
0000
0000
0000
3003
0000
0000
0000
0000
0000
0000
1000
0000
0100
0000
,
1000
0000
0010
0100
0001
0100
0010
1000
0001
0000
0001
0000
0010
0100
1000
0100
,
0010
0000
0000
0000
0000
0000
0100
0000
0000
1000
0000
0000
0000
0000
0000
1000
0000
0000
0010
0000
0000
0100
0000
0000
0002
0000
0003
0000
0020
0000
0030
0000
0200
0000
0300
0000
2000
0000
3000
0000
0000
0000
0000
0000
0000
0000
0000
0000
,
0001
1000
0001
1000
0001
0100
0001
0100
0010
1000
0010
1000
0001
0000
0010
0100
,
0010
0000
0001
0000
1000
0000
0010
0100
0001
0000
0000
0000
0100
0000
0010
0000
0100
0000
0000
0000
0040
0000
0030
0000
4000
0000
3000
0000
0004
0000
0003
0000
,
0040
0000
0030
0000
0100
0000
0100
1000
0040
0030
0100
0000
0004
0003
0400
0300
,
0040
0030
0000
0000
1000
0010
0100
0001
0100
0010
1000
0001
0010
0100
1000
0100
,
0010
0000
0001
1000
0001
0100
0010
0100
0001
1000
0001
1000
0001
0100
0010
0000
,
0010
0000
0000
0000
0100
0000
0000
0000
0010
0000
0000
0000
1000
0000
0000
0000
0001
0000
0010
0000
0100
0000
0000
0000
4000
0004
0000
0000
3003
0000
0000
0000
,
0001
0100
0010
0100
0001
1000
0100
1000
0010
0000
0010
0000
0100
0001
0100
0010
,
1000
0000
0000
1100
0000
0000
1000
0010
0100
0001
0100
0010
1000
0001
0010
0001
,
0100
0000
0010
0000
0010
0000
1000
0001
0100
0000
0010
1000
0010
0000
0100
0000
,
0100
0000
0001
1000
0100
0000
0010
0001
1000
0000
0010
0000
0100
0001
1000
0000
,
1000
0000
0000
0000
0001
0000
0010
0000
0100
0000
1000
0000
0100
0000
0000
0000
0100
0000
0000
0000
0040
0004
0033
0000
0001
0000
0000
0000
0100
0000
0010
0000
,
1000
0000
0000
0000
0010
0000
0000
0000
0100
0000
0000
0000
0001
0000
0000
0000
0400
0000
0040
0030
0000
0000
0000
0000
0310
0000
0000
0000
0000
0000
0000
0000
0010
0000
0000
0000
0000
0000
0000
0000
1000
0000
0000
0000
0100
0000
0000
0000
0010
0000
0000
0000
0000
0000
0000
0000
0001
0000
0000
0000
0000
0000
0000
0000
,
0100
0010
0100
0000
0100
0000
0100
0000
0010
1000
0001
0010
0100
0000
0000
0000
,
0000
0000
0000
0000
,
0000
0000
0000
0000
,
MMMM
0000
0000
0000
,
0000
0000
0000
0000
,
MMMM
0000
0000
0000
,
0000
0000
0000
0000
,
M000
0000
0000
0000
;
