#TITLE:Ota Click Again;
#SUBTITLE:;
#ARTIST:SLK-9888.sys;
#TITLETRANSLIT:;
#SUBTITLETRANSLIT:;
#ARTISTTRANSLIT:;
#CREDIT:;
#BANNER:Ota Click Again-bn.png;
#BACKGROUND:Ota Click Again-bg.png;
#LYRICSPATH:;
#CDTITLE:paranoivm2.png;
#MUSIC:Ota Click Again.mp3;
#OFFSET:-0.580;
#SAMPLESTART:43.165;
#SAMPLELENGTH:12.000;
#SELECTABLE:YES;
#BPMS:0.000=139.000,67.250=416.998,69.500=139.000,76.500=416.997,79.250=138.999,86.500=416.997,88.750=138.999;
#STOPS:18.000=0.420
,25.000=0.420
,32.000=0.440
,39.000=0.420
,95.500=0.360
,143.000=0.080
,271.000=0.200
;
#BGCHANGES:;
// cache tags:
#FIRSTBEAT:16.000;
#LASTBEAT:318.250;
#SONGFILENAME:Songs/juju steps/Ota Click Again/Ota Click Again.sm;
#HASMUSIC:1;
#HASBANNER:1;
#MUSICLENGTH:140.277;
// end cache tags

//---------------dance-single - ----------------
#NOTES:
     dance-single:
     :
     Hard:
     9:
     0.745,0.766,1.000,0.221,0.688,552.000,149.000,31.000,0.000,1.000:
0000
0000
0000
0000
,
0000
0000
0000
0000
,
0000
0000
0000
0000
,
0000
0000
0000
0000
,
1001
1010
0110
0101
,
1001
0000
0000
0000
1100
0000
0000
0011
0000
0000
0000
0000
1001
0000
0000
0000
,
0011
1010
0110
1001
,
0101
0000
0000
1010
0000
0000
0000
0000
0101
0000
0000
0000
1001
0000
0000
0000
,
1100
0000
0000
0000
0110
0000
0000
0000
0011
0000
0000
0000
1100
0000
0000
0110
,
0000
0110
1100
0101
,
0110
0000
0000
0000
0000
0000
0000
0000
0000
0000
0000
0000
0000
0000
0000
0000
0011
0000
0000
0000
0000
0000
0000
0000
0000
0000
0000
0000
0000
0000
0000
0000
1001
0000
0000
0000
0000
0000
0000
0000
0000
0000
0000
0000
0000
0000
0000
0000
1000
0000
0000
0000
0000
0010
0000
0000
0000
0000
0000
0010
0000
0000
0000
0000
,
0000
1001
0101
0110
,
1100
0000
0000
0000
1010
0000
0001
0000
1000
0001
0000
0101
0000
0000
0000
0000
,
1001
1010
0110
0011
,
1001
0000
0000
0000
1001
0000
0010
0000
0001
0000
0000
1100
0000
0000
1000
0000
,
1001
0000
0000
0000
0110
0000
0000
0000
0201
0000
0000
1000
0300
0000
0100
0000
,
0001
0000
1000
0000
1200
0000
0000
0000
0310
0000
0000
0100
0000
2200
0000
0000
,
0000
0000
3300
1010
0000
0011
0000
1100
,
0000
1001
0000
0000
0101
0000
0100
0000
0010
0000
2010
0000
0000
0000
3001
0000
,
0000
0000
0000
0000
1000
0000
0000
0000
0000
0000
0100
0000
0000
0000
0000
0000
0010
0000
0000
0000
0000
0000
0001
0000
0000
0000
0000
0000
0000
1000
0000
0000
,
0000
0100
0000
0000
0000
0010
0000
0000
0000
0001
0000
0000
0000
0100
0000
0010
0000
0000
0000
0010
0000
0000
0000
1000
0000
0000
0000
0001
0000
0010
0000
0000
,
0000
0001
0000
0000
0000
0100
0000
0000
0000
0000
0000
0010
0000
0000
0000
1000
0000
0000
0000
0000
0000
0000
0202
0000
0000
0000
0000
0000
0000
0000
0000
0000
,
0000
0000
0303
0000
0000
0000
0000
0100
0000
0000
0000
0010
0000
0000
0000
1000
0000
0000
0000
0001
0000
0000
0000
0010
0000
0000
0000
0001
0000
0100
0000
0000
,
0000
0100
0000
0001
0000
0000
0000
1000
0000
0000
0000
0100
0000
0000
0000
0010
0000
0001
0000
0100
0000
0010
0000
1000
0000
0000
0000
0000
0100
0000
0000
0000
,
1001
0000
0100
0000
0000
0000
0110
0000
0101
0000
0000
1001
0000
0000
1200
0000
,
1300
0000
0000
0000
1010
0000
0100
0000
0000
0101
0000
1001
0000
0000
1000
0000
,
1200
0000
0000
0000
0310
0000
0110
0000
0000
0110
0000
0000
0101
0000
0001
0000
,
1001
0000
0000
0000
1010
0000
0000
0000
0110
0000
0000
0101
0000
0000
1001
0000
,
1000
0000
0010
0000
0210
0000
0000
0000
1000
0000
0000
0010
0300
0000
0000
0100
,
0001
0000
1000
0000
1010
0000
0000
0000
0110
0000
0000
0101
0000
0000
1010
0000
,
1001
0000
0100
0000
1100
0000
0000
0000
0110
0000
0000
1001
0000
0000
0000
0001
,
1000
0000
0000
0010
0000
0000
0110
0000
0100
0000
1001
0000
0000
0000
1100
0000
,
0000
0000
0000
0000
,
0000
0000
0000
0100
,
0000
0000
0000
0000
,
0000
0000
0000
1001
,
1010
0000
1000
0001
0100
0000
0001
1000
0100
0000
1000
0010
0100
0000
0001
0100
,
0010
0000
1000
0010
0100
0000
0010
0001
0020
0000
0000
0100
0000
0000
0030
0000
,
0110
0000
0100
0001
1000
0000
0100
1000
0010
0000
0100
0001
0010
0000
0010
0001
,
0000
0100
0010
0000
1010
0000
1001
0000
0101
0000
0000
0210
0000
0000
0310
0000
,
1001
0000
0000
0000
1010
0000
0000
0010
0100
0000
0100
0001
0000
1000
0100
0000
,
1100
0000
0000
0000
0011
0000
1001
0000
1010
0000
0010
0210
0000
0000
0300
0000
,
1010
0000
0000
0000
0101
0000
0001
1000
0000
0000
0000
0101
0000
0001
1000
0000
,
1200
0000
1000
0000
0000
0000
0310
0000
0110
0000
0000
1001
0000
0000
0100
0000
,
1001
0000
0000
1000
0010
1000
0001
1000
0000
0000
0000
0110
0000
1000
0001
0000
,
0201
0000
0000
0000
1300
0000
0100
0000
0001
0000
0010
0021
0000
0000
0031
0000
,
0000
0000
0100
0000
1001
0000
0001
0000
0021
0000
0000
0100
0000
0000
1030
0000
,
0010
0000
0001
0000
0100
0000
1000
0000
0100
0000
0010
0100
0000
0100
0001
0000
,
1001
0010
1001
0100
1001
0010
1001
0100
,
1010
0000
0010
0000
0110
0000
0001
0000
1001
0000
0000
0011
0000
0000
1001
0000
,
0100
1000
1010
0010
0100
1001
0011
0001
,
1000
0000
0010
0100
0001
0000
1000
0000
0021
0000
0000
0031
0000
0000
0011
0000
,
1001
0000
1000
0010
0100
0000
0001
0100
0010
0000
1000
0010
0001
0000
1000
0100
,
0001
0000
0100
0010
0001
0000
0010
0100
1000
0100
0000
0100
0010
0000
0110
0000
,
0201
0000
1300
0000
1002
0000
0013
1000
,
0001
0000
0011
0000
0001
0000
0000
1100
0000
0000
1010
0000
0000
0110
0000
0000
,
1001
0000
1000
0000
1010
0000
0000
0000
0110
0000
0000
0102
0000
0000
1003
0000
,
1000
0000
0010
0000
0100
0000
0001
0000
0010
0001
0000
0021
0000
0000
1030
0000
,
0000
0000
0010
0000
0001
0000
0100
0000
1200
0000
0000
0010
0000
0000
0310
0000
,
0000
0100
0001
0000
1000
0000
0011
0000
0001
0000
0000
1000
0010
0002
0010
0003
,
0000
0010
1000
0100
0000
0010
0000
0011
0000
0001
0010
0000
0011
0000
1001
0000
,
1020
0000
0000
0000
0130
0000
0000
0101
0000
0000
1001
0000
0000
1200
0000
0000
,
0310
0000
1000
0100
1200
0000
0010
0310
,
0000
0000
0210
0000
0310
0000
0000
0011
0000
0000
0001
0000
1000
0010
0100
0001
,
1000
0000
0010
0001
0100
0010
1000
0000
0010
0001
0100
0010
1000
0000
0100
0010
,
0001
0000
0010
0001
0100
0010
1000
0000
0010
0100
0001
1000
0001
0000
0010
0001
,
0100
0000
0010
1000
0100
0000
0010
0001
0000
0001
0010
0000
0001
0100
0010
0000
,
1000
0000
0010
0000
1000
0001
0010
0001
0100
0010
1000
0010
0100
0000
0010
1000
,
0100
0010
0001
0000
0100
0001
1000
0100
0000
1000
0000
0100
1000
0000
0001
0010
,
0001
0100
0010
1000
0010
0100
0010
0000
1000
0010
0000
0010
0000
0100
0010
0000
,
1000
0000
0010
0000
0001
0010
0100
0001
1000
0001
0000
0010
0001
0000
0100
0001
,
1000
0100
0010
0000
0001
0000
0100
0000
0000
1001
0000
0000
1100
0000
0100
0000
,
0010
0001
0100
0000
0010
1000
0100
0000
0010
0001
0100
0000
0010
0001
0010
0000
,
1000
0010
1000
0000
0100
1000
0000
0010
0000
0200
0000
0000
0300
0000
1000
0000
,
0100
0010
1000
0000
0001
0100
0001
0000
0010
0001
0000
0100
0001
0000
1000
0001
,
1000
0100
0010
0000
0001
0100
0000
0010
0000
0001
0000
0000
0000
0000
1000
0000
,
0100
0010
0001
0000
0100
0010
1000
0000
0100
1000
0000
0001
0010
0000
0001
0100
,
0001
1000
0100
0010
0001
0010
0100
0000
0000
2000
0000
0000
3000
0000
0100
0010
,
0001
0100
0010
0000
1000
0010
0100
0001
0100
0010
0000
0010
1000
0000
0001
0100
,
0010
0000
0000
1000
0000
0000
0010
0000
0001
0000
1000
0000
0100
0000
0010
0000
0100
0000
0002
0000
0000
0000
0000
0000
0000
0000
0000
1013
0000
0000
0000
0000
0000
0000
0000
0000
0000
0000
0000
0000
0000
0000
0000
0000
0000
0000
0000
0000
;
