#TITLE:Clarissa;
#SUBTITLE:;
#ARTIST:Mindless Self Indulgence;
#TITLETRANSLIT:;
#SUBTITLETRANSLIT:;
#ARTISTTRANSLIT:;
#CREDIT:;
#BANNER:clarissa8ll.png;
#BACKGROUND:clarissabg5qy.png;
#LYRICSPATH:;
#CDTITLE:!A2Pcdtitle.png;
#MUSIC:Mindless Self Indulgence - Clarissa.mp3;
#OFFSET:-0.060;
#SAMPLESTART:35.092;
#SAMPLELENGTH:12.000;
#SELECTABLE:YES;
#BPMS:0.000=170.880,12.000=341.760,20.000=170.880,48.000=341.760,56.000=170.880,80.000=85.440,84.000=170.880,112.000=341.760,120.000=170.880,148.000=341.760,156.000=170.880,172.000=85.440,188.000=170.880,304.000=42.720,306.000=47.720,307.500=170.880;
#STOPS:;
#BGCHANGES:;
// cache tags:
#FIRSTBEAT:0.000;
#LASTBEAT:307.250;
#SONGFILENAME:Songs/Essential Sim Collection/(A2P) Clarissa/clarissa.sm;
#HASMUSIC:1;
#HASBANNER:1;
#MUSICLENGTH:115.965;
// end cache tags

//---------------dance-single - ----------------
#NOTES:
     dance-single:
     :
     Challenge:
     11:
     1.000,1.000,1.000,0.086,0.811,688.000,266.000,10.000,0.000,0.000:
1000
0000
0001
0100
0010
0100
0010
0100
0000
1000
0100
0010
0001
0010
0100
1000
,
1001
0000
0110
0000
0100
0001
0100
1000
0000
1000
0100
0001
0100
0010
1000
0100
,
0110
0000
1100
0000
0001
0010
0001
0100
0000
0100
1000
0100
0001
0100
0010
1000
,
1001
1100
1001
0101
,
0011
1010
1001
1100
,
1001
0000
0110
0000
1000
0000
0000
0000
1100
0000
1001
0000
0011
0010
0100
0000
,
1001
0000
1100
0100
0010
0000
0001
0000
1001
0000
0110
0000
1100
0000
0011
0000
,
1100
0000
1100
0000
0001
0000
0000
0000
0010
0000
0100
0000
1001
0100
1000
0000
,
0110
0000
0110
0001
1000
0000
0100
0000
1001
0000
0011
0000
1001
0000
1100
0000
,
1100
0011
0100
1001
1000
0101
1000
0011
,
1001
0000
1100
0000
0010
0000
0001
0000
1001
0000
1100
0000
1001
1000
0001
0000
,
0011
0100
0011
1100
0010
0101
0010
1100
,
1001
1100
1001
0101
,
0011
0110
1100
0110
,
1000
0100
0010
0100
1000
0000
0011
0000
0100
0000
0001
0000
1001
0000
1000
0000
,
0001
0010
0100
0010
0001
0000
1100
0000
1000
0000
0100
0000
0110
0000
0001
0000
,
0001
0010
1000
0010
0001
0000
0110
0000
1000
0000
0100
0000
0011
0000
0100
0000
,
1000
0100
0001
0100
1000
0000
1001
0000
0100
0000
1000
0000
0101
0000
0010
0000
,
1001
0000
0001
0010
0001
0100
0001
0010
0000
0100
0001
0010
0001
0010
0100
1000
,
1001
0000
0011
0000
0100
0001
1000
0100
0000
0100
1000
0100
0010
0001
0010
0100
,
2002
0000
0000
0000
0000
0000
0000
3003
,
1001
0000
1000
0100
0000
0100
0001
0000
1001
0000
0000
0000
1100
0000
0110
0000
,
1001
0000
0010
0100
0000
0100
0001
0000
1001
0000
1000
0000
0110
0000
0100
0000
,
0011
0000
0100
1000
0000
1000
0001
0000
1010
0000
0000
0000
1001
0000
1100
0000
,
0011
0000
0010
0001
0000
0001
1000
0000
1001
0000
1100
0000
1001
0000
0101
0000
,
1001
0000
1000
0100
0000
0010
0001
0000
1000
0000
0100
0000
0010
0000
0001
0000
,
0110
0000
0001
0100
0000
0010
1000
0000
1001
0000
1000
0000
1010
0000
0100
0000
,
1001
0000
0010
0100
0000
1000
0001
0000
1010
0000
0000
0000
1100
0000
0101
0000
,
1001
1100
1001
0101
,
0110
1100
0110
0011
,
1001
1100
1000
0110
0001
1100
0010
1001
,
1100
1001
0010
0100
1001
1100
0011
0110
,
1001
0110
1000
1100
0010
1001
0010
1100
,
1001
1010
0100
0010
1001
1100
0011
0110
,
2002
3003
0200
2300
0000
0000
3000
1000
,
1001
0110
0001
0010
1001
1100
0011
0110
,
1001
1100
0010
0101
0010
1100
1001
1100
,
0110
1001
0011
1100
,
1010
0101
0110
1001
,
0100
0001
1000
0010
0001
0000
1010
0000
0100
0000
0100
0000
1001
0000
0010
0000
,
0010
1000
0001
0010
1000
0000
1100
0000
0010
0000
0001
0000
1010
0000
0100
0000
,
0001
0100
0010
0001
1000
0000
1010
0000
0100
0000
0100
0000
1001
0000
0010
0000
,
1000
0100
0010
1000
0001
0000
0011
0000
0100
0000
1000
0000
1001
0000
0100
0000
,
1100
0000
1000
0001
0000
0010
0001
0000
1000
0100
0000
1000
0001
0000
0100
0010
1001
0000
0100
0010
0000
0100
0001
0000
1001
0000
0010
0000
0110
0000
0100
0000
,
1001
0000
0010
0100
0000
0001
0010
0000
0100
1000
0000
0001
0010
0000
0010
0001
1100
0000
0010
0100
0000
1000
0001
0000
1100
0000
0010
0000
0101
0000
0100
0000
,
1001
0000
0100
0010
0000
0001
0100
0000
1000
0100
0000
0010
0100
0000
0001
1000
0110
0000
0010
0001
0000
0100
1000
0000
1001
0000
0100
0000
1001
0000
0010
0000
,
1001
0000
0100
1000
0000
0001
1000
0000
0100
1000
0000
0001
0010
0000
0100
1000
1001
0000
0100
0010
0000
0001
0100
0000
0010
0100
0000
1000
0100
0000
0100
0001
,
1001
0000
0010
1000
0000
1000
0100
0000
1001
0000
0000
0000
0011
0000
0100
0000
,
1001
0000
0010
0100
0000
0010
0100
0000
1100
0000
0010
0000
0011
0000
0010
0000
,
1001
0000
0010
0001
0000
0001
0100
0000
0011
0000
0000
0000
1100
0000
0100
0000
,
0101
0000
0010
0100
0000
1000
0100
0000
1001
0000
0100
0000
1010
0000
0001
0000
,
1001
0000
1000
0100
0000
1000
0100
0000
1000
0000
0100
0000
1001
0000
0100
0000
,
1001
2200
0000
0000
0000
0000
0000
3300
,
1001
0000
1100
0000
0000
0001
0100
0000
0110
0000
1001
0000
0100
0010
0001
0000
,
1001
0000
0011
0000
0000
1000
0001
0000
1100
0000
0101
0000
0010
0100
0001
0000
,
0110
0000
0011
0000
0000
1000
0001
0000
0010
0000
0100
0000
0001
1000
0100
0000
,
0011
0000
1100
0000
0000
1000
0100
0000
0110
0000
1001
0000
0001
0010
1000
0000
,
1001
0000
0110
0000
0000
0100
0001
0000
1001
0000
1100
0000
0001
0100
1000
0000
,
0101
0000
1010
0000
0000
0100
0001
0000
0110
0000
0011
0000
0100
1000
0001
0000
,
1001
0000
1000
0100
0000
1000
0100
0000
1100
0000
1001
0000
0100
0010
0100
0000
,
1001
0000
0100
1000
0000
1000
0100
0000
1001
0000
0110
0000
1001
0000
0110
0000
,
1001
0000
0100
0001
0000
0010
0100
0000
1001
0000
0000
0000
1100
0000
0101
0000
,
1001
0000
0010
0001
0000
1000
0001
0000
0101
0000
0010
0000
1001
0000
0100
0000
,
1001
0000
1000
0001
0000
0001
0010
0000
1001
0000
0000
0000
0101
0000
0011
0000
,
1001
0000
0100
0001
0000
0010
1000
0000
1010
0000
0101
0000
1010
0000
0101
0000
,
1010
0000
0001
0100
0000
0001
0010
0000
1000
0100
1000
0100
0010
0001
0010
0001
,
1001
0100
0011
0100
1001
0110
1001
0110
,
1001
0000
0100
0001
0000
0001
0010
0000
1001
0000
0000
0000
1100
0000
0001
0000
,
1001
0000
0001
0010
0000
0001
0100
0000
1001
0000
0100
0000
0011
0000
0100
0000
,
1001
0000
0001
1000
0000
0010
0001
0000
1001
0000
0000
0000
1100
0000
0101
0000
,
0110
0000
0010
0001
0000
1000
0001
0000
0101
0000
0010
0000
1100
0000
0010
0000
,
1001
0000
0010
0100
0000
0010
0100
0000
1001
0000
0000
0000
1100
0000
0101
0000
,
1001
0000
0001
0010
0000
0100
1000
0000
1001
0000
0101
0000
1001
0000
1100
0000
,
1001
0000
1000
0100
0000
0010
0001
0000
0001
0010
0100
1000
0001
1000
0100
0010
,
0110
0000
0001
0100
0000
0010
0001
0000
1001
0000
0110
0000
0011
0000
1100
0000
,
1001
0000
1000
0100
0000
0100
0001
0000
1001
0000
0000
0000
0110
0000
0011
0000
,
2002
0000
0000
0000
0000
0000
0000
0000
0000
0000
0000
0000
0000
3003
0000
0000
;
