#TITLE:Into the Night;
#SUBTITLE:;
#ARTIST:cranky;
#TITLETRANSLIT:;
#SUBTITLETRANSLIT:;
#ARTISTTRANSLIT:;
#CREDIT:;
#BANNER:itn-bn.PNG;
#BACKGROUND:itn-bg.PNG;
#LYRICSPATH:;
#CDTITLE:!sn&ex-cdtitle.png;
#MUSIC:Into the Night.mp3;
#OFFSET:-1.030;
#SAMPLESTART:11.835;
#SAMPLELENGTH:13.471;
#SELECTABLE:YES;
#BPMS:0.000=178.000,56.000=89.000,60.000=178.000;
#STOPS:;
#BGCHANGES:;
// cache tags:
#FIRSTBEAT:0.000;
#LASTBEAT:221.000;
#SONGFILENAME:Songs/Keyboard Collaboration II/Snapps and Exige - Into the Night/Into the Night.sm;
#HASMUSIC:1;
#HASBANNER:1;
#MUSICLENGTH:78.580;
// end cache tags

//---------------dance-single - ----------------
#NOTES:
     dance-single:
     :
     Hard:
     12:
     1.000,1.000,1.000,0.089,0.598,467.000,164.000,7.000,0.000,0.000:  // measure 1
1001
0010
0101
0000
0000
0000
0000
0000
,  // measure 2
0000
0000
0000
0000
0000
1001
0000
0011
,  // measure 3
1000
0000
0010
0000
0101
0000
0010
1000
0000
0000
0000
0000
0000
0000
0000
0000
,  // measure 4
0001
0000
1000
0000
0100
0000
0010
0000
0001
0000
1000
0000
0100
0000
0000
0010
0000
0000
0001
0000
0000
0010
0000
0000
0001
0000
0000
0000
0000
0000
1001
0000
0000
0000
0000
0000
0110
0000
0000
0000
0000
0000
0010
0000
0000
0000
0000
0000
,  // measure 5
1000
0010
0100
0010
1000
0000
0001
0100
1000
0001
0100
0000
1000
0100
0010
0100
,  // measure 6
1001
0100
0000
0000
0101
0010
0000
0000
0011
1000
0100
0010
1001
0000
1001
0000
,  // measure 7
0010
0000
1001
0100
0000
0101
0010
0011
,  // measure 8
1100
0000
0100
0010
0000
0010
0000
0100
1001
0000
0000
0000
1001
0000
1000
0100
,  // measure 9
0010
0001
1000
0100
0010
1000
0010
0001
,  // measure 10
1100
0000
0010
0000
0100
0000
0011
0000
0100
0000
0010
0000
1000
0000
0010
0100
,  // measure 11
1001
0000
1000
0100
1000
0001
1000
0100
,  // measure 12
1001
0100
1001
0010
0100
0001
1000
0100
,  // measure 13
0010
0000
0000
0100
0000
0000
0001
0000
0000
0010
0000
0000
1000
0000
0000
0001
0000
0000
0100
0000
0000
1000
0000
0000
0010
0000
0000
0100
0000
0000
0001
0000
0000
0100
0000
0000
0010
0000
0100
0000
1000
0000
0001
0000
0010
0000
0000
0000
,  // measure 14
0100
0010
0001
1000
0100
0010
1001
0000
0000
0010
0000
0000
1010
0000
0000
0100
0000
0000
0011
0000
0000
0001
0000
0000
,  // measure 15
1010
0000
1100
0000
0000
0000
1100
0000
1010
0000
0000
0000
0110
0000
0001
0010
1000
0000
0001
0000
0100
0000
0001
0000
1010
0000
0100
0000
1000
0000
0100
0000
,  // measure 16
0002
0000
0000
0003
0010
0000
0000
0000
,  // measure 17
2002
3003
0000
0000
0000
0000
0000
0000
0010
0000
0000
0000
0000
0000
0000
0000
0010
0000
0000
0000
0000
0000
0000
0000
0010
0000
0000
0000
0000
0000
0000
0000
,  // measure 18
1001
1100
0110
0101
0001
0100
0001
0010
,  // measure 19
1001
0100
0010
0101
1000
0100
0011
0100
,  // measure 20
1001
1100
1010
0101
0010
0001
0010
0100
,  // measure 21
0011
0000
0100
0000
0001
0000
1001
0000
0010
0100
0001
0010
1000
0001
0100
1000
,  // measure 22
0011
0101
0110
1010
1000
0100
0010
0001
,  // measure 23
1010
0100
1000
1001
0100
0001
0011
1000
,  // measure 24
0101
0110
1010
1001
0001
1000
0100
1000
,  // measure 25
1001
0000
0100
0000
0001
0000
1010
0000
0101
1000
0010
0000
0100
0010
0100
0000
,  // measure 26
1010
0110
0101
1001
0100
0010
0001
0100
,  // measure 27
1001
0000
0000
0010
0000
0000
0100
0000
0000
0000
0000
0000
0011
0000
0000
0000
0000
0000
0100
0000
0000
0000
0000
0000
1000
0000
0000
0010
0000
0000
0100
0000
0000
0000
0000
0000
1001
0000
0100
0000
0010
0000
0001
0000
1000
0000
0100
0000
,  // measure 28
0011
0110
1010
1001
0100
1001
1001
0010
,  // measure 29
1001
0000
0010
0000
0001
0000
0110
0000
1000
0000
0100
0010
1001
0100
0000
0010
,  // measure 30
1001
1010
0110
0101
0000
0000
0000
0000
,  // measure 31
0000
0000
0001
0000
0000
0001
1000
0010
,  // measure 32
0100
0010
0001
1000
0100
0010
0001
0010
,  // measure 33
1000
0000
0000
0000
0000
0000
0100
0000
0000
1000
0000
0000
0000
0000
0000
0100
0000
0000
0000
0000
0000
0001
0000
0000
0010
0000
0000
0000
0000
0000
0011
0000
0000
0000
0000
0000
0101
0000
0000
0000
0000
0000
1010
0000
0100
0000
0010
0000
,  // measure 34
1001
0001
1001
0101
0010
0101
1100
0001
,  // measure 35
0011
1100
0001
1010
0110
0101
0011
0110
,  // measure 36
1010
0001
1001
0110
0001
1001
1100
0010
,  // measure 37
0011
1001
0100
0110
0101
1000
0101
0010
,  // measure 38
2001
0000
0010
0000
3001
0000
0012
0000
0100
0000
1003
0000
0101
0010
1000
0100
,  // measure 39
0011
0100
0010
1001
1000
0100
0110
0001
,  // measure 40
1010
0100
1000
1001
0010
0100
0101
0010
,  // measure 41
1001
0100
0010
0001
0010
0000
0010
0100
0000
0100
0011
0000
0101
0000
1001
0000
,  // measure 42
1010
0001
0110
0011
1000
0101
0110
0001
,  // measure 43
1010
0110
0010
1100
1010
1001
0101
0011
,  // measure 44
0110
1000
0110
1010
0001
0110
0101
1000
,  // measure 45
0101
0011
0001
1010
0101
1000
0101
0010
,  // measure 46
1002
0000
1000
0000
0103
0000
1020
0000
1000
0000
0130
0000
0101
0010
0100
0010
,  // measure 47
1001
0100
0010
0000
0010
0000
1010
0100
0000
0100
0010
0001
0010
0100
0010
0000
,  // measure 48
1001
0000
0010
0000
0010
0000
0011
0000
1001
0000
0000
0000
1100
0010
1001
0000
,  // measure 49
0001
0010
0001
1000
0101
0000
0000
0000
,  // measure 50
0101
1000
0011
0000
0000
0000
0000
0000
,  // measure 51
0000
0000
0000
0000
0000
1001
0000
1100
,  // measure 52
0001
0000
0100
0000
1001
0000
0100
0010
0000
0000
0000
0000
0000
0000
0000
0000
,  // measure 53
1000
0000
0100
0000
0010
0000
0001
0000
1000
0000
0100
0000
0010
0000
0000
0100
0000
0000
0010
0000
0000
0001
0000
0000
1000
0000
0000
0000
0000
0000
1000
0000
0000
0000
0000
0000
1100
0000
0000
0000
0000
0000
0010
0000
0000
0000
0000
0000
,  // measure 54
1100
0010
0001
1000
0001
0000
1000
0100
1000
0001
0100
0000
1000
0001
0100
0010
,  // measure 55
1001
0010
0000
0000
0011
0100
0000
0000
0101
1000
0100
0010
0101
0000
1010
0000
,  // measure 56
0000
1001
0000
0000
;
