#TITLE:Blade;
#SUBTITLE:;
#ARTIST:Beautiful Day;
#TITLETRANSLIT:;
#SUBTITLETRANSLIT:;
#ARTISTTRANSLIT:;
#CREDIT:;
#BANNER:blade-bn.png;
#BACKGROUND:blade-bg.png;
#LYRICSPATH:;
#CDTITLE:!reachTitle.png;
#MUSIC:blade.mp3;
#OFFSET:-0.120;
#SAMPLESTART:19.800;
#SAMPLELENGTH:12.000;
#SELECTABLE:YES;
#BPMS:0.000=115.000;
#STOPS:;
#BGCHANGES:;
// cache tags:
#FIRSTBEAT:1.750;
#LASTBEAT:211.750;
#SONGFILENAME:Songs/Community Keyboard Megapack - Volume 1/(Reach) Blade/Blade.sm;
#HASMUSIC:1;
#HASBANNER:1;
#MUSICLENGTH:113.118;
// end cache tags

//---------------dance-single - ----------------
#NOTES:
     dance-single:
     :
     Challenge:
     14:
     1.000,1.000,1.000,0.000,1.000,752.000,385.000,0.000,0.000,0.000:
0000
0000
0000
0000
0000
0000
0000
1001
0110
0000
1010
0000
0110
0000
1010
0000
,
0110
0000
1001
0110
0000
0000
0000
0000
0000
0000
0000
0000
0000
0000
0000
0000
,
0000
0000
0000
1001
0000
0000
0000
0000
1001
1000
0001
1000
0101
1000
0011
1000
,
0011
1000
0011
1000
0101
1000
0011
0100
1001
0100
0001
1000
0101
1000
0011
1000
,
0011
1000
0011
1000
0101
1000
1001
0110
1001
1000
0001
1000
0101
1000
0011
1000
,
0011
1000
0100
1000
0101
1000
0011
1000
1001
1000
0100
1000
0101
1000
0011
1000
,
1001
0010
1001
0010
1001
0110
1001
0110
1001
1000
0001
1000
0101
1000
0011
1000
,
0011
1000
0100
1000
0101
1000
0011
1000
1001
1000
0001
1000
0101
1000
0011
1000
,
0011
1000
0011
1000
0101
1000
0011
1000
1001
1000
0001
1000
0101
1000
0011
1000
,
0011
1000
0100
1000
0101
1000
0011
1000
0011
0101
0000
0001
0000
0010
0000
1000
,
0000
0000
0000
0000
0101
0000
0000
0000
1001
1000
0001
1000
0101
1000
0011
1000
,
0011
1000
0010
1000
0101
1000
0011
1000
0011
1000
0100
1000
0101
1000
0011
1000
,
0011
1000
0011
1000
0101
1000
0011
0011
1001
1000
0001
1000
0101
1000
0011
1000
,
0011
1000
0010
1000
0101
1000
0011
1000
0011
1000
0100
1000
0101
1000
0011
1000
,
0011
1000
0011
0101
1010
1000
0011
1000
1001
1000
0001
1000
0101
1000
0011
1000
,
0010
1000
0011
1000
0101
1000
0011
1000
1001
1000
0001
1000
0101
1000
0011
1000
,
0010
1000
0011
1000
0101
1000
0011
1000
0011
1000
0001
1000
0101
1000
0011
1000
,
0011
1000
0100
1000
0101
1000
0010
1000
0011
1000
0001
1000
0101
1000
0011
1000
,
0011
1000
0101
1010
1010
0100
0011
1100
1001
1001
0010
1100
0000
1010
0000
1001
,
0000
0000
0000
0000
0101
0000
0000
0000
0001
0001
0010
1100
0000
1010
0000
1001
,
0000
0000
0000
0000
0101
0000
0000
0000
1001
1000
0001
1000
0101
1000
0011
1000
,
0011
1000
0001
1000
0101
1000
0100
1000
0011
1000
0011
1000
0101
1000
0011
1000
,
0011
1000
0010
1000
1001
1000
0001
1000
0101
1000
0001
1000
0101
1000
0011
0101
,
0001
1000
0011
1000
0101
1000
0101
1000
1001
1000
0010
1000
0101
1000
0011
1010
,
0001
1000
0011
1000
0101
1010
0011
1100
1001
1000
0001
1000
0101
1000
0011
1000
,
0011
1000
0010
1000
0101
1000
0011
1000
0011
1000
0001
1000
0101
1000
0011
1000
,
0011
1000
0010
1000
0101
0101
1010
0110
1001
0000
0000
0110
0000
0000
1001
0000
,
0000
1010
0000
0000
0101
0000
0000
0110
0000
0000
1001
0000
0000
0000
0000
0000
,
0000
0000
0000
0000
0000
0000
0000
0000
0000
0000
0000
0000
0000
0000
0001
0100
,
0010
1000
0010
0100
1001
0000
0000
0000
0011
1000
0001
1000
0110
1000
0001
1000
,
0011
1000
0001
1000
0110
1000
0001
1000
0011
1000
0001
1000
0110
1000
0001
1000
,
0011
1000
0001
1000
0110
1000
0001
1000
0011
1000
0001
1000
0110
1000
0001
1000
,
0011
1000
0001
1000
0110
1000
0001
1000
0011
1000
0001
1000
0110
1000
0001
1000
,
0011
1000
0001
1000
0110
1000
0001
1000
0101
0010
1100
1100
0101
0010
1100
1100
,
0101
0010
1100
1100
0101
0010
1100
1100
0101
0010
1100
1100
0101
0010
1100
1100
,
0101
0010
1100
1100
0101
0010
1100
1100
0101
0110
1100
1100
0101
0010
1100
1100
,
0101
0010
1100
1100
0101
0010
1100
1100
0101
0110
1100
1100
0101
0010
1100
1100
,
0101
0010
1100
1100
0101
0101
0101
0101
1001
1000
0001
1000
0110
1000
0001
1000
,
0011
1000
0001
1000
0110
1000
0001
1000
0011
1000
0001
1000
0110
1000
0001
1000
,
0011
1000
0001
1000
0110
1000
0001
1000
0011
1000
0001
1000
0110
1000
0001
1000
,
0011
1000
0001
1000
0110
1000
0001
1000
0011
1000
0001
1000
0110
1000
0001
1000
,
0011
1000
0001
1000
0110
1000
0001
1000
1001
0101
1010
0011
1000
0101
1000
0011
,
1000
0101
1000
0011
1100
1000
0001
1000
1001
0100
1010
0100
0011
1000
0101
0010
,
1001
1000
0001
1000
0110
1000
0001
1000
1100
0011
1100
0101
1000
0011
1000
0101
,
1000
0011
1000
0101
1100
1000
0001
1000
1010
0100
0011
1000
0101
0010
1100
0010
,
1001
1000
0001
1000
0110
1000
0001
1000
1001
0110
1001
0110
0101
1010
0011
1100
,
0011
1010
0011
1100
0101
1000
0011
1000
0101
1010
0101
1010
0101
0110
0011
1100
,
0011
0110
0011
1100
0101
1000
0101
1010
0011
1100
0011
1100
0101
1010
0011
1100
,
0011
1010
0011
1100
0101
1000
0011
0100
0011
1000
0010
1000
0101
1000
0011
0100
,
0011
1100
0011
0100
0011
0011
0011
0011
1001
0110
1001
0110
0101
1010
0011
1100
,
0011
1010
0100
1010
0101
1000
0010
1000
0011
1100
0011
1100
0101
1100
0011
1010
,
0011
1100
0011
1100
0101
0010
0101
1010
0011
1100
0011
1100
0101
1010
0011
1100
,
0011
1010
0100
1010
0101
1000
0011
0100
1001
0110
0000
1001
0000
0110
0000
1001
;
