#TITLE:Click Clock Wood Autumn;
#SUBTITLE:Banjo-Kazooie;
#ARTIST:Rareware;
#TITLETRANSLIT:;
#SUBTITLETRANSLIT:;
#ARTISTTRANSLIT:;
#CREDIT:;
#BANNER:ccwa.PNG;
#BACKGROUND:ccwa-bg.png;
#LYRICSPATH:;
#CDTITLE:kyka06.png;
#MUSIC:ClickClockWoodsFall.mp3;
#OFFSET:-2.320;
#SAMPLESTART:59.647;
#SAMPLELENGTH:12.500;
#SELECTABLE:YES;
#BPMS:0.000=160.420,44.000=157.420,52.000=160.420,96.000=157.420,104.000=160.420,136.000=157.420,144.000=160.420,236.000=156.420,244.000=160.420,288.000=80.210,292.000=78.210,296.000=81.210,304.000=160.420;
#STOPS:;
#BGCHANGES:;
// cache tags:
#FIRSTBEAT:0.000;
#LASTBEAT:304.000;
#SONGFILENAME:Songs/new/BK - CCW autumn or fall/ccwa.sm;
#HASMUSIC:1;
#HASBANNER:1;
#MUSICLENGTH:127.582;
// end cache tags

//---------------dance-single - ----------------
#NOTES:
     dance-single:
     :
     Hard:
     10:
     0.450,0.477,0.125,0.008,0.521,385.000,16.000,1.000,0.000,0.000:
0001
0000
0010
0100
0000
1000
0010
0000
0100
0001
0000
0010
,
0100
0000
1000
0010
0000
0100
0000
0000
0000
0010
0000
0000
,
1000
0000
0000
0001
0000
0000
0100
0000
0010
1000
0000
0100
,
0000
0000
0000
0010
0000
0001
0100
0000
0010
1000
0000
0000
,
0100
0000
0010
0001
0000
0100
0010
0000
1000
0100
0000
0010
,
0001
0000
0100
0010
0000
2000
0000
0000
0000
3100
0000
0000
,
0010
0000
0000
0001
0000
0000
0100
0000
0010
1000
0000
0100
,
0000
0000
0010
0001
0000
0000
0100
0000
0000
0010
0000
0000
,
1000
0000
0100
0010
0000
0001
0100
0000
0010
1000
0000
0100
,
0010
0000
0001
0100
0000
0010
0000
0000
0000
1000
0000
0000
,
0100
0000
0000
0010
0000
0000
0001
0000
0100
0010
0000
1000
,
0000
0000
0000
0100
0000
0010
0001
0000
0100
0001
0000
0000
,
0010
0000
0100
1000
0000
0100
1000
0000
0010
0100
0000
0010
,
0100
0000
0001
0010
0000
0100
0000
0000
0000
1000
0000
0000
,
0010
0000
0000
0100
0000
0000
0001
0000
0010
0100
0000
1000
,
0000
0000
0010
0100
0000
0000
0001
0000
0000
0010
0000
0000
,
0100
0000
0000
0000
0000
0000
1000
0000
0010
0100
0000
0000
,
0001
0000
0000
0010
0000
0000
0100
0000
0000
0000
0000
1000
,
0010
0000
0000
0000
0000
0000
0100
0000
0001
0010
0000
0000
,
0100
0000
0000
1000
0001
0100
0010
0000
0000
1000
0000
0000
,
0110
0000
0000
0000
0000
0000
0001
0000
0100
0010
0000
0000
,
1000
0000
0000
0100
0000
0000
0010
0000
0000
0000
0000
0001
,
0100
0000
0000
0010
0000
0000
1000
0000
0000
0100
0000
0010
,
0001
0100
0010
1000
,
0100
0000
0010
0001
0000
0100
0010
0000
1000
0100
0000
0100
,
0010
0000
1000
0001
0000
0010
0000
0000
0000
0100
0000
0000
,
0001
0000
0000
0010
0000
0000
0100
0000
1000
0010
0000
0100
,
0000
0000
0000
0000
,
0001
0000
0100
0010
0000
1000
0100
0000
0010
0100
0000
0001
,
0010
0000
0100
1000
0000
0110
0000
0000
0000
1001
0000
0000
,
0001
0000
0000
0010
0000
0000
0001
0000
0100
0010
0000
1000
,
0000
0000
0001
0100
0000
0000
0010
0000
0000
0100
0000
0000
,
1000
0000
0010
0100
0000
0001
0010
0000
0100
0010
0000
1000
,
0100
0000
0010
0001
0000
0110
0000
0000
0000
1001
0000
0000
,
1000
0000
0000
0100
0000
0000
1000
0000
0010
0100
0000
0001
,
0000
0000
0000
0000
,
0001
0000
0100
0010
0000
1000
0100
0000
0010
0100
0000
0001
,
0010
0000
0100
1000
0000
0110
0000
0000
0000
1001
0000
0000
,
0001
0000
0000
0010
0000
0000
0001
0000
0100
0010
0000
1000
,
0000
0000
0001
0100
0000
0000
0010
0000
0000
0100
0000
0000
,
0010
0000
0000
0000
0000
0000
0001
0000
0100
0010
0000
0000
,
1000
0000
0000
0100
0000
0000
0010
0000
0000
0000
0000
0001
,
0100
0000
0000
0000
0000
0000
0010
0000
1000
0100
0000
0000
,
0010
0000
0000
0001
1000
0010
0100
0000
0000
0001
0000
0000
,
0110
0000
0000
0000
0000
0000
1000
0000
0010
0100
0000
0000
,
0001
0000
0000
0010
0000
0000
0100
0000
0000
0000
0000
1000
,
0010
0000
0000
0100
0000
0000
0001
0000
0000
0010
0000
0100
,
1000
0010
0100
0001
,
0100
0000
0010
0001
0000
0100
0010
0000
1000
0100
0000
0100
,
0010
0000
1000
0001
0000
0010
0000
0000
0000
0100
0000
0000
,
0001
0000
0000
0010
0000
0000
0100
0000
1000
0010
0000
0100
,
0000
0000
0000
0000
,
0001
0000
0100
0010
0000
1000
0100
0000
0010
0100
0000
0001
,
0010
0000
0100
1000
0000
0110
0000
0000
0000
1001
0000
0000
,
0001
0000
0000
0010
0000
0000
0001
0000
0100
0010
0000
1000
,
0000
0000
0001
0100
0000
0000
0010
0000
0000
0100
0000
0000
,
1000
0000
0010
0100
0000
0001
0010
0000
0100
0010
0000
1000
,
0100
0000
0010
0001
0000
0110
0000
0000
0000
1001
0000
0000
,
1000
0000
0000
0100
0000
0000
1000
0000
0010
0100
0000
0001
,
0000
0000
0000
0000
,
0001
0000
0100
0010
0000
1000
0100
0000
0010
0100
0000
0001
,
0010
0000
0100
1000
0000
0110
0000
0000
0000
1001
0000
0000
,
0001
0000
0000
0010
0000
0000
0001
0000
0100
0010
0000
1000
,
0000
0000
0001
0100
0000
0000
0010
0000
0000
0100
0000
0000
,
0010
0000
0000
0000
0000
0000
0001
0000
0100
0010
0000
0000
,
1000
0000
0000
0100
0000
0000
0010
0000
0000
0000
0000
0001
,
0100
0000
0000
0000
0000
0000
0010
0000
1000
0100
0000
0000
,
0010
0000
0000
0001
1000
0010
0100
0000
0000
0001
0000
0000
,
0110
0000
0000
0000
0000
0000
1000
0000
0010
0100
0000
0000
,
0001
0000
0000
0010
0000
0000
0100
0000
0000
0000
0000
1000
,
0010
0000
0000
0100
0000
0000
0001
0000
0000
0010
0000
0100
,
1000
0010
0100
0001
,
0100
0100
0001
0010
,
0010
0000
1000
0100
0010
0000
0010
0000
,
1000
0001
0010
0010
,
1000
0000
0000
0000
0000
0000
0000
0000
0000
0000
0000
0000
0000
0000
0000
0000
0001
0000
0000
0000
0000
0000
0000
0000
0000
0000
0010
0000
0000
0000
0000
0000
0000
0000
0000
0000
0000
0000
0000
1000
0000
0000
0000
0000
0000
0000
0000
0000
,
0110
0000
0000
0000
;

//---------------dance-single - ----------------
#NOTES:
     dance-single:
     :
     Medium:
     6:
     0.326,0.387,0.055,0.024,0.145,281.000,7.000,3.000,0.000,0.000:
1000
0100
0010
0100
,
1000
0000
0000
0010
0000
0100
0000
0000
0000
0001
0000
0000
,
0010
0000
0000
0100
0000
0000
1000
0000
0010
0100
0000
0001
,
0000
0010
0100
1000
,
0010
0100
0001
0010
,
0001
0000
0000
1000
0000
0010
0000
0000
0000
1000
0000
0000
,
0100
0000
0000
0010
0000
0000
0001
0000
0000
0100
0000
0010
,
0000
0000
1000
0100
0000
0000
0010
0000
0000
0001
0000
0000
,
0100
0010
1000
0100
,
0010
0000
0000
0001
0000
0100
0000
0000
0000
0010
0000
0000
,
1000
0000
0000
0100
0000
0000
0010
0000
0000
0001
0000
0010
,
0000
0000
0000
0010
0000
1000
0100
0000
0010
0001
0000
0000
,
0100
0010
1000
0100
,
0010
0000
0000
0001
0000
1000
0000
0000
0000
0010
0000
0000
,
0100
0000
0000
0001
0000
0000
0010
0000
0000
1000
0000
0100
,
0000
0000
0010
0001
0000
0000
0100
0000
0000
0010
0000
0000
,
1000
0000
0001
0010
,
0100
0000
0000
1000
0000
0000
0010
0000
0000
0000
0000
1000
,
0001
0000
0010
0100
,
2000
0001
0001
0001
,
3010
0000
0100
0001
,
0010
0000
0000
0100
0000
0000
1000
0000
0000
0000
0000
0010
,
1000
0000
0000
0001
0000
0000
0100
0000
0000
0010
0000
1000
,
0100
0010
0001
0100
,
0001
0010
0100
1000
,
0010
0000
0000
0100
0000
0001
0000
0000
0000
0010
0000
0000
,
0100
0000
0000
1000
0000
0000
0010
0000
0000
0100
0000
0001
,
0000
0000
1001
0110
,
1000
0100
0010
0001
,
0100
0000
0000
0010
0000
0010
0000
0000
0000
0100
0000
0000
,
0001
0000
0000
0010
0000
0000
1000
0000
0000
0100
0000
0010
,
0000
0000
0001
0010
0000
0000
0010
0000
0000
1000
0000
0000
,
0001
0100
0010
1000
,
0100
0000
0000
0010
0000
0001
0000
0000
0000
1000
0000
0000
,
0010
0000
0000
0100
0000
0000
0001
0000
0000
0010
0000
0100
,
0000
0000
0000
0000
,
1000
0010
1000
0100
,
0010
0000
0000
0001
0000
0100
0000
0000
0000
0010
0000
0000
,
1000
0000
0000
0100
0000
0000
0010
0000
0000
0001
0000
0010
,
0000
0000
0001
1000
0000
0000
0010
0000
0000
0100
0000
0000
,
0001
0000
1000
0100
,
0010
0000
0000
0001
0000
0000
1000
0000
0000
0000
0000
0010
,
0100
0000
0001
1000
,
0200
0010
0010
0010
,
0310
0000
0000
0000
0000
0000
0001
0000
1000
0010
0000
0000
,
0100
0000
0000
0001
0000
0000
0010
0000
0000
0000
0000
0100
,
1000
0000
0000
0010
0000
0000
0100
0000
0000
0001
0000
0010
,
0001
1000
0010
0100
,
0001
0000
1000
0000
,
0100
0000
0010
0001
,
0010
0000
0100
0000
,
1000
0000
0010
0000
,
0100
0000
1000
0000
,
0001
0000
0010
0100
,
1000
0000
0010
0000
,
0100
0001
0010
0100
,
1000
0000
0100
0000
,
0001
0000
0010
0100
,
1000
0000
0010
0000
,
0100
0000
0001
0010
,
0100
0000
1000
0000
,
0001
0000
0100
0010
,
1000
0000
0000
0000
0000
0000
0010
0000
0000
0000
0000
0001
,
0000
0000
1000
0010
0000
0000
0100
0000
0000
0001
0000
0000
,
0010
0000
0001
1000
,
0010
0000
0000
0100
0000
0000
0001
0000
0000
0000
0000
0010
,
0001
0000
1000
0100
,
0002
1000
1000
1000
,
1003
0000
0010
0100
,
0001
0000
0000
0010
0000
0000
0100
0000
0000
0000
0000
1000
,
0010
0001
0100
0010
,
1000
0100
0010
0001
,
1001
1000
1100
0010
,
1100
0000
1000
0001
1000
0000
0010
0000
,
1000
0100
0010
0001
,
1001
0000
0000
0000
0000
0000
0000
0000
0000
0000
0000
0000
0000
0000
0000
0000
1000
0000
0000
0000
0000
0000
0000
0000
0000
0000
0001
0000
0000
0000
0000
0000
0000
0000
0000
0000
0000
0000
0000
0010
0000
0000
0000
0000
0000
0000
0000
0000
,
1001
0000
0000
0000
;

//---------------dance-single - ----------------
#NOTES:
     dance-single:
     :
     Challenge:
     10:
     0.487,0.596,0.259,0.008,0.537,401.000,33.000,1.000,0.000,0.000:
1000
0000
0100
0010
0000
0001
0100
0000
0010
1000
0000
0100
,
0010
0000
0001
0100
0000
0010
0000
0000
0000
0100
0000
0000
,
0001
0000
0000
1000
0000
0000
0010
0000
0100
0001
0000
0010
,
0000
0000
0000
0100
0000
1000
0010
0000
0100
0001
0000
0000
,
0010
0000
0100
1000
0000
0010
0100
0000
0001
0010
0000
0100
,
1000
0000
0010
0100
0000
0002
0000
0000
0000
0013
0000
0000
,
0100
0000
0000
1000
0000
0000
0010
0000
0100
0001
0000
0010
,
0000
0000
0100
1000
0000
0000
0010
0000
0000
0100
0000
0000
,
0001
0000
0010
0100
0000
1000
0010
0000
0100
0001
0000
0010
,
0100
0000
1000
0010
0000
0100
0000
0000
0000
0001
0000
0000
,
0010
0000
0000
0100
0000
0000
1000
0000
0010
0100
0000
0001
,
0000
0000
0000
0010
0000
0100
1000
0000
0010
1000
0000
0000
,
0100
0000
0010
0001
0000
0010
0001
0000
0100
0010
0000
0100
,
0010
0000
1000
0100
0000
0010
0000
0000
0000
0001
0000
0000
,
0100
0000
0000
0010
0000
0000
1000
0000
0100
0010
0000
0001
,
0000
0000
0100
0010
0000
0000
1000
0000
0000
0100
0000
0000
,
0010
0000
0000
0000
0000
0000
0001
0000
0100
0010
0000
0000
,
1000
0000
0000
0100
0000
0000
0010
0000
0000
0000
0000
0001
,
0100
0000
0000
0000
0000
0000
0010
0000
1000
0100
0000
0000
,
0010
0000
0000
0001
1000
0010
0100
0000
0000
0001
0000
0000
,
0110
0000
0000
0000
0000
0000
1000
0000
0010
0100
0000
0000
,
0001
0000
0000
0010
0000
0000
0100
0000
0000
0000
0000
1000
,
0010
0000
0000
0100
0000
0000
0001
0000
0000
0010
0000
0100
,
1000
0010
0100
0001
,
0010
0000
0100
1000
0000
0010
0100
0000
0001
0010
0000
0010
,
0100
0000
0001
1000
0000
0100
0000
0000
0000
0010
0000
0000
,
1000
0000
0000
0100
0000
0000
0010
0000
0001
0100
0000
0010
,
1000
0000
0000
0000
0000
0010
0100
0000
0000
0001
0000
0000
,
1000
0000
0010
0100
0000
0001
0010
0000
0100
0010
0000
1000
,
0100
0000
0010
0001
0000
0110
0000
0000
0000
1001
0000
0000
,
1000
0000
0000
0100
0000
0000
1000
0000
0010
0100
0000
0001
,
0000
0000
1000
0010
0000
0000
0100
0000
0000
0010
0000
0000
,
0001
0000
0100
0010
0000
1000
0100
0000
0010
0100
0000
0001
,
0010
0000
0100
1000
0000
0110
0000
0000
0000
1001
0000
0000
,
0001
0000
0000
0010
0000
0000
0001
0000
0100
0010
0000
1000
,
0001
0000
0000
0000
0000
0100
0010
0000
0000
0100
0000
0000
,
1000
0000
0010
0100
0000
0001
0010
0000
0100
0010
0000
1000
,
0100
0000
0010
0001
0000
0110
0000
0000
0000
1001
0000
0000
,
1000
0000
0000
0100
0000
0000
1000
0000
0010
0100
0000
0001
,
0000
0000
1000
0010
0000
0000
0100
0000
0000
0010
0000
0000
,
0100
0000
0000
0000
0000
0000
1000
0000
0010
0100
0000
0000
,
0001
0000
0000
0010
0000
0000
0100
0000
0000
0000
0000
1000
,
0010
0000
0000
0000
0000
0000
0100
0000
0001
0010
0000
0000
,
0100
0000
0000
1000
0001
0100
0010
0000
0000
1000
0000
0000
,
0110
0000
0000
0000
0000
0000
0001
0000
0100
0010
0000
0000
,
1000
0000
0000
0100
0000
0000
0010
0000
0000
0000
0000
0001
,
0100
0000
0000
0010
0000
0000
1000
0000
0000
0100
0000
0010
,
0001
0100
0010
1000
,
0010
0000
0100
1000
0000
0010
0100
0000
0001
0010
0000
0010
,
0100
0000
0001
1000
0000
0100
0000
0000
0000
0010
0000
0000
,
1000
0000
0000
0100
0000
0000
0010
0000
0001
0100
0000
0010
,
1000
0000
0000
0000
0000
0001
0100
0000
0000
0010
0000
0000
,
1000
0000
0010
0100
0000
0001
0010
0000
0100
0010
0000
1000
,
0100
0000
0010
0001
0000
0110
0000
0000
0000
1001
0000
0000
,
1000
0000
0000
0100
0000
0000
1000
0000
0010
0100
0000
0001
,
0000
0000
1000
0010
0000
0000
0100
0000
0000
0010
0000
0000
,
0001
0000
0100
0010
0000
1000
0100
0000
0010
0100
0000
0001
,
0010
0000
0100
1000
0000
0110
0000
0000
0000
1001
0000
0000
,
0001
0000
0000
0010
0000
0000
0001
0000
0100
0010
0000
1000
,
0010
0000
0000
0000
0000
0100
0010
0000
0000
0010
0000
0000
,
1000
0000
0010
0100
0000
0001
0010
0000
0100
0010
0000
1000
,
0100
0000
0010
0001
0000
0110
0000
0000
0000
1001
0000
0000
,
1000
0000
0000
0100
0000
0000
1000
0000
0010
0100
0000
0001
,
0000
0000
1000
0010
0000
0000
0100
0000
0000
0010
0000
0000
,
0100
0000
0000
0000
0000
0000
1000
0000
0010
0100
0000
0000
,
0001
0000
0000
0010
0000
0000
0100
0000
0000
0000
0000
1000
,
0010
0000
0000
0000
0000
0000
0100
0000
0001
0010
0000
0000
,
0100
0000
0000
1000
0001
0100
0010
0000
0000
1000
0000
0000
,
0110
0000
0000
0000
0000
0000
0001
0000
0100
0010
0000
0000
,
1000
0000
0000
0100
0000
0000
0010
0000
0000
0000
0000
0001
,
0100
0000
0000
0010
0000
0000
1000
0000
0000
0100
0000
0010
,
0001
0100
0010
1000
,
1010
0110
1001
1100
,
0110
0000
0011
0110
1100
0000
0110
0000
,
1001
1100
0110
0101
,
1001
0000
0000
0000
0000
0000
0000
0000
0000
0000
0000
0000
0000
0000
0000
0000
1100
0000
0000
0000
0000
0000
0000
0000
0000
0000
0101
0000
0000
0000
0000
0000
0000
0000
0000
0000
0000
0000
0000
1001
0000
0000
0000
0000
0000
0000
0000
0000
,
0110
0000
0000
0000
;

//---------------dance-single - ----------------
#NOTES:
     dance-single:
     :
     Easy:
     3:
     0.282,0.298,0.039,0.024,0.000,244.000,5.000,3.000,0.000,0.000:
0001
0010
0100
0010
,
0001
0100
0000
1000
,
0100
0010
0001
0010
,
0000
0100
0010
0001
,
0100
0010
1000
0100
,
1000
0001
0000
0001
,
0010
0100
1000
0010
,
0000
0010
0100
1000
,
0010
0100
0001
0010
,
0100
1000
0000
0100
,
0001
0010
0100
1000
,
0000
0100
0010
1000
,
0010
0100
0001
0010
,
0100
1000
0000
0100
,
0010
1000
0100
0001
,
0000
1000
0010
0100
,
0001
0000
1000
0100
,
0010
0001
0100
0000
,
1000
0000
0100
0010
,
0002
1000
1000
1000
,
0103
0000
0010
1000
,
0100
0010
0001
0000
,
0001
1000
0010
0100
,
0010
0100
1000
0010
,
1000
0100
0010
0001
,
0100
0010
0000
0100
,
0010
0001
0100
0010
,
0000
0000
1001
0110
,
0001
0010
0100
1000
,
0010
0100
0000
0010
,
1000
0100
0001
0010
,
0000
0100
0100
0001
,
1000
0010
0100
0001
,
0010
0100
0000
0001
,
0100
0010
1000
0100
,
0000
0000
0000
0000
,
0001
0100
0001
0010
,
0100
1000
0000
0100
,
0001
0010
0100
1000
,
0000
0001
0100
0010
,
1000
0000
0001
0010
,
0100
1000
0001
0000
,
0010
0000
1000
0001
,
0020
0100
0100
0100
,
0130
0000
1000
0100
,
0010
1000
0100
0000
,
0001
0100
0010
1000
,
1000
0001
0100
0010
,
1000
0000
0001
0000
,
0010
0000
0100
1000
,
0100
0000
0010
0000
,
0001
0000
0100
0000
,
0010
0000
0001
0000
,
1000
0000
0100
0010
,
0001
0000
0100
0000
,
0010
1000
0100
0010
,
0001
0000
0010
0000
,
1000
0000
0100
0010
,
0001
0000
0100
0000
,
0010
0000
1000
0100
,
0010
0000
0001
0000
,
1000
0000
0010
0100
,
0001
0000
0100
0000
,
0000
0100
0010
1000
,
0100
0000
1000
0001
,
0100
0010
1000
0000
,
1000
0000
0001
0010
,
2000
0001
0001
0001
,
3001
0000
0100
0010
,
1000
0100
0010
0000
,
0100
1000
0010
0100
,
0001
0010
0100
1000
,
0001
0001
0001
0001
,
1000
1000
1000
1000
,
0001
0010
0100
1000
,
1001
0000
0110
0000
,
1001
0000
0000
0000
;
