#TITLE:WHITE CHRISTMAS;
#SUBTITLE:;
#ARTIST:MAZERATI;
#TITLETRANSLIT:;
#SUBTITLETRANSLIT:;
#ARTISTTRANSLIT:;
#CREDIT:;
#BANNER:WHITE CHRISTMAS.png;
#BACKGROUND:WHITE CHRISTMAS-bg.png;
#LYRICSPATH:;
#CDTITLE:Christmas Speed.png;
#MUSIC:WHITE CHRISTMAS.mp3;
#OFFSET:-0.369;
#SAMPLESTART:22.786;
#SAMPLELENGTH:12.000;
#SELECTABLE:YES;
#BPMS:0.000=170.031;
#STOPS:;
#BGCHANGES:;
// cache tags:
#FIRSTBEAT:28.000;
#LASTBEAT:256.000;
#SONGFILENAME:Songs/DDRExtreme.co.uk presents ChristmasMix/WHITE CHRISTMAS/WHITE CHRISTMAS.sm;
#HASMUSIC:1;
#HASBANNER:1;
#MUSICLENGTH:96.966;
// end cache tags

//---------------dance-single - ----------------
#NOTES:
     dance-single:
     :
     Easy:
     4:
     0.249,0.297,0.000,0.000,0.000,169.000,0.000,0.000,0.000,0.000:  // measure 1
0000
0000
0000
0000
,  // measure 2
0000
0000
0000
0000
,  // measure 3
0000
0000
0000
0000
,  // measure 4
0000
0000
0000
0000
,  // measure 5
0000
0000
0000
0000
,  // measure 6
0000
0000
0000
0000
,  // measure 7
0000
0000
0000
0000
,  // measure 8
1000
0000
1000
1000
,  // measure 9
0010
0000
0010
0000
,  // measure 10
0010
1000
0000
0001
,  // measure 11
0100
0000
0100
0000
,  // measure 12
0010
1000
0000
0001
,  // measure 13
0100
0000
0010
0000
,  // measure 14
1000
0001
0010
0100
,  // measure 15
1000
0000
0010
0000
,  // measure 16
0001
0000
0001
0001
,  // measure 17
1000
0000
0000
0000
,  // measure 18
0001
1000
0001
1000
,  // measure 19
0001
0000
0100
0000
,  // measure 20
0010
1000
0000
0000
,  // measure 21
0010
0100
0010
0100
,  // measure 22
0010
0100
0010
0100
,  // measure 23
0000
0001
0000
0000
,  // measure 24
1000
0000
1000
1000
,  // measure 25
0010
0000
1000
0000
,  // measure 26
0001
1000
0000
1000
,  // measure 27
0010
0000
0010
0000
,  // measure 28
0010
0100
0000
0001
,  // measure 29
1000
0000
1000
0000
,  // measure 30
1000
0100
0000
0010
,  // measure 31
0001
1000
0000
0000
,  // measure 32
0010
0000
0010
0010
,  // measure 33
1000
0000
0000
0000
,  // measure 34
0001
1000
0000
1000
,  // measure 35
0001
0000
0100
0000
,  // measure 36
0010
1000
0000
0000
,  // measure 37
0001
1000
0001
1000
,  // measure 38
0001
1000
0001
1000
,  // measure 39
0000
0001
0000
0000
,  // measure 40
0100
0000
0100
0100
,  // measure 41
0010
0000
0000
1000
,  // measure 42
0001
1000
0000
0010
,  // measure 43
0100
0000
0000
0001
,  // measure 44
1000
0001
0000
0100
,  // measure 45
0010
0000
0000
1000
,  // measure 46
0001
1000
0001
1000
,  // measure 47
0001
0000
1000
0000
,  // measure 48
0001
0000
0001
0001
,  // measure 49
1000
1000
1000
1000
,  // measure 50
0010
1000
0001
1000
,  // measure 51
0001
0001
0001
0001
,  // measure 52
1000
0010
0010
0010
,  // measure 53
0010
1000
0010
0100
,  // measure 54
0001
0010
0100
1000
,  // measure 55
0001
0001
0001
0001
,  // measure 56
0100
0000
0100
0100
,  // measure 57
0010
0010
0010
0010
,  // measure 58
0010
1000
1000
0001
,  // measure 59
0100
0100
0100
0100
,  // measure 60
0100
0010
0010
1000
,  // measure 61
0001
0001
0001
0001
,  // measure 62
1000
0010
0001
0100
,  // measure 63
1000
0010
0100
0001
,  // measure 64
1000
0000
1000
1000
,  // measure 65
1000
0000
0000
0000
;

//---------------dance-single - ----------------
#NOTES:
     dance-single:
     :
     Medium:
     6:
     0.427,0.429,0.505,0.186,0.000,223.000,49.000,18.000,0.000,0.000:  // measure 1
0000
0000
0000
0000
,  // measure 2
0000
0000
0000
0000
,  // measure 3
0000
0000
0000
0000
,  // measure 4
0000
0000
0000
0000
,  // measure 5
0000
0000
0000
0000
,  // measure 6
0000
0000
0000
0000
,  // measure 7
0000
0000
0000
0000
,  // measure 8
1000
0000
0001
0010
,  // measure 9
1000
0010
0100
0001
,  // measure 10
1001
0100
0010
1000
,  // measure 11
1001
0001
0010
0100
,  // measure 12
1001
1000
0100
0010
,  // measure 13
1001
0010
0010
0010
,  // measure 14
1001
0100
0100
0100
,  // measure 15
1001
0010
1000
0010
,  // measure 16
1001
0000
1001
0110
,  // measure 17
1000
0001
0100
0010
,  // measure 18
1100
0001
1100
0001
,  // measure 19
1100
0010
0100
0001
,  // measure 20
0101
1010
0001
1000
,  // measure 21
0010
1100
0011
1100
,  // measure 22
0001
0010
0100
2000
,  // measure 23
3001
0002
1003
2000
,  // measure 24
3001
0100
1001
1001
,  // measure 25
0100
0010
1000
0001
,  // measure 26
1000
2000
3010
0100
,  // measure 27
0001
0002
0103
0010
,  // measure 28
1000
2000
3100
0010
,  // measure 29
0001
0002
0013
0100
,  // measure 30
1000
0001
1000
0010
,  // measure 31
2000
0000
3001
0000
,  // measure 32
1001
0000
1100
0011
,  // measure 33
0100
0010
1000
0001
,  // measure 34
1010
0000
0001
0000
1000
0010
1000
0000
,  // measure 35
0001
0100
0010
1000
,  // measure 36
0011
1100
0001
1000
,  // measure 37
0010
1100
0011
1100
,  // measure 38
0001
0010
0100
2000
,  // measure 39
3001
0002
1003
2000
,  // measure 40
3001
0100
1001
1001
,  // measure 41
0100
0010
1000
0001
,  // measure 42
1000
2000
3010
0100
,  // measure 43
0001
0002
0103
0010
,  // measure 44
1000
2000
3100
0010
,  // measure 45
0001
0002
0013
0100
,  // measure 46
1000
0001
1000
0010
,  // measure 47
2000
0000
3001
0000
,  // measure 48
1001
0000
1100
0011
,  // measure 49
0100
0010
0100
0001
,  // measure 50
1000
0100
1000
0000
0010
0000
0100
0000
,  // measure 51
0001
0010
0001
0000
0010
0000
0100
0000
,  // measure 52
1001
1100
0010
0100
,  // measure 53
0001
0110
0001
0110
,  // measure 54
0001
0110
0001
0010
,  // measure 55
0100
1000
0010
0100
,  // measure 56
1001
0100
1001
1001
,  // measure 57
0100
0010
0100
0000
0001
0000
0100
0000
,  // measure 58
0010
1000
0010
0000
0100
0000
0001
0000
,  // measure 59
1000
0100
1000
0000
0001
0000
0100
0000
,  // measure 60
0010
1000
0010
0100
,  // measure 61
1001
0010
0100
0010
,  // measure 62
1001
0100
1001
0100
,  // measure 63
2002
0000
0000
3003
,  // measure 64
0110
0000
1100
0011
,  // measure 65
1100
0000
0000
0000
;

//---------------dance-single - ----------------
#NOTES:
     dance-single:
     :
     Hard:
     8:
     0.600,0.594,0.567,0.320,0.000,321.000,55.000,31.000,0.000,0.000:  // measure 1
0000
0000
0000
0000
,  // measure 2
0000
0000
0000
0000
,  // measure 3
0000
0000
0000
0000
,  // measure 4
0000
0000
0000
0000
,  // measure 5
0000
0000
0000
0000
,  // measure 6
0000
0000
0000
0000
,  // measure 7
0000
0000
0000
0000
,  // measure 8
1000
0000
0010
0100
,  // measure 9
0001
1000
0001
0100
0001
1000
0001
0100
,  // measure 10
0001
1000
0010
0100
0010
1000
0100
1000
,  // measure 11
0001
0100
0001
0100
0001
1000
0001
0100
,  // measure 12
0001
1000
0010
0100
0010
1000
0100
1000
,  // measure 13
0001
0100
0001
1000
0001
0100
0001
1000
,  // measure 14
0010
0100
0001
0100
0010
0100
0001
0100
,  // measure 15
0010
1000
0010
0100
0010
1000
0010
0100
,  // measure 16
0010
0100
1001
0110
,  // measure 17
2000
3010
0100
0001
,  // measure 18
2000
3200
0302
0203
,  // measure 19
2300
3010
0020
0130
,  // measure 20
0101
1100
0002
0103
,  // measure 21
1001
0101
0110
0101
,  // measure 22
0110
1010
0110
2010
,  // measure 23
3001
0012
1003
2100
,  // measure 24
3001
0100
1001
1001
,  // measure 25
0012
0103
2010
3100
,  // measure 26
0102
0013
2100
3010
,  // measure 27
0100
0001
1000
0000
0010
1000
0001
0000
,  // measure 28
0100
0001
1000
0000
0010
1000
0001
0000
,  // measure 29
2000
3010
0200
0301
,  // measure 30
0010
0100
1000
0000
0010
0100
0001
0000
,  // measure 31
1000
0010
0100
0000
0001
0010
0100
0000
,  // measure 32
1001
0100
1001
1001
,  // measure 33
2000
3001
0100
0010
,  // measure 34
2000
0000
3200
0000
0000
0301
0100
1000
,  // measure 35
0100
0001
2000
3010
,  // measure 36
1100
0101
0002
1003
,  // measure 37
0110
1001
1100
1001
,  // measure 38
0101
1001
1100
2010
,  // measure 39
3001
0102
1003
2001
,  // measure 40
3001
0100
0011
1010
,  // measure 41
1200
1300
0201
0301
,  // measure 42
0021
0031
1020
1030
,  // measure 43
1000
0100
0010
0000
0001
0100
0010
0000
,  // measure 44
0100
0010
1000
0000
0010
0100
0001
0000
,  // measure 45
1010
0100
0001
1010
,  // measure 46
0011
1010
1100
1001
,  // measure 47
0200
0000
0320
0000
,  // measure 48
1030
0000
1001
0110
,  // measure 49
1000
0001
1000
0100
1000
0001
1000
0100
,  // measure 50
0001
0100
1000
0100
0010
0100
1000
0100
,  // measure 51
0001
1000
0001
0100
0001
1000
0001
0100
,  // measure 52
0010
0100
0001
0010
0001
0100
0001
0010
,  // measure 53
0001
1000
0100
1000
0010
1000
0001
1000
,  // measure 54
0010
1000
0100
1000
0001
1000
0100
1000
,  // measure 55
0010
0100
0010
1000
0010
0100
0010
1000
,  // measure 56
0010
0100
1001
0110
,  // measure 57
1000
0100
1000
0010
1000
0001
1000
0010
,  // measure 58
1000
0001
0100
0010
0100
0001
1000
0010
,  // measure 59
0100
0001
0100
0010
0100
0001
0100
0010
,  // measure 60
0100
0001
1000
0010
1000
0001
0010
0001
,  // measure 61
1000
0100
1000
0001
1000
0010
1000
0100
,  // measure 62
1000
0010
0100
0001
0010
0001
0100
0010
,  // measure 63
1000
0100
0010
0001
0100
0010
1000
0000
,  // measure 64
1001
0100
1001
0110
,  // measure 65
1001
0000
0000
0000
;
