#TITLE:jam jam reggae;
#SUBTITLE:(Jam Jam Mix);
#ARTIST:Jam Master '73 (remixed by good-cool);
#TITLETRANSLIT:;
#SUBTITLETRANSLIT:;
#ARTISTTRANSLIT:;
#CREDIT:Arch0wl;
#BANNER:jamjamreggaejamjammix-bn.png;
#BACKGROUND:jamjamreggaejamjammix-bg.png;
#LYRICSPATH:;
#CDTITLE:!arch0wltitle.png;
#MUSIC:jamjam.ogg;
#OFFSET:-0.533;
#SAMPLESTART:29.845;
#SAMPLELENGTH:29.500;
#SELECTABLE:YES;
#BPMS:0.000=90.000,68.000=180.000,83.000=360.000,84.000=180.000,108.000=90.000;
#STOPS:83.000=0.167
;
#BGCHANGES:0.000=jamjamreggaejamjammix-bg.png=1.000=0=0=1,
99999=-nosongbg-=1.000=0=0=0 // don't automatically add -songbackground-
;
// cache tags:
#FIRSTBEAT:0.000;
#LASTBEAT:130.000;
#SONGFILENAME:Songs/Archmage and Dark0wl Hammer of Thor UltraHyperMegaPack/Jam Jam Reggae (Jam Jam Mix) (Revised Version)/jamjam.sm;
#HASMUSIC:1;
#HASBANNER:1;
#MUSICLENGTH:105.000;
// end cache tags

//---------------dance-single - Arch0wl----------------
#NOTES:
     dance-single:
     Arch0wl:
     Challenge:
     13:
     0.669,0.650,0.648,0.181,0.795,405.000,68.000,19.000,0.000,3.000:
1000
0000
0001
0010
0100
0000
0001
0100
1000
0000
0010
0000
0101
0010
0101
0010
,
1001
0000
0001
0100
1000
0100
0001
1000
0010
0100
0110
0000
1000
0110
0010
0001
,
0100
0000
0000
0000
0001
0000
0110
0000
1000
0000
0001
0000
0110
0000
1000
0000
1001
0000
0000
0000
0210
0000
0000
0000
0301
0100
0001
0000
0101
0000
0000
0000
,
0020
0000
0100
0000
0001
1000
2130
0000
0010
0000
0100
0000
0001
0010
0100
3000
,
0010
0000
0100
0100
0001
0010
0100
0000
1000
0000
0100
0000
0001
0010
0100
0000
,
0021
0000
0000
0100
0000
0000
0100
0000
0000
1230
0000
1000
0010
0000
1000
0010
0000
0000
0010
0000
1000
0010
0000
1000
,
0310
0000
1000
0100
1000
0000
1000
0000
1000
0000
0100
0000
0000
0000
0100
0000
0011
0000
0110
0000
0011
0000
0100
0000
1002
0000
0000
0000
1103
0000
0000
0000
,
1000
0100
1000
0100
1000
0010
0001
1000
0100
0001
0010
0100
1001
0101
1001
0101
,
2010
0100
0001
3100
1010
0001
1010
0001
1010
0101
1200
0000
0000
0000
0000
0000
,
1300
0000
0000
0000
0000
0000
1000
0000
0000
0000
0000
0000
1100
0000
0000
0000
0000
0000
1000
0000
0000
0000
1000
0000
0010
0000
0000
0010
0000
0000
1000
0000
0000
1000
0000
0000
1010
0000
0000
0000
0000
0000
1010
0000
0000
0101
0000
0000
,
0010
1000
0010
0000
0010
1000
0010
1000
0010
1000
0010
1000
0010
1000
0010
1000
,
0110
0000
0100
0000
0001
0000
0100
0010
1000
0000
0100
0000
0010
0000
0100
0000
,
1000
0000
0100
1000
0000
0100
0010
0000
0001
0100
1001
0000
0010
0000
1001
0100
,
0001
0010
0001
0100
0001
0100
0010
1000
0000
0010
1000
0100
0010
0001
1000
0000
,
0100
0000
0110
1000
0100
1001
0100
0000
0100
0010
1100
0001
1100
1001
0010
0000
,
2000
0000
0000
0000
0000
0000
0000
0000
3002
0000
0000
0000
0000
0000
0000
0000
0000
0000
1003
0010
0100
0001
0010
0100
0010
0001
1000
0010
0100
0001
0010
0100
,
1000
0000
0000
0000
0000
0000
0000
0000
0010
0000
0000
0000
0000
0000
0000
0000
0000
0000
0100
0000
0000
0000
0000
0000
0001
0000
0000
0000
0000
0000
0000
0000
1000
0000
0000
0000
0000
0000
0000
0000
0000
0000
0000
0000
0200
0000
0000
0000
0000
0000
0000
0000
0000
0000
0000
0000
0000
0000
0000
0000
0310
0000
0000
0000
0000
0000
0200
0000
0000
0000
0000
0000
0000
0000
0000
0000
0000
0000
0000
0000
0000
0000
0000
0000
0000
0000
0000
0000
0000
0000
0000
0000
0000
0000
0000
0000
0000
0000
0000
0000
0000
0000
0000
0000
0000
0000
0000
0000
0000
0000
0000
0000
0000
0000
0000
0000
0000
0000
0000
0000
0310
0000
0000
0000
0000
0000
0001
0000
0000
0000
0000
0000
0000
0000
0000
0000
0000
0000
0000
0000
0000
0000
0000
0000
1000
0000
0000
0000
0000
0000
0000
0000
0000
0000
0000
0000
0000
0000
0000
0000
0000
0000
0000
0000
0000
0000
0000
0000
0000
0000
0000
0000
0100
0000
0000
0000
0000
0000
0000
0000
0000
0000
0000
0000
0000
0000
0010
0000
0000
0000
0000
0000
,
1001
0000
0000
0000
0000
0000
0000
0000
0000
0000
0000
0000
0000
0000
0000
0000
0000
0000
0000
0000
0000
0000
0000
0000
0001
0000
0000
0000
0000
0000
0000
0000
0000
0000
0000
0000
0010
0000
0000
0000
0000
0000
0000
0000
0000
0000
0000
0000
0001
0000
0000
0000
0000
0000
0000
0000
0000
0000
0000
0000
0010
0000
0000
0000
0000
0000
0000
0000
0000
0000
0000
0000
0001
0000
0000
0000
0000
0000
0000
0000
0000
0000
0000
0000
0010
0000
0000
0000
0000
0000
0000
0000
0000
0000
0000
0000
0200
0000
0000
0000
0000
0000
0000
0000
0300
0000
0000
0000
1000
0000
0000
0000
0000
0000
0000
0000
0000
0000
0000
0000
0001
0000
0000
0000
0000
0000
1000
0000
0000
0000
0000
0000
0001
0000
0000
0000
0000
0000
1000
0000
0000
0000
0000
0000
0100
0000
0000
0000
0000
0000
0000
0000
0000
0000
0000
0000
0000
0000
0000
0000
0000
0000
0000
0000
0000
0000
0000
0000
0010
0000
0000
0000
0000
0000
0000
0000
0000
0000
0000
0000
0100
0000
0000
0000
0000
0000
0000
0000
0000
0000
0000
0000
,
1001
0000
0000
0000
0000
0000
0000
0000
0000
0000
0000
0000
0100
0000
0000
0000
0000
0000
0000
0000
0000
0000
0000
0000
0010
0000
0000
0000
0000
0000
0000
0000
0000
0000
0000
0000
0000
0000
0000
0000
0000
0000
0000
0000
0000
0000
0000
0000
0110
0000
0000
0000
0000
0000
0000
0000
0000
0000
0000
0000
0000
0000
0000
0000
0000
0000
0000
0000
0000
0000
0000
0000
1000
0000
0000
0000
0000
0000
0000
0000
0000
0000
0000
0000
0000
0000
0000
0000
0001
0000
0000
0000
0000
0000
0000
0000
0010
0000
0000
0000
0000
0000
0000
0000
0000
0000
0000
0000
0000
0000
0000
0000
0010
0000
0000
0000
0000
0000
0000
0000
0200
0000
0000
0000
0000
0000
0000
0000
0300
0000
0000
0000
0000
0000
0000
0000
0000
0000
0000
0000
0000
0000
0000
0000
1000
0000
0000
0000
0000
0000
0001
0000
0000
0000
0000
0000
1000
0000
0000
0000
0000
0000
0001
0000
0000
0000
0000
0000
0010
0000
0000
0000
0000
0000
0000
0000
0000
0000
0000
0000
0100
0000
0000
0000
0000
0000
0000
0000
0000
0000
0000
0000
,
1001
0000
0000
0000
0000
0000
1000
0000
0000
0010
0000
0000
0100
0000
0000
0010
0000
0000
1000
0000
0000
0000
0000
0000
0001
0000
0000
0100
0000
0000
0020
0000
0030
0000
0000
0000
0110
0000
0000
0000
0000
0000
1000
0000
0000
0100
0000
0000
,
1001
0000
0000
0100
0000
0000
0020
0000
0030
0000
0000
0000
0110
0000
0000
0000
0000
0000
1000
0000
0000
0000
1000
0000
0100
0000
0000
0010
0000
0000
0200
0000
0300
0000
0000
0000
0110
0000
0000
0000
0000
0000
0000
0000
0000
0000
0000
0000
,
1001
0000
0001
0010
0100
0010
0001
1000
0000
1000
0001
0000
0100
0000
0001
0100
,
0010
0000
0000
1000
0000
0000
0010
0000
0000
0000
0000
0000
0100
0000
0000
0000
0000
0000
0001
0000
0000
0000
0010
0000
1000
0000
0000
0000
0010
0000
0001
0000
0000
0000
0000
0000
0100
0000
0000
0000
0000
0000
0010
0000
0000
0000
1000
0000
,
0001
0000
0001
1000
0100
0010
0001
0010
0000
0001
0010
0000
0100
0000
1000
0100
,
0010
0000
0000
0000
0000
0000
0000
0000
0000
0000
0000
0000
0001
0000
0000
0000
0000
0000
0000
0000
0000
0000
0000
0000
0010
0000
0000
0000
0000
0000
0000
0000
0000
0000
0000
0000
0000
0000
0000
0000
0000
0000
0000
0000
0000
0000
0000
0000
0100
0000
0000
0000
0000
0000
1000
0000
0000
0000
0000
0000
0100
0000
0000
0000
0000
0000
1000
0000
0000
0000
0000
0000
0010
0000
0000
0000
0000
0000
0000
0000
0000
0000
0000
0000
0000
0000
0000
0000
0010
0000
0000
0000
0000
0000
0000
0000
1000
0000
0000
0000
0000
0000
0000
0000
0000
0000
0000
0000
0100
0000
0000
0000
0000
0000
0000
0000
0000
0000
0000
0000
1000
0000
0000
0000
0000
0000
0100
0000
0000
0000
0000
0000
1000
0000
0000
0000
0000
0000
0100
0000
0000
0000
0000
0000
0010
0000
0000
0000
0000
0000
0000
0000
0000
0000
0000
0000
0000
0000
0000
0000
0010
0000
0000
0000
0000
0000
0000
0000
0001
0000
0000
0000
0000
0000
0000
0000
0000
0000
0000
0000
0100
0000
0000
0000
0000
0000
0000
0000
0000
0000
0000
0000
,
0010
0000
0010
1000
0100
1000
0001
0010
0000
0001
0010
0000
0100
0000
0010
0100
,
1001
0000
0000
0000
0000
0000
0000
0000
0000
0000
0000
0000
0010
0000
0000
0000
0000
0000
0000
0000
0000
0000
0000
0000
0001
0000
0000
0000
0000
0000
0000
0000
0000
0000
0000
0000
0000
0000
0000
0000
0000
0000
0000
0000
0000
0000
0000
0000
0100
0000
0000
0000
0000
0000
0000
0000
0000
0000
0000
0000
0000
0000
0000
0000
0000
0000
0000
0000
0000
0000
0000
0000
0001
0000
0000
0000
0000
0000
0000
0000
0000
0000
0000
0000
0000
0000
0000
0000
0010
0000
0000
0000
0000
0000
0000
0000
1000
0000
0000
0000
0000
0000
0000
0000
0000
0000
0000
0000
0000
0000
0000
0000
0010
0000
0000
0000
0000
0000
0000
0000
0001
0000
0000
0000
0000
0000
0010
0000
0000
0000
0000
0000
0001
0000
0000
0000
0000
0000
0010
0000
0000
0000
0000
0000
0100
0000
0000
0000
0000
0000
0000
0000
0000
0000
0000
0000
0010
0000
0000
0000
0000
0000
0000
0000
0000
0000
0000
0000
0001
0000
0000
0000
0000
0000
0000
0000
0000
0000
0000
0000
0000
0000
0000
0000
0000
0000
0000
0000
0000
0000
0000
0000
,
1001
0000
1000
1000
0100
0100
0100
0011
0000
0011
0010
0100
0100
1000
1000
0000
,
1000
0000
0100
0000
0101
0000
0110
0000
1000
0001
0100
0000
0011
0010
0100
0000
,
1000
0000
1100
0000
1001
0000
0101
0010
1001
0010
0100
1001
0010
0100
1001
0000
,
1000
0000
0100
0000
1001
0010
0101
0010
1000
0000
0100
0000
0010
0000
0100
0000
,
1000
0000
0100
0000
0011
0000
0101
1000
0010
0000
0100
1001
0000
0000
0220
0000
,
0000
0000
0330
0000
;

//---------------dance-single - Arch0wl----------------
#NOTES:
     dance-single:
     Arch0wl:
     Hard:
     8:
     0.433,0.447,0.171,0.067,0.405,293.000,18.000,7.000,0.000,1.000:
1000
0000
0001
0010
0100
0000
0001
0100
1000
0000
0010
0000
0101
0110
0100
0110
,
1001
0000
0100
0010
1000
0100
0010
0001
0000
1000
0010
0000
0001
0010
0000
1000
,
0001
0000
0000
0000
0100
0000
0010
0000
0000
0000
0001
0000
0010
0000
0000
0000
1000
0000
0100
0000
0010
0000
0000
0000
0001
0100
0001
0000
0101
0000
0000
0000
,
0010
0000
0110
0000
0000
0000
0110
0000
0001
0000
0110
0000
0100
0010
0100
0000
,
0010
1000
0100
0000
1000
0100
0010
0001
0100
0010
1000
0100
0010
0001
0100
0000
,
0001
0002
0000
0000
0000
0000
1003
2000
0000
0000
0000
0000
0000
0000
0000
0000
,
3000
0000
1010
0000
0000
0101
0000
0000
0010
1000
0100
0010
0002
0000
1103
0000
,
1000
0000
1000
0000
1000
0010
0000
0010
0000
0000
0100
0000
0010
1000
0100
0010
,
0001
0000
0100
0000
0010
0000
1000
0000
0100
0001
1200
0000
0000
0000
0000
0000
,
1300
0000
0001
0000
1000
0000
0100
0000
0010
0001
1000
0100
0010
0000
0001
0010
,
0100
1000
0100
0000
0010
0001
0100
0010
1000
0100
0010
0001
0100
0010
1000
0000
,
0100
0000
0010
0000
0001
0000
0100
0010
1000
0000
0100
0000
0010
0001
0100
0010
,
1000
0000
0100
1000
0000
0100
0010
0000
0001
0100
0001
0000
0010
0000
0001
0100
,
0001
0010
0001
0100
0001
0100
0010
1000
0000
0010
1000
0100
0010
0000
0001
0000
,
0100
0000
0010
1000
0100
0010
0001
0000
0100
0010
0100
0001
0100
0001
0010
0000
,
0001
0000
0102
0000
0100
1000
0100
1000
,
0100
1000
0100
1000
0103
1000
0100
0010
,
1001
0000
0000
0000
0000
0010
0000
0000
,
1001
0000
0000
0000
0000
0010
0000
0000
,
1001
0000
0000
0000
0000
0010
0000
0000
,
1001
0000
0000
0000
0001
1000
0001
0000
,
1000
0001
0010
0001
0100
0010
1000
0100
,
0010
0001
0100
0010
1000
0100
1000
0010
,
1000
0100
0010
0001
0100
0010
1000
0100
,
0010
0001
0100
0001
0010
0001
0100
0010
,
0100
1000
0100
0010
0100
0001
1000
0010
,
0100
0001
0010
0100
1000
0010
0100
0001
,
1000
0010
0100
0001
0010
0100
1000
0010
0100
0001
0010
0100
1000
0010
0100
0001
,
1000
0100
0010
0001
0100
0010
1000
0001
0100
0001
0000
0000
0000
0000
0000
0000
,
0000
0000
0001
1000
0010
1000
0100
0010
0001
0100
0010
1000
0100
0010
0001
0000
,
0100
0000
0010
0000
1000
0100
0010
0001
0100
0010
1000
0000
0100
0000
0010
0000
,
0001
0000
0100
0000
0010
1000
0001
1000
0001
0000
1000
0001
0000
1000
2002
0000
,
0000
0000
0000
0000
0000
0003
3000
0000
0000
0000
0000
0000
0000
0000
0000
0000
;
