#TITLE:You're Makin Me High;
#SUBTITLE:(David Morales Classic Club Mix);
#ARTIST:Toni Braxton;
#TITLETRANSLIT:;
#SUBTITLETRANSLIT:;
#ARTISTTRANSLIT:;
#CREDIT:;
#BANNER:youremakinmehighdmccm.png;
#BACKGROUND:youremakinmehighdmccm-bg.png;
#LYRICSPATH:;
#CDTITLE:;
#MUSIC:youremakinmehighdmccm.mp3;
#OFFSET:-7.871;
#SAMPLESTART:46.900;
#SAMPLELENGTH:12.000;
#SELECTABLE:YES;
#BPMS:0.000=122.950;
#STOPS:;
#BGCHANGES:;
// cache tags:
#FIRSTBEAT:0.000;
#LASTBEAT:179.000;
#SONGFILENAME:Songs/new/youremakinmehighdmccm/youremakinmehighdmccm.sm;
#HASMUSIC:1;
#HASBANNER:1;
#MUSICLENGTH:98.672;
// end cache tags

//---------------dance-single - ----------------
#NOTES:
     dance-single:
     :
     Easy:
     3:
     0.203,0.204,0.000,0.122,0.000,128.000,0.000,12.000,0.000,0.000:  // measure 1
1000
0010
0100
0000
,  // measure 2
0001
0010
0100
0000
,  // measure 3
1000
0000
0010
0000
,  // measure 4
0100
0000
0100
0000
,  // measure 5
0001
1000
0001
0000
,  // measure 6
1000
0000
1000
0000
,  // measure 7
0010
0100
0010
0000
,  // measure 8
0001
0000
0001
0000
,  // measure 9
1000
0100
0010
0000
,  // measure 10
0100
0000
0100
0000
,  // measure 11
1000
0001
0010
0001
,  // measure 12
0100
0000
0010
0010
,  // measure 13
2000
0000
3100
0000
,  // measure 14
0010
0001
0010
0000
,  // measure 15
0002
0000
0103
0000
,  // measure 16
1000
0100
1000
0000
,  // measure 17
0020
0000
0130
0000
,  // measure 18
1000
0100
0010
0000
,  // measure 19
0001
0000
1000
0000
,  // measure 20
0010
0010
0010
0100
,  // measure 21
0001
0000
0000
1000
1000
0000
0010
0010
,  // measure 22
0000
0100
0100
0001
,  // measure 23
2000
0000
0010
3010
,  // measure 24
0100
0001
0100
0010
,  // measure 25
0002
0000
1000
0003
,  // measure 26
1000
0100
0010
0100
,  // measure 27
1000
0000
1000
0000
,  // measure 28
0010
0010
0010
0100
,  // measure 29
0002
0000
0000
0003
,  // measure 30
2000
0010
0010
3010
,  // measure 31
0200
0000
0000
0300
,  // measure 32
0020
0100
0100
0130
,  // measure 33
0001
1000
0000
1000
,  // measure 34
0000
0010
0000
0010
,  // measure 35
0000
0100
0000
0100
,  // measure 36
0010
0010
0010
0100
,  // measure 37
0001
0000
0000
1000
1000
0000
0100
0100
,  // measure 38
0000
0010
0001
0010
,  // measure 39
0200
0000
1000
1300
,  // measure 40
0010
0100
0001
0100
,  // measure 41
0002
0000
1000
0003
,  // measure 42
0100
0010
0100
0000
,  // measure 43
1000
0100
1000
0000
,  // measure 44
0010
0010
0010
0200
,  // measure 45
0000
0000
0000
0300
;

//---------------dance-single - ----------------
#NOTES:
     dance-single:
     :
     Medium:
     4:
     0.279,0.295,0.122,0.081,0.000,173.000,12.000,8.000,0.000,0.000:  // measure 1
1000
0010
0100
0100
,  // measure 2
0001
0010
0100
0100
,  // measure 3
1000
0001
1000
1000
,  // measure 4
0010
0100
0001
1000
,  // measure 5
0020
1000
0100
1030
,  // measure 6
0001
0001
1000
1000
,  // measure 7
0002
1000
0100
1003
,  // measure 8
0010
0100
0100
0001
,  // measure 9
1000
0100
0001
0010
,  // measure 10
0100
1000
0010
0100
,  // measure 11
0010
0000
0010
0000
1000
0000
0001
0001
,  // measure 12
0000
1000
0001
0100
,  // measure 13
0020
1000
1030
0001
,  // measure 14
1000
0100
1000
0010
,  // measure 15
0200
0001
0301
1000
,  // measure 16
0001
1000
1000
0001
,  // measure 17
0020
0100
0130
0001
,  // measure 18
1000
0010
0100
0100
,  // measure 19
0001
1000
0010
0100
,  // measure 20
0001
0101
0101
1010
,  // measure 21
1010
0000
0000
1000
1000
0000
0010
0010
,  // measure 22
0000
0100
0001
0100
,  // measure 23
0010
0000
0000
0100
0100
0000
0001
0001
,  // measure 24
0000
0010
0100
0010
,  // measure 25
0002
1000
1000
1003
,  // measure 26
0100
0010
1000
0100
,  // measure 27
1000
0010
0100
0001
,  // measure 28
1000
1010
1010
0101
,  // measure 29
0101
0000
1000
1000
,  // measure 30
0010
0000
0100
0001
,  // measure 31
0100
0000
0010
1000
,  // measure 32
0100
0000
0010
0001
,  // measure 33
0100
0100
0010
0010
,  // measure 34
1000
0100
1000
0010
,  // measure 35
0100
0100
0001
0001
,  // measure 36
0010
0110
0110
1001
,  // measure 37
1001
0000
0000
0100
0100
0000
0010
0010
,  // measure 38
0000
1000
0001
1000
,  // measure 39
0010
0000
0000
1000
1000
0000
0001
0001
,  // measure 40
0000
1000
0100
0010
,  // measure 41
2000
0001
0001
3001
,  // measure 42
0100
0001
0100
0100
,  // measure 43
0010
1000
0100
1000
,  // measure 44
0001
0000
0001
0000
0001
0000
1000
0200
,  // measure 45
0000
0000
0000
0300
;

//---------------dance-single - ----------------
#NOTES:
     dance-single:
     :
     Hard:
     7:
     0.398,0.340,0.172,0.203,0.041,238.000,17.000,20.000,0.000,0.000:  // measure 1
1000
0000
0110
0000
0001
1000
0100
0000
,  // measure 2
0010
0000
0011
0000
1000
0010
0100
0000
,  // measure 3
0001
0000
0110
0000
1000
0100
0001
0000
,  // measure 4
0100
0000
1100
0000
0010
0100
0001
0100
,  // measure 5
0000
0010
1000
0010
1000
0001
0100
1000
,  // measure 6
0010
0100
0001
0020
0000
0100
0000
0130
,  // measure 7
0000
1000
0100
1000
0100
0010
1000
0100
,  // measure 8
0001
0010
0100
0002
0000
0100
0000
0103
,  // measure 9
0000
1000
0010
0100
0001
0100
0001
0000
,  // measure 10
0010
0100
1000
0002
0000
1000
0000
1003
,  // measure 11
0000
0010
0100
0001
1000
0001
1000
0020
,  // measure 12
0000
1000
1030
0000
0001
0100
0001
0100
,  // measure 13
0002
1000
0010
0103
,  // measure 14
1000
0100
0010
0100
0000
0010
0010
0000
,  // measure 15
2000
0001
0100
3010
,  // measure 16
0100
0001
0100
0010
0000
1000
0100
1000
,  // measure 17
0020
0001
0100
1030
,  // measure 18
0100
0001
0000
0001
1000
0001
0100
0010
,  // measure 19
2000
0100
0100
3100
,  // measure 20
0010
0000
0110
0000
0110
0000
1000
1000
,  // measure 21
0002
0000
0003
0100
0100
0000
0010
0010
,  // measure 22
0000
1000
0100
1000
0010
0000
0100
0100
,  // measure 23
0002
0000
0003
1000
1000
0000
0010
0010
,  // measure 24
0000
0100
0001
0100
0010
1000
0100
2000
,  // measure 25
0020
0000
0030
0000
0010
0010
3010
0000
,  // measure 26
0001
0000
0101
0000
0010
1000
0100
0010
,  // measure 27
0002
1000
1000
0103
,  // measure 28
1000
0000
1100
0000
1100
0000
0010
0001
,  // measure 29
0100
0000
0000
0000
0010
0000
0000
1000
0000
0000
1000
0000
0000
1000
0000
0000
,  // measure 30
0001
0000
0000
0000
0100
0000
0000
0010
0000
0000
0010
0000
0000
0010
0000
0000
,  // measure 31
1000
0000
0000
0000
0001
0000
0000
0100
0000
0000
0100
0000
0000
0100
0000
0000
,  // measure 32
0010
0000
0000
0000
1000
0000
0000
0001
0000
0000
0001
0000
0000
0001
0000
0000
,  // measure 33
0100
0110
1000
1100
,  // measure 34
0010
0011
0100
0101
,  // measure 35
0010
0000
1000
0001
1000
0000
0010
0000
,  // measure 36
0110
0000
0101
0000
1100
0000
1000
0010
,  // measure 37
2000
0000
3000
0001
0100
0000
0100
0010
,  // measure 38
0000
1000
0100
1000
0010
0000
0100
0100
,  // measure 39
0002
0000
0003
1000
1000
0000
0010
0010
,  // measure 40
0000
0100
0001
0010
0100
1000
0010
0200
,  // measure 41
2000
0000
3000
0000
0010
0010
0310
0000
,  // measure 42
0100
0000
0001
1000
0100
0010
0002
0100
,  // measure 43
0000
0103
0000
1000
0010
0000
0110
0000
,  // measure 44
0100
0001
0100
0010
1000
0000
0002
0200
,  // measure 45
0000
0000
0000
0303
;
