#TITLE:All Of Your Love;
#SUBTITLE:;
#ARTIST:Sanxion7;
#TITLETRANSLIT:;
#SUBTITLETRANSLIT:;
#ARTISTTRANSLIT:;
#CREDIT:;
#BANNER:bn.png;
#BACKGROUND:BG.png;
#LYRICSPATH:;
#CDTITLE:!rebirth.PNG;
#MUSIC:sanxion7+allofyourlovesanxion7remix.ogg;
#OFFSET:-0.010;
#SAMPLESTART:51.280;
#SAMPLELENGTH:14.940;
#SELECTABLE:YES;
#DISPLAYBPM:140.000;
#BPMS:0.000=140.000,28.000=70.000,30.000=140.000,58.000=70.000,68.000=140.000,356.000=70.000,364.000=140.000,392.000=70.000,394.000=140.000;
#STOPS:;
#BGCHANGES:;
// cache tags:
#FIRSTBEAT:16.000;
#LASTBEAT:513.500;
#SONGFILENAME:Songs/lvsb tourney pack/All Of Your Love -Sanxion7--ITGREADY/Aoyl.sm;
#HASMUSIC:1;
#HASBANNER:0;
#MUSICLENGTH:105.000;
// end cache tags

//---------------dance-single - Cloud----------------
#NOTES:
     dance-single:
     Cloud:
     Challenge:
     11:
     1.000,1.000,0.990,1.000,1.000,1060.000,104.000,125.000,50.000,0.000:

0000
0000
0000
0000
,
0000
0000
0000
0000
,
0000
0000
0000
0000
,
0000
0000
0000
0000
,
0001
0000
0100
0010
1000
0000
0100
0000
0010
0000
0001
0100
0010
0000
0000
0000
,
0100
0000
0001
0010
0100
0000
0010
0000
0001
0000
0100
0010
1000
0000
0000
0000
,
0001
0000
1000
0010
0100
0000
0001
0000
0010
0000
0100
1000
0010
0000
0000
0000
,
0001
0000
0000
0000
0000
0000
0000
0000
0000
0000
0000
0000
0100
0000
0000
0000
0000
0000
0000
0000
0000
0000
0000
0000
0110
0000
0000
0000
0000
0000
0000
0000
0000
0000
0000
0000
1000
0000
0000
0000
0000
0000
0000
0000
0000
0000
0000
0000
0100
0000
0000
0000
0000
0000
0000
0000
0000
0000
0000
0000
0010
0000
0000
0000
0000
0000
0000
0000
0000
0000
0000
0000
0101
0000
0000
0000
0000
0000
0000
0000
0000
0000
0000
0000
0100
0000
0000
0000
0000
0000
0000
0000
0000
0000
0000
0000
1020
0000
0000
0000
0000
0000
0000
0000
0000
0000
0000
0000
0000
0000
0000
0000
0030
0000
0000
0000
0000
0000
0000
0000
1000
0000
0000
0000
0000
0000
0000
0000
0000
0000
0000
0000
0000
0000
0000
0000
0000
0000
0000
0000
0000
0000
0000
0000
0010
0000
0000
0000
0000
0000
0000
0000
0000
0000
0000
0000
0000
0000
0000
0000
0000
0000
0000
0000
0000
0000
0000
0000
0202
0000
0000
0303
0000
0000
0000
0000
0000
0000
0000
0000
0000
0000
0000
0000
0000
0000
0000
0000
0000
0000
0000
0000
,
0001
0000
0000
0000
0000
0000
0000
0000
0010
0000
0000
0000
0000
0000
0000
0000
0220
0330
0000
0000
0000
0000
0000
0000
0100
0000
0000
0000
0000
0000
0000
0000
1000
0000
0000
0000
0000
0000
0000
0000
0010
0000
0000
0000
0000
0000
0000
0000
0100
0000
0000
0000
0000
0000
0000
0000
0220
0330
0000
0000
0000
0000
0000
0000
,
0010
0000
0000
0000
0000
0000
0000
0000
1000
0000
0000
0000
0000
0000
0000
0000
2200
3300
0000
0000
0000
0000
0000
0000
0010
0000
0000
0000
0000
0000
0000
0000
0001
0000
0000
0000
0000
0000
0000
0000
1000
0000
0000
0000
0000
0000
0000
0000
0100
0000
0000
0000
0000
0000
0000
0000
2200
3300
0000
0000
0000
0000
0000
0000
,
1000
0000
0000
0000
0000
0000
0000
0000
0001
0000
0000
0000
0000
0000
0000
0000
2002
3003
0000
0000
0000
0000
0000
0000
1000
0000
0000
0000
0000
0000
0000
0000
0010
0000
0000
0000
0000
0000
0000
0000
0100
0000
0000
0000
0000
0000
0000
0000
0001
0000
0000
0000
0000
0000
0000
0000
0202
0303
0000
0000
0000
0000
0000
0000
,
0100
0000
0000
0000
0000
0000
0000
0000
0010
0000
0000
0000
0000
0000
0000
0000
2020
3030
0000
0000
0000
0000
0000
0000
1000
0000
0000
0000
0000
0000
0000
0000
0210
0000
0000
0000
0300
0000
0000
0000
0010
0000
0000
0000
0000
0000
0000
0000
0100
0000
0000
0000
0000
0000
0000
0000
2200
3300
0000
0000
0000
0000
0000
0000
,
1000
0000
0000
0000
0000
0000
0000
0000
0001
0000
0000
0000
0000
0000
0000
0000
0202
0303
0000
0000
0000
0000
0000
0000
0100
0000
0000
0000
0000
0000
0000
0000
0010
0000
0000
0000
0000
0000
0000
0000
1000
0000
0000
0000
0000
0000
0000
0000
0010
0000
0000
0000
0000
0000
0000
0000
2020
3030
0000
0000
0000
0000
0000
0000
,
1000
0000
0000
0000
0000
0000
0000
0000
0001
0000
0000
0000
0000
0000
0000
0000
0202
0303
0000
0000
0000
0000
0000
0000
0100
0000
0000
0000
0000
0000
0000
0000
0010
0000
0000
0000
0000
0000
0000
0000
1000
0000
0000
0000
0000
0000
0000
0000
0100
0000
0000
0000
0000
0000
0000
0000
0220
0330
0000
0000
0000
0000
0000
0000
,
0010
0000
0000
0000
0000
0000
0000
0000
0001
0000
0000
0000
0000
0000
0000
0000
2002
3003
0000
0000
0000
0000
0000
0000
1000
0000
0000
0000
0000
0000
0000
0000
0010
0000
0000
0000
0M01
0000
0000
0000
0M10
0000
0000
0000
2000
0000
3000
0000
001M
0000
0000
0000
0100
0000
0000
0000
M002
0000
0003
0000
0010
0000
0000
0000
,
1200
0000
00M0
0000
030M
0000
0000
0000
M000
0000
0000
0000
00M0
0000
0000
0000
0000
0000
0000
0000
M000
000M
0000
0000
0000
0000
0000
0000
00M0
0000
0000
0000
,
0000
M000
0000
000M
0000
0000
0000
0M00
0000
0000
00M0
0000
0000
M000
0000
0000
,
0200
0300
1000
0000
0020
0030
0100
0000
0002
0003
0100
0000
0020
0030
2000
3000
,
0010
0000
0002
0003
0010
0000
0002
0003
0010
0000
0002
0003
0020
0030
2000
3000
,
0002
0003
0010
0000
0200
0300
1000
0000
0020
0030
0100
0000
0002
0003
2000
3000
,
0001
0000
2000
3000
0001
0000
2000
3000
0001
0000
0200
0300
0020
0030
2000
3000
,
0002
0003
0100
0000
0020
0030
0100
0000
0002
0003
0010
0000
0200
0300
0002
0003
,
0100
0000
2000
3000
0100
0000
2000
3000
0100
0000
2000
3000
0002
0003
0200
0300
,
0020
0030
0100
0000
2000
3000
0100
0000
0002
0003
0010
0000
0200
0300
2000
3000
,
0010
0000
0200
0300
0001
0000
0020
0030
0100
0000
2000
3000
0020
0030
0200
0300
,
1002
0000
1003
0000
1010
0000
0010
0100
0001
1000
0010
0000
1010
0000
4000
0000
,
0100
0000
3000
0000
M010
0000
0100
0001
0100
0010
1000
0000
1010
0000
0400
0000
,
0001
0000
0300
0000
0M10
0000
1000
0001
0100
0010
1000
0000
1001
0000
0004
0000
,
0010
0000
0003
0000
010M
0000
0010
0100
0001
0100
0010
0000
1010
0000
1000
0000
,
0120
0130
1000
0010
0100
0001
0010
1000
,
0010
0001
0010
1000
0010
0001
0100
0010
,
1010
0000
0010
0000
0100
0000
0001
1000
0001
1000
0010
0000
0110
0000
0100
0000
,
1001
0000
0010
0000
0100
0000
0001
1000
0010
0100
0001
1000
0100
1000
0010
1000
,
1200
0010
0001
0010
1300
0010
0100
0010
,
0120
0001
0100
2030
3100
1100
0110
0010
,
0001
0100
1000
0100
0001
0010
0100
1000
,
0010
0100
1000
0002
0000
0000
0013
1000
,
1200
0010
0001
0010
1300
0010
0001
0010
,
1020
0100
0001
2030
0000
3100
0010
0001
,
0011
0010
1010
0010
0011
0010
1000
0010
,
MMM2
0000
02M3
0000
M32M
0000
0M32
0000
M0M0
0000
0023
0000
0M00
0000
0000
0030
,
1000
0100
1000
0100
1000
0100
4000
0100
0000
0100
3000
0100
0010
0000
0002
0000
,
0000
0000
0000
0000
0200
0000
0000
0000
0000
0000
0000
0000
0003
0000
0000
0300
,
0010
0100
0010
0100
0010
0100
0040
0100
0000
0100
0030
0100
0001
0000
0020
0000
,
0000
0000
0230
0000
2000
0300
0002
0000
0000
0000
0000
0000
0000
0003
0000
3000
,
0001
0010
0001
0010
0001
0010
0004
0010
0000
0010
0003
0010
0100
0000
2000
0000
,
0000
0000
0000
0000
0002
0000
0000
0000
0000
0000
0000
0000
0000
0003
0000
3000
,
0001
0100
0001
0100
0001
0100
0004
0100
0000
0100
0000
0103
0010
0000
2000
0000
,
0000
0000
0200
3000
0020
0300
0002
0030
0000
0000
0000
0003
0010
0001
1000
0001
,
1001
0000
0100
0000
1001
0000
0010
0100
0010
0100
0010
0000
1010
0000
1000
0000
,
0100
0000
0001
0000
0100
0000
1000
0100
1000
0100
0010
0000
0011
0000
0001
0000
,
0100
0000
0010
0000
1000
0000
0001
1000
0001
1000
0001
0000
1010
0000
1000
0000
,
0100
0000
0010
0000
0001
0000
0010
0100
1000
0100
0010
0000
0100
0000
0010
0001
,
0101
0000
0100
0000
0010
0000
1000
0100
1000
0001
1000
0000
1001
0000
0100
0000
,
0010
0000
1000
0000
0100
0000
0010
0100
1000
0100
1000
0000
1010
0000
0100
0000
,
0001
0000
0100
0000
0010
0000
1000
0001
0010
0001
1000
0000
1010
0000
0010
0000
,
0100
0000
0001
0000
0010
0000
0100
1000
0010
1000
0100
0000
1100
0000
0010
0001
,
1001
0000
1000
0000
0010
0000
0100
0010
1000
0010
1000
0000
1010
0000
0010
0000
,
0100
0000
0001
0000
0010
0000
0100
1000
0100
0010
0100
0000
1100
0000
1000
0000
,
0010
0000
0100
0000
0001
0000
0100
0010
1000
0010
0100
0000
0101
0000
0010
0000
,
0100
0000
1000
0000
0010
0000
0100
0001
1000
0001
0100
0010
1000
0010
0100
0001
,
0010
0000
0100
0000
1100
0000
1000
0100
1000
0100
1000
0000
0101
0000
0010
0000
,
1000
0000
0010
0000
0100
0000
0010
1000
0010
1000
0010
0000
0101
0000
0010
0000
,
0100
0000
1000
0000
1010
0000
0100
0001
0100
0001
0010
0000
0011
0000
0010
0000
,
1100
0000
0000
0000
0100
0000
1000
0000
0010
0000
0100
0000
0010
0000
1000
0000
0001
1000
0001
0000
0100
0000
0010
0000
1000
0001
1000
0000
0010
0000
0100
0000
,
4002
0000
0000
0000
0003
3001
0100
1000
,
0010
0001
0100
0010
0100
0010
1000
0100
,
0001
0010
1000
0100
1000
M200
0000
1300
,
0010
0001
0200
0000
0000
0310
1000
0100
,
0012
0100
0100
0100
0103
0010
1000
0100
,
0210
1000
1000
1000
1300
0010
0100
0001
,
2M10
0001
0001
0001
0001
0001
0001
3001
,
0101
0000
0000
0000
0000
0000
0000
0000
0000
0000
0000
0000
0100
0000
0000
0000
0000
0000
0000
0000
0000
0000
0000
0000
0010
0000
0000
0000
0000
0000
0000
0000
0000
0000
0000
0000
1000
0000
0000
0000
0000
0000
0000
0000
0000
0000
0000
0000
0010
0000
0000
0000
0000
0000
0000
0000
0000
0000
0000
0000
0100
0000
0000
0000
0000
0000
0000
0000
0000
0000
0000
0000
0001
0000
0000
0000
0000
0000
0000
0000
0000
0000
0000
0000
0010
0000
0000
0000
0000
0000
0000
0000
0000
0000
0000
0000
0100
0000
0000
0000
0000
0000
1000
0000
0000
0000
0000
0000
0100
0000
0000
0000
0000
0000
0000
0000
0000
0000
0000
0000
0010
0000
0000
0000
0000
0000
0000
0000
0000
0000
0000
0000
0001
0000
0000
0000
0000
0000
0000
0000
0000
0000
0000
0000
1000
0000
0000
0000
0000
0000
0000
0000
0001
0000
0000
0000
0000
0000
0000
0000
1000
0000
0000
0000
0000
0000
0000
0000
0001
0000
0000
0000
0000
0000
0000
0000
1000
0000
0000
0000
0000
0000
0000
0000
0001
0000
0000
0000
0000
0000
0000
0000
,
0100
0010
1000
0100
0001
0100
1000
0010
,
0100
1000
0100
1000
0100
0010
1000
0100
,
0001
0100
1000
0100
0010
0100
1000
0010
,
0100
0010
0001
0010
0100
0010
1000
0100
,
1100
1000
0010
0100
0001
0010
0001
0100
,
0010
1010
0010
0110
0100
0001
0010
0100
,
0011
0001
0100
0010
0100
1000
0100
0010
,
1100
0000
0000
0000
0000
0000
0000
0000
0000
0000
0000
0000
0000
0000
0000
0000
0000
0000
0000
0000
0000
0000
0000
0000
0100
0000
0000
0000
0000
0000
0000
0000
0000
0000
0000
0000
0000
0000
0000
0000
0000
0000
0000
0000
0000
0000
0000
0000
1000
0000
0000
0000
0000
0000
0000
0000
0000
0000
0000
0000
0100
0000
0000
0000
0000
0000
0000
0000
0000
0000
0000
0000
0010
0000
0000
0000
0000
0000
0000
0000
0000
0000
0000
0000
0001
0000
0000
0000
0000
0000
0000
0000
0000
0000
0000
0000
1000
0000
0000
0000
0000
0000
0001
0000
0000
0000
0000
0000
1000
0000
0000
0000
0000
0000
0000
0000
0000
0000
0000
0000
0010
0000
0000
0000
0000
0000
0000
0000
0000
0000
0000
0000
0100
0000
0000
0000
0000
0000
0000
0000
0000
0000
0000
0000
0001
0000
0000
0000
0000
0000
0000
0000
0100
0000
0000
0000
0000
0000
0000
0000
0010
0000
0000
0000
0000
0000
0000
0000
1000
0000
0000
0000
0000
0000
0000
0000
0010
0000
0000
0000
0000
0000
0000
0000
0100
0000
0000
0000
0000
0000
0000
0000
,
0001
1010
MMMM
0100
0001
0020
0000
0130
,
MMMM
1001
MMMM
0001
0100
2000
0000
3100
,
MMMM
0012
M2M3
0000
031M
1000
0100
0001
,
0200
0000
0000
0000
0000
0000
2000
0300
0000
0000
0002
3000
0000
0000
1003
0000
,
1100
0000
0100
0000
0010
0000
0001
0100
0000
0001
1000
0000
0100
0000
0010
0000
,
0100
0000
1000
0000
0010
0000
0100
0001
0000
1000
0010
0000
0100
0000
0001
0000
,
0011
0000
0010
0000
0100
0000
1000
0010
0000
0100
0001
0000
0010
0000
0100
0000
,
0011
0000
0000
0000
0000
0000
0000
0000
0000
0000
0000
0000
0001
0000
0000
0000
0000
0000
0000
0000
0000
0000
0000
0000
0100
0000
0000
0000
0000
0000
0000
0000
0000
0000
0000
0000
0010
0000
0000
0000
0000
0000
0000
0000
0000
0000
0000
0000
1000
0000
0000
0000
0000
0000
0000
0000
0000
0000
0000
0000
0010
0000
0000
0000
0000
0000
0000
0000
0000
0000
0000
0000
0100
0000
0000
0000
0000
0000
0000
0000
0000
0000
0000
0000
0001
0000
0000
0000
0000
0000
0000
0000
0000
0000
0000
0000
0010
0000
0000
0000
0000
0000
0001
0000
0000
0000
0000
0000
0010
0000
0000
0000
0000
0000
0000
0000
0000
0000
0000
0000
0001
0000
0000
0000
0000
0000
0000
0000
0000
0000
0000
0000
0100
0000
0000
0000
0000
0000
0000
0000
0000
0000
0000
0000
0010
0000
0000
0000
0000
0000
0000
0000
1000
0000
0000
0000
0000
0000
0000
0000
0010
0000
0000
0000
0000
0000
0000
0000
0100
0000
0000
0000
0000
0000
0000
0000
0001
0000
0000
0000
0000
0000
0000
0000
0010
0000
0000
0000
0000
0000
0000
0000
,
0200
0300
1000
0000
0010
0000
0100
0000
0001
0000
0010
0000
0100
0000
1000
0000
,
0010
0000
0000
0000
0100
0000
0000
0000
0010
0000
0000
0000
1000
0000
0000
0000
0001
0010
0100
0010
1000
0010
0100
0010
0001
0100
0010
0100
1000
0100
0010
1000
,
0100
1000
1001
0001
0101
0100
0110
0100
,
0010
1000
0100
0002
0000
0103
0010
0100
,
1100
1000
1010
0010
0110
0100
0101
0001
,
0010
0100
1000
0020
0000
0000
0230
0000
,
0310
1000
0010
0100
0010
0001
0010
1000
,
0100
0010
0100
0004
0000
0103
1000
1000
,
0010
0100
0001
1000
0001
0100
0010
1000
,
0100
0000
0000
0010
0000
0000
0100
0000
0000
2000
0000
0000
0000
0000
0000
3001
0000
0000
0100
0010
0100
0010
0100
0010
1000
0000
0000
0100
0000
0000
1000
0000
0000
0100
0000
0000
1000
0000
0000
0100
0000
0000
4000
0000
0000
0100
0000
0000
,
0000
0100
3000
0100
0010
0000
0002
0000
0000
0000
0000
0000
0200
0000
0000
0000
,
0000
0000
0000
0000
0000
0000
0303
0000
0001
0100
0001
0100
0001
0100
0004
0100
,
0000
0100
0003
0100
0010
0000
2000
0000
0000
0000
0020
3000
0002
0030
0020
0003
,
0000
0000
0000
0000
0000
0000
0000
0030
0100
0010
0100
0010
0100
0010
0400
0010
,
0000
0010
0300
0010
1000
0000
0002
0000
0000
0000
0000
0000
0020
0000
0000
0000
,
0000
0000
0000
0000
0000
0033
0000
0000
0001
1000
0001
1000
0001
1000
0004
1000
,
0000
1000
0003
1000
0010
0000
0100
0000
1001
0000
0100
0000
0010
1000
0100
1000
,
0001
0000
0000
0000
0000
0000
0100
0000
0000
0000
0000
0000
0001
0000
0000
0000
0000
0000
0000
0000
0000
0000
0000
0000
1000
0000
0000
0000
0000
0000
0000
0000
0000
0000
0000
0000
0010
0000
0000
0000
0000
0000
0000
0000
0000
0000
0000
0000
0100
0000
0000
0000
0000
0000
0000
0000
0001
0000
0000
0000
0000
0000
0000
0000
0100
0000
0000
0000
0000
0000
0000
0000
0001
0000
0000
0000
0000
0000
0000
0000
0100
0000
0000
0000
0000
0000
0000
0000
0001
0000
0000
0000
0000
0000
0000
0000
1000
0000
0000
0000
0000
0000
0000
0000
0000
0000
0000
0000
0000
0000
0000
0000
0000
0000
0000
0000
0000
0000
0000
0000
0010
0000
0000
0000
0000
0000
0000
0000
0000
0000
0000
0000
0000
0000
0000
0000
0000
0000
0000
0000
0000
0000
0000
0000
1001
0000
0000
0000
0000
0000
0000
0000
0000
0000
0000
0000
0000
0000
0000
0000
0000
0000
0000
0000
0000
0000
0000
0000
0100
0000
0000
0000
0000
0000
0000
0000
0000
0000
0000
0000
0010
0000
0000
0000
0000
0000
0000
0000
0000
0000
0000
0000
,
0100
0010
0100
0000
0101
0000
0001
0000
0010
0000
1000
0000
0010
0000
0001
0010
,
0001
0010
0100
0000
1100
0000
1000
0000
0010
0000
0100
0000
0001
0000
1000
0001
,
1000
0001
1000
0000
0101
0000
0001
0000
0010
0000
0100
0000
1000
0000
0100
0010
,
0001
0010
0100
0000
0010
0000
0100
1000
1010
0000
0010
0000
0100
0000
0001
0010
,
0001
1000
0001
0000
1001
0000
0010
0000
0100
0000
0001
0000
0010
0000
0100
0010
,
0001
0010
0001
0000
0101
0000
0010
0000
1000
0000
0010
0000
0100
0000
0001
1000
,
0100
1000
0001
0000
0101
0000
0100
0000
0010
0000
1000
0000
0100
0000
0010
0001
,
0100
0001
0010
0000
0011
0000
0100
1000
1001
0000
0001
0000
0100
0000
0010
0100
,
0001
0100
0001
0000
0101
0000
0100
0000
0010
0000
1000
0000
0100
0000
0010
0001
,
0010
0100
0010
0000
0011
0000
0001
0000
0100
0000
0010
0000
1000
0000
0010
0100
,
0001
0100
0010
0000
1010
0000
1000
0000
0001
0000
0010
0000
0100
0000
0100
1000
,
0001
1000
0010
0100
0001
0100
0010
1000
0100
0000
0010
0000
0011
0000
0001
0010
,
0001
0010
0001
0000
1010
0000
0100
0000
0001
0000
0100
0000
0010
0000
0100
0001
,
0100
0001
0100
0000
1010
0000
0100
0000
0010
0000
0001
0000
0101
0000
0010
1000
,
0010
1000
0100
0000
1100
0000
0100
0000
0011
0000
0010
0001
0100
0010
0100
0001
,
1000
0001
1000
0000
0010
0000
0100
0000
0001
1000
0001
0000
0100
0000
0010
0000
1001
0000
0000
0000
0000
0000
0000
0000
0000
0000
0000
0000
0000
0000
0000
0000
,
0000
0000
0000
0000
,
0000
0000
0000
0000
,
0000
0000
0000
0000
,
0000
0000
0000
0000
,
0000
0000
0000
0000
,
0000
0000
0000
0001
0000
0000
0000
0000
;
