#TITLE:Final audition 3 U.F;
#SUBTITLE:;
#ARTIST:Banya;
#TITLETRANSLIT:;
#SUBTITLETRANSLIT:;
#ARTISTTRANSLIT:;
#CREDIT:;
#BANNER:Final audition 3 U.F.png;
#BACKGROUND:BanYa - Final Audition 3 U.F-bg.jpg;
#LYRICSPATH:;
#CDTITLE:KOMBO.png;
#MUSIC:final audition 3.mp3;
#OFFSET:-0.165;
#SAMPLESTART:63.820;
#SAMPLELENGTH:14.020;
#SELECTABLE:YES;
#BPMS:0.000=130.501;
#STOPS:;
#BGCHANGES:;
// cache tags:
#FIRSTBEAT:12.000;
#LASTBEAT:216.000;
#SONGFILENAME:Songs/Definitive Keyboard Megapack/Final audition 3 U.F [KOMBO]/Final audition 3 U.F.sm;
#HASMUSIC:1;
#HASBANNER:1;
#MUSICLENGTH:106.230;
// end cache tags

//---------------dance-single - KOMBO Steps----------------
#NOTES:
     dance-single:
     KOMBO Steps:
     Hard:
     13:
     1.000,1.000,1.000,0.038,1.000,660.000,205.000,4.000,0.000,2.000:

0000
0000
0000
0000
,
0000
0000
0000
0000
,
0000
0000
0000
0000
,
1001
0000
0000
0000
1001
0000
0000
0000
0110
0000
0000
0000
0010
0000
0001
0000
0000
0000
0010
0000
1100
0000
0000
0000
0011
0000
0000
0000
0000
1000
0100
0010
,
0001
0000
0100
0000
1010
0000
0100
1001
0000
0001
0010
0000
1001
0000
0000
0000
,
0001
0000
0000
0000
0010
0000
0000
0000
0110
0000
0000
0000
0000
0000
0110
0000
0000
0000
0001
0000
0010
0000
0000
0000
1001
0000
0000
0000
0000
0001
0010
0100
,
1000
0000
1000
0000
1010
0000
0010
1001
0000
0001
0100
0000
0010
0100
0001
0000
,
1010
0000
1001
0000
1001
0100
0000
0110
0000
0010
0001
0000
0101
0000
0000
0000
,
0101
0000
1000
0000
1010
0000
0001
0110
0000
0001
1000
0000
0110
0000
0000
0000
,
0001
0000
0010
0000
1010
0000
0100
1010
0000
0010
1001
0000
0101
0000
0000
0000
,
0001
0000
0010
0000
1001
0000
0000
0001
0000
0001
0110
0000
1010
0000
1001
0000
,
0001
0010
1001
0100
0011
0100
1000
0110
0001
0110
1000
0010
0101
1000
0010
1000
,
0011
1000
0110
0001
1100
0010
0101
1010
0001
0100
0010
1000
0110
1000
0001
1000
,
0101
1000
0011
0100
1001
0100
0011
0100
0001
1100
0110
0001
1100
0010
0100
1000
,
0101
0000
0000
0000
,
0001
0010
0001
0010
0000
0110
0000
0011
0000
0010
1000
0010
1000
0001
1000
0000
,
0001
0100
0001
0100
0000
0011
0000
1100
0000
0010
0001
0010
0001
0010
0100
0010
,
0100
1000
0100
1000
0000
0011
0000
0110
0000
0100
0010
0100
0010
0100
1000
0100
,
1000
0100
0010
0001
0000
0011
0000
1001
0000
0001
0010
0100
1000
0100
0010
0001
,
1010
0000
0100
0001
0110
0000
0010
1001
0000
0010
0101
0000
1010
0000
0000
0000
,
0110
0000
0011
0100
1001
0000
0010
1001
0000
0010
0100
0000
0101
0000
0010
0000
,
1001
1010
0000
0101
1010
1001
0000
0000
,
1001
0000
0110
0000
1001
0000
0011
0000
0100
0010
0001
0010
0100
1000
0011
0110
,
1100
0010
0100
0000
1001
0000
0110
1001
0000
0011
1100
0000
1100
0000
0101
0000
,
1001
0000
0001
0000
1001
0000
0010
1001
0000
0001
0010
0000
1001
0000
0010
0000
,
1010
0000
0000
0000
0000
0000
0001
0000
0000
0000
0000
0000
0110
0000
0000
0000
0000
0000
0000
0000
0000
0110
0000
0000
0000
0000
0000
0110
0000
0000
1001
0000
0000
0000
0000
0000
0001
0000
0010
0000
0100
0000
1000
0000
0100
0000
0010
0000
,
0001
0000
0000
0000
0000
0000
0000
0000
0010
0000
0000
0000
0000
0000
0000
0000
0100
0000
0000
0000
0000
0000
0000
0000
1000
0000
0000
0000
0000
0000
0000
0000
0100
0000
0000
0000
0000
0000
0000
0000
0010
0000
0000
0000
0000
0000
0000
0000
0001
0000
0000
0000
0000
0000
0000
0000
0000
0000
0000
0000
0010
0000
0000
0000
0000
0000
0000
0000
0000
0000
0000
0000
0100
0000
0000
0000
0000
0000
0000
0000
0000
0000
0000
0000
0000
0000
0000
0000
0000
0000
0000
0000
0000
0000
0000
0000
1000
0000
0000
0000
0000
0000
0000
0000
0000
0000
0000
0000
0000
0000
0000
0000
0000
0000
0000
0000
0000
0000
0000
0000
0010
0000
0000
0000
0000
0000
0000
0000
0000
0000
0000
0000
0000
0000
0000
0000
0000
0000
0000
0000
0000
0000
0000
0000
0011
0000
0000
0000
0000
0000
0000
0000
0000
0000
0000
0000
1000
0000
0000
0000
0000
0000
0000
0000
0000
0000
0000
0000
0011
0000
0000
0000
0000
0000
1000
0000
0000
0000
0000
0000
0100
0000
0000
0000
0000
0000
0010
0000
0000
0000
0000
0000
,
0001
1000
0010
0000
1001
0000
0110
0001
1000
0011
0100
0000
1010
0000
0001
0000
,
0110
0000
0001
0000
1001
0000
0001
1010
0000
0100
0010
0000
1001
0000
0010
0000
,
0101
0000
0000
0000
1010
0000
0000
0000
0110
0000
0000
0000
0001
0000
0010
0000
0100
0000
0001
0010
0100
1000
0100
0010
0001
0010
0100
1000
0100
0010
0001
0010
,
0100
1000
0100
0010
0001
0010
0100
1000
0100
0010
0001
0010
0100
1000
0100
0010
0001
0000
0000
0000
0010
0000
0000
0000
0000
0000
0000
0100
0010
0001
0010
0100
,
1000
0100
0010
0000
1001
0000
0010
1100
0000
0100
1001
0000
1010
0000
0001
1000
,
0110
0000
0010
0000
1000
0000
0010
1001
0100
1010
0100
0000
0101
0000
1010
0000
,
0101
1001
0000
0010
1001
0011
0000
0000
,
0011
1100
0011
0000
1010
0101
1010
0000
0001
1100
0001
1000
0101
0010
1001
0110
,
1001
0010
0100
1000
0011
1000
0100
1000
0101
0010
0100
0010
0101
1000
0100
0010
,
1001
0010
0100
1000
0011
0100
0001
0010
1100
0010
0100
0010
0101
0010
0001
0010
,
1100
0010
0100
1000
0011
1000
0010
0100
1001
0010
0100
0001
1010
0100
0001
0010
,
1100
0010
0100
0010
0101
1000
0001
1000
0011
0100
0001
0010
0101
1000
0001
0010
,
0100
0000
0010
0000
0001
0000
0010
0000
0100
0000
1000
0000
0100
0000
0000
0010
0000
0000
0100
0000
0000
0010
0000
0000
0001
0000
0010
0000
0100
0000
1000
0000
0001
0000
0010
0000
0100
0000
0000
0010
0000
0000
0100
0000
0000
1000
0000
0000
,
0010
0000
0000
0000
0000
0000
0000
0000
0000
0000
0000
0000
1000
0000
0000
0000
0000
0000
0000
0000
0000
0000
0000
0000
0010
0000
0000
0000
0000
0000
0000
0000
0000
0000
0000
0000
0100
0000
0000
0000
0000
0000
0000
0000
0000
0000
0000
0000
0010
0000
0000
0000
0000
0000
0001
0000
0000
0000
0000
0000
0010
0000
0000
0000
0000
0000
0100
0000
0000
0000
0000
0000
1000
0000
0000
0000
0000
0000
0100
0000
0000
0000
0000
0000
0010
0000
0000
0000
0000
0000
0001
0000
0000
0000
0000
0000
0010
0000
0000
0000
0000
0000
0000
0000
0000
0000
0000
0000
1000
0000
0000
0000
0000
0000
0100
0000
0000
0000
0000
0000
0010
0000
0000
0000
0000
0000
0001
0000
0000
0000
0000
0000
0010
0000
0000
0000
0000
0000
0100
0000
0000
0000
0000
0000
1000
0000
0000
0000
0000
0000
0000
0000
0100
0000
0000
0000
0000
0000
0000
0000
0010
0000
0000
0000
0000
0000
0000
0000
0001
0000
0000
0000
0000
0000
0010
0000
0000
0000
0000
0000
0100
0000
0000
0000
0000
0000
1000
0000
0000
0000
0000
0000
,
0001
0000
0000
0000
0000
0000
0000
0000
0010
0000
0000
0000
0000
0000
0000
0000
0100
0000
0000
0000
0000
0000
0000
0000
1000
0000
0000
0000
0000
0000
0000
0000
0100
0000
0000
0000
0000
0000
0000
0000
0010
0000
0000
0000
0000
0000
0000
0000
0001
0000
0000
0000
0000
0000
0010
0000
0000
0000
0000
0000
0100
0000
0000
0000
0000
0000
1000
0000
0000
0000
0000
0000
0001
0000
0000
0000
0000
0000
0010
0000
0000
0000
0000
0000
0100
0000
0000
0000
0000
0000
1000
0000
0000
0000
0000
0000
0001
0000
0000
0000
0000
0000
0000
0000
0010
0000
0000
0000
0000
0000
0000
0000
0100
0000
0000
0000
0000
0000
0000
0000
1000
0000
0000
0000
0000
0000
0000
0000
0100
0000
0000
0000
0000
0000
0000
0000
0010
0000
0000
0000
0000
0000
0000
0000
0001
0000
0000
0000
0000
0000
0010
0000
0000
0000
0000
0000
0100
0000
0000
0000
0000
0000
1000
0000
0000
0000
0000
0000
0100
0000
0000
0000
0000
0000
0010
0000
0000
0000
0000
0000
0001
0000
0000
0000
0000
0000
0010
0000
0000
0000
0000
0000
,
0100
0000
0000
0000
0000
0000
0000
0000
0000
0000
0000
0000
1000
0000
0000
0000
0000
0000
0000
0000
0000
0000
0000
0000
0100
0000
0000
0000
0000
0000
0000
0000
0000
0000
0000
0000
0010
0000
0000
0000
0000
0000
0000
0000
0000
0000
0000
0000
0001
0000
0000
0000
0000
0000
0010
0000
0000
0000
0000
0000
0100
0000
0000
0000
0000
0000
0000
0000
0000
0000
0000
0000
2002
0000
0000
0000
0000
0000
0000
0000
0000
0000
0000
0000
0000
0000
0000
0000
0000
0000
0000
0000
0000
0000
0000
0000
0000
0000
0000
0000
0000
0000
0000
0000
0000
0000
0000
0000
0000
0000
0000
0000
0000
0000
0000
0000
0000
0000
0000
0000
0000
0000
0000
0000
0000
0000
0000
0000
0000
0000
0000
0000
0000
0000
0000
0000
0000
0000
0000
0000
0000
0000
0000
0000
0000
0000
0000
0000
0000
0000
0000
0000
0000
0000
0000
0000
0000
0000
0000
0000
0000
0000
0000
0000
0000
0000
0000
0000
0000
0000
0000
0000
0000
0000
0000
0000
0000
0000
0000
0000
0000
0000
0000
0000
3000
0000
0003
0000
0000
0000
0000
0000
,
2020
0000
0000
0000
0000
0000
0000
0000
3030
0000
1100
0100
0011
0000
0000
0000
,
0000
0000
0011
0010
1100
0000
0000
0000
0000
0001
1000
0010
1001
0100
0001
1000
,
0110
1000
0011
0100
1010
0100
1001
0010
1001
0010
0101
0010
1100
0001
0110
1000
,
0101
1000
0110
1000
0011
0100
1001
0100
1010
0100
1001
0010
1100
0010
1001
0100
,
1001
0100
1010
0001
0110
0001
1010
0001
1100
0010
0101
1000
0011
1000
0101
0010
,
1001
0100
1010
0001
0110
1000
0101
1000
0011
0100
1010
0001
1100
0010
0101
0010
,
1100
0010
0001
1100
0011
1000
0001
1000
0011
1000
0001
0100
1010
0100
0010
0100
,
0011
0100
0001
0010
1100
0001
0010
0001
1010
0100
0001
0010
1100
0001
0100
0001
,
0110
1000
0011
0100
1010
0001
0010
0100
0010
1000
0001
1000
0110
1000
0001
0100
,
0010
0100
0001
1000
0011
1000
0010
0100
1000
0001
0100
0001
1100
0010
0001
0100
,
1000
0010
0100
1000
0101
1000
0010
0100
0001
1000
0001
0000
0011
0000
0111
0000
,
1111
0000
0000
0000
;
