#TITLE:CrunkStream;
#SUBTITLE:;
#ARTIST:Kommisar;
#TITLETRANSLIT:;
#SUBTITLETRANSLIT:;
#ARTISTTRANSLIT:;
#CREDIT:;
#BANNER:Crunkbn.jpg;
#BACKGROUND:crunk.jpg;
#LYRICSPATH:;
#CDTITLE:cdtitle.png;
#MUSIC:CRUNKSTREAMFINAL_0001.mp3;
#OFFSET:1.605;
#SAMPLESTART:100.000;
#SAMPLELENGTH:12.000;
#SELECTABLE:YES;
#BPMS:0.000=140.000,228.000=160.000;
#STOPS:;
#BGCHANGES:;
// cache tags:
#FIRSTBEAT:4.000;
#LASTBEAT:376.083;
#SONGFILENAME:Songs/Hard Songs Megapack Volume 9/CrunkStream/CRUNKSTREAMFINAL_0001.sm;
#HASMUSIC:1;
#HASBANNER:1;
#MUSICLENGTH:155.379;
// end cache tags

//---------------dance-single - ----------------
#NOTES:
     dance-single:
     :
     Hard:
     13:
     1.000,1.000,0.830,0.257,1.000,1998.000,129.000,40.000,32.000,34.000:
0000
0000
0000
0000
,
0010
1000
0010
1000
0011
1000
0010
1000
0010
1000
0010
1000
0011
1000
0011
1000
,
0010
1000
0010
1000
0011
1000
0010
1000
0010
1000
0010
1000
0011
1000
0011
1000
,
0010
1000
0010
1000
0011
1000
0010
1000
0010
1000
0010
1000
0011
1000
0011
1000
,
0010
1000
0010
1000
0011
1000
0010
1000
0010
1000
0010
1000
0011
1000
0011
0100
,
1001
0100
1000
0100
0011
0100
1000
0100
1001
0100
1000
0100
0011
0100
0011
0100
,
1001
0100
1000
0100
0011
0100
1000
0100
1001
0100
1000
0100
0011
0100
0011
0100
,
1001
0100
1000
0100
0011
0100
1000
0100
1001
0100
1000
0100
0011
0100
0011
0100
,
1001
0100
1000
0100
0011
0100
1000
0100
1001
0100
1000
0100
0011
0100
0011
0100
,
0001
0100
1000
0001
0100
1000
0001
0100
1000
0001
0100
1000
0001
0100
1000
0001
0100
1000
0001
0100
1000
0001
0100
1000
,
0001
0010
0100
0001
0010
0100
0001
0010
0100
0001
0010
0100
0001
0010
0100
0001
0010
0100
0001
0010
0100
0001
0010
0100
,
0010
0100
1000
0010
0100
1000
0010
0100
1000
0010
0100
1000
0010
0100
1000
0010
0100
1000
0010
0100
1000
0010
0100
1000
,
0001
0010
1000
0001
0010
1000
0001
0010
1000
0001
0010
1000
0001
0010
1000
0001
0010
1000
0001
0010
1000
0001
0010
1000
,
0001
0100
1000
0001
0100
1000
0001
0100
1000
0001
0100
1000
0001
0100
1000
0001
0100
1000
0001
0100
1000
0001
0100
1000
,
0001
0010
0100
0001
0010
0100
0001
0010
0100
0001
0010
0100
0001
0010
0100
0001
0010
0100
0001
0010
0100
0001
0010
0100
,
0010
0100
1000
0010
0100
1000
0010
0100
1000
0010
0100
1000
0010
0100
1000
0010
0100
1000
0010
0100
1000
0010
0100
1000
,
0001
0010
1000
0001
0010
1000
0001
0010
1000
0001
0010
1000
0001
0010
1000
0001
0010
1000
0001
0010
1000
0001
0010
1000
,
0110
0001
1000
0001
0100
1000
0001
0100
1000
0001
0100
1000
0001
0100
1000
0001
0100
0001
1010
0100
1000
0011
0100
1000
,
0011
0100
1000
0001
0010
0100
0001
0010
0100
0001
0010
0100
0001
0010
0100
0001
0100
0010
1100
0010
0100
1001
0010
0100
,
1010
0100
1000
0010
0100
1000
0010
0100
1000
0010
0100
1000
0010
0100
1000
0010
0100
0010
1100
0010
1000
0010
0100
1000
,
0101
0010
1000
0001
0010
1000
0001
0010
1000
0001
0010
1000
0001
0010
1000
0001
0010
0001
1100
0010
1000
0001
0010
1000
,
0110
0001
1000
0001
0100
1000
0001
0100
1000
0001
0100
1000
0001
0100
1000
0001
0100
0001
1010
0100
1000
0011
0100
1000
,
0011
0100
1000
0001
0010
0100
0001
0010
0100
0001
0010
0100
0001
0010
0100
0001
0100
0010
1100
0010
0100
1001
0010
0100
,
1010
0100
1000
0010
0100
1000
0010
0100
1000
0010
0100
1000
0010
0100
1000
0010
0100
0010
1100
0010
1000
0010
0100
1000
,
0101
0010
1000
0001
0010
1000
0001
0010
1000
0001
0010
1000
0001
0010
1000
0001
0010
0001
1100
0010
1000
0001
0010
1000
,
0110
0000
0010
0000
0010
0100
0000
0010
0100
0000
0010
0000
1010
0100
0000
0010
,
0011
0000
0010
0000
0010
0100
0000
0010
0100
0000
1000
0000
1100
1000
0100
0001
,
1010
0000
0010
0000
0010
0100
0000
0010
0100
0000
0010
0000
1100
0100
0000
0010
,
0101
0000
0001
0000
0001
0100
0000
0001
0100
0000
0001
0000
1100
0100
0000
0001
,
0110
0000
0010
0000
0010
0100
0000
0010
0100
0000
0010
0000
1010
0100
1000
0010
,
0011
0000
0010
0000
0010
0100
0000
0010
0100
0000
1000
0000
1100
1000
0010
0001
,
1010
0000
0010
0000
0010
0100
0000
0010
0100
0000
0010
0000
1100
0100
0000
0010
,
0101
0000
0001
0000
0001
0100
0000
0001
0100
0000
0001
0000
1100
0100
0000
0010
,
12M1
0300
0000
0000
0000
0000
0000
0000
11M1
0000
0000
0000
0000
0000
0000
0000
11M1
0000
0000
0000
0000
0000
0000
0000
21M1
3000
0000
0000
0000
0000
0000
0000
,
M112
0003
0000
0000
0000
0000
0000
0000
M111
0000
0000
0000
0000
0000
0000
0000
M111
0000
0000
0000
0000
0000
0000
0000
M211
0300
0000
0000
0000
0000
0000
0000
,
112M
0030
0000
0000
0000
0000
0000
0000
111M
0000
0000
0000
0000
0000
0000
0000
111M
0000
0000
0000
0000
0000
0000
0000
211M
3000
0000
0000
0000
0000
0000
0000
,
1M12
0003
0000
0000
0000
0000
0000
0000
1M11
0000
0000
0000
0000
0000
0000
0000
1M11
0000
0000
0000
0000
0000
0000
0000
2M11
3000
0000
0000
0000
0000
0000
0000
,
12M1
0300
0000
0000
0000
0000
0000
0000
11M1
0000
0000
0000
0000
0000
0000
0000
11M1
0000
0000
0000
0000
0000
0000
0000
21M1
3000
0000
0000
0000
0000
0000
0000
,
M112
0003
0000
0000
0000
0000
0000
0000
M111
0000
0000
0000
0000
0000
0000
0000
M111
0000
0000
0000
0000
0000
0000
0000
M211
0300
0000
0000
0000
0000
0000
0000
,
112M
0030
0000
0000
0000
0000
0000
0000
111M
0000
0000
0000
0000
0000
0000
0000
111M
0000
0000
0000
0000
0000
0000
0000
211M
3000
0000
0000
0000
0000
0000
0000
,
1M12
0003
0000
0000
0000
0000
0000
0000
1M11
0000
0000
0000
0000
0000
0000
0000
1M11
0000
0000
0000
0000
0000
0000
0000
2M11
3000
0000
0000
0000
0000
0000
0000
,
1011
0100
1000
0001
0100
1000
0001
0100
1000
0001
0100
1000
0001
0100
1000
0001
0100
1000
0001
0100
1000
0001
0100
1000
0001
0100
1000
0001
0100
1000
0001
0100
1000
0001
0100
1000
0001
0100
1000
0001
0100
1000
0001
0100
1000
0001
0100
1000
,
0001
0010
0100
0001
0010
0100
0001
0010
0100
0001
0010
0100
0001
0010
0100
0001
0010
0100
0001
0010
0100
0001
0010
0100
0001
0010
0100
0001
0010
0100
0001
0010
0100
0001
0010
0100
0001
0010
0100
0001
0010
0100
0001
0010
0100
0001
0010
0100
,
0010
0100
1000
0010
0100
1000
0010
0100
1000
0010
0100
1000
0010
0100
1000
0010
0100
1000
0010
0100
1000
0010
0100
1000
0010
0100
1000
0010
0100
1000
0010
0100
1000
0010
0100
1000
0010
0100
1000
0010
0100
1000
0010
0100
1000
0010
0100
1000
,
0001
0010
1000
0001
0010
1000
0001
0010
1000
0001
0010
1000
0001
0010
1000
0001
0010
1000
0001
0010
1000
0001
0010
1000
0001
0010
1000
0001
0010
1000
0001
0010
1000
0001
0010
1000
0001
0010
1000
0001
0010
1000
0001
0010
1000
0001
0010
1000
,
0001
0100
1000
0001
0100
1000
0001
0100
1000
0001
0100
1000
0001
0100
1000
0001
0100
1000
0001
0100
1000
0001
0100
1000
0001
0100
1000
0001
0100
1000
0001
0100
1000
0001
0100
1000
0001
0100
1000
0001
0100
1000
0001
0100
1000
0001
0100
1000
,
0001
0010
0100
0001
0010
0100
0001
0010
0100
0001
0010
0100
0001
0010
0100
0001
0010
0100
0001
0010
0100
0001
0010
0100
0001
0010
0100
0001
0010
0100
0001
0010
0100
0001
0010
0100
0001
0010
0100
0001
0010
0100
0001
0010
0100
0001
0010
0100
,
0010
0100
1000
0010
0100
1000
0010
0100
1000
0010
0100
1000
0010
0100
1000
0010
0100
1000
0010
0100
1000
0010
0100
1000
0010
0100
1000
0010
0100
1000
0010
0100
1000
0010
0100
1000
0010
0100
1000
0010
0100
1000
0010
0100
1000
0010
0100
1000
,
0001
0010
1000
0001
0010
1000
0001
0010
1000
0001
0010
1000
0001
0010
1000
0001
0010
1000
0001
0010
1000
0001
0010
1000
0001
0010
1000
0001
0010
1000
0001
0010
1000
0001
0010
1000
0001
0010
1000
0001
0010
1000
0001
0010
1000
0001
0010
1000
,
0001
0010
0100
0000
0001
0000
0010
0000
0100
0000
1000
0000
0100
0000
0010
0000
0001
0010
0100
0000
0001
0000
0010
0000
0001
0000
0001
0000
0001
0000
0100
0000
,
0001
0010
0100
0000
0010
0000
0001
0000
0100
0000
0001
0000
0010
0000
0100
0000
0001
0010
0100
0000
0001
0000
0100
0000
0001
0000
0001
0000
0001
0000
0100
0000
,
0001
0010
0100
0000
0001
0000
0010
0000
0100
0000
0001
0000
0100
0000
0010
0000
0001
0010
0100
0000
0010
0000
0100
0000
0001
0000
0001
0000
0001
0000
0100
0000
,
0001
0010
0100
0000
0001
0000
0100
0000
0010
0000
0100
0000
0001
0000
0100
0000
0001
0010
0100
0000
1000
0000
0100
0000
0001
0000
0001
0000
0001
0000
0100
0000
,
0001
0010
0100
0000
0001
0000
0010
0000
0100
0000
1000
0000
0100
0000
0010
0000
0001
0010
0100
0000
0001
0000
0010
0000
0001
0000
0001
0000
0001
0000
0100
0000
,
0001
0010
0100
0000
0010
0000
0001
0000
0100
0000
0001
0000
0010
0000
0100
0000
0001
0010
0100
0000
0001
0000
0100
0000
0001
0000
0001
0000
0001
0000
0100
0000
,
0001
0010
0100
0000
0001
0000
0010
0000
0100
0000
0001
0000
0100
0000
0010
0000
0001
0010
0100
0000
0010
0000
0100
0000
0001
0000
0001
0000
0001
0000
0100
0000
,
0001
0010
0100
0000
0001
0000
0100
0000
0010
0000
0100
0000
0001
0000
0100
0000
0001
0010
0100
0000
1000
0000
0100
0000
0001
0000
0001
0000
0001
0000
0100
0000
,
0001
0100
1000
0001
0100
1000
0001
0100
1000
0001
0100
1000
0001
0100
1000
0001
0100
1000
0001
0100
1000
0001
0100
1000
,
0001
0010
0100
0001
0010
0100
0001
0010
0100
0001
0010
0100
0001
0010
0100
0001
0010
0100
0001
0010
0100
0001
0010
0100
,
0010
0100
1000
0010
0100
1000
0010
0100
1000
0010
0100
1000
0010
0100
1000
0010
0100
1000
0010
0100
1000
0010
0100
1000
,
0001
0010
1000
0001
0010
1000
0001
0010
1000
0001
0010
1000
0001
0010
1000
0001
0010
1000
0001
0010
1000
0001
0010
1000
,
0110
0001
1000
0001
0100
1000
0001
0100
1000
0001
0100
1000
0001
0100
1000
0001
0100
0001
1010
0100
1000
0011
0100
1000
,
0011
0100
1000
0001
0010
0100
0001
0010
0100
0001
0010
0100
0001
0010
0100
0001
0100
0010
1100
0010
0100
1001
0010
0100
,
1010
0100
1000
0010
0100
1000
0010
0100
1000
0010
0100
1000
0010
0100
1000
0010
0100
0010
1100
0010
1000
0010
0100
1000
,
0101
0010
1000
0001
0010
1000
0001
0010
1000
0001
0010
1000
0001
0010
1000
0001
0010
0001
1100
0010
1000
0001
0010
1000
,
0110
0001
1000
0001
0100
1000
0001
0100
1000
0001
0100
1000
0001
0100
1000
0001
0100
0001
1010
0100
1000
0011
0100
1000
,
0011
0100
1000
0001
0010
0100
0001
0010
0100
0001
0010
0100
0001
0010
0100
0001
0100
0010
1100
0010
0100
1001
0010
0100
,
1010
0100
1000
0010
0100
1000
0010
0100
1000
0010
0100
1000
0010
0100
1000
0010
0100
0010
1100
0010
1000
0010
0100
1000
,
0101
0010
1000
0001
0010
1000
0001
0010
1000
0001
0010
1000
0001
0010
1000
0001
0010
0001
1100
0010
1000
0001
0010
1000
,
0011
0100
1000
0001
0100
1000
0001
0100
1000
0001
0100
1000
0001
0100
1000
0001
0100
1000
0001
0100
1000
0001
0100
1000
0001
0100
1000
0001
0100
1000
0001
0100
1000
0001
0100
1000
0001
0100
1000
0001
0100
1000
0001
0100
1000
0001
0100
1000
,
0001
0010
0100
0001
0010
0100
0001
0010
0100
0001
0010
0100
0001
0010
0100
0001
0010
0100
0001
0010
0100
0001
0010
0100
0001
0010
0100
0001
0010
0100
0001
0010
0100
0001
0010
0100
0001
0010
0100
0001
0010
0100
0001
0010
0100
0001
0010
0100
,
0010
0100
1000
0010
0100
1000
0010
0100
1000
0010
0100
1000
0010
0100
1000
0010
0100
1000
0010
0100
1000
0010
0100
1000
0010
0100
1000
0010
0100
1000
0010
0100
1000
0010
0100
1000
0010
0100
1000
0010
0100
1000
0010
0100
1000
0010
0100
1000
,
0001
0010
1000
0001
0010
1000
0001
0010
1000
0001
0010
1000
0001
0010
1000
0001
0010
1000
0001
0010
1000
0001
0010
1000
0001
0010
1000
0001
0010
1000
0001
0010
1000
0001
0010
1000
0001
0010
1000
0001
0010
1000
0001
0010
1000
0001
0010
1000
,
0001
0100
1000
0001
0100
1000
0001
0100
1000
0001
0100
1000
0001
0100
1000
0001
0100
1000
0001
0100
1000
0001
0100
1000
0001
0100
1000
0001
0100
1000
0001
0100
1000
0001
0100
1000
0001
0100
1000
0001
0100
1000
0001
0100
1000
0001
0100
1000
,
0001
0010
0100
0001
0010
0100
0001
0010
0100
0001
0010
0100
0001
0010
0100
0001
0010
0100
0001
0010
0100
0001
0010
0100
0001
0010
0100
0001
0010
0100
0001
0010
0100
0001
0010
0100
0001
0010
0100
0001
0010
0100
0001
0010
0100
0001
0010
0100
,
0010
0100
1000
0010
0100
1000
0010
0100
1000
0010
0100
1000
0010
0100
1000
0010
0100
1000
0010
0100
1000
0010
0100
1000
0010
0100
1000
0010
0100
1000
0010
0100
1000
0010
0100
1000
0010
0100
1000
0010
0100
1000
0010
0100
1000
0010
0100
1000
,
0001
0010
1000
0001
0010
1000
0001
0010
1000
0001
0010
1000
0001
0010
1000
0001
0010
1000
0001
0010
1000
0001
0010
1000
0001
0010
1000
0001
0010
1000
0001
0010
1000
0001
0010
1000
0001
0010
1000
0001
0010
1000
0001
0010
1000
0001
0010
1000
,
0001
0010
0100
0000
0001
0000
0010
0000
0100
0000
1000
0000
0100
0000
0010
0000
0001
0010
0100
0000
0001
0000
0010
0000
0001
0000
0001
0000
0001
0000
0100
0000
,
0001
0010
0100
0000
0010
0000
0001
0000
0100
0000
0001
0000
0010
0000
0100
0000
0001
0010
0100
0000
0001
0000
0100
0000
0001
0000
0001
0000
0001
0000
0100
0000
,
0001
0010
0100
0000
0001
0000
0010
0000
0100
0000
0001
0000
0100
0000
0010
0000
0001
0010
0100
0000
0010
0000
0100
0000
0001
0000
0001
0000
0001
0000
0100
0000
,
0001
0010
0100
0000
0001
0000
0100
0000
0010
0000
0100
0000
0001
0000
0100
0000
0001
0010
0100
0000
1000
0000
0100
0000
0001
0000
0001
0000
0001
0000
0100
0000
,
0001
0010
0100
0000
0001
0000
0010
0000
0100
0000
1000
0000
0100
0000
0010
0000
0001
0010
0100
0000
0001
0000
0010
0000
0001
0000
0001
0000
0001
0000
0100
0000
,
0001
0010
0100
0000
0010
0000
0001
0000
0100
0000
0001
0000
0010
0000
0100
0000
0001
0010
0100
0000
0001
0000
0100
0000
0001
0000
0001
0000
0001
0000
0100
0000
,
0001
0010
0100
0000
0001
0000
0010
0000
0100
0000
0001
0000
0100
0000
0010
0000
0001
0010
0100
0000
0010
0000
0100
0000
0001
0000
0001
0000
0001
0000
0100
0000
,
0001
0010
0100
0000
0001
0000
0100
0000
0010
0000
0100
0000
0001
0000
0100
0000
0001
0010
0100
0000
1000
0000
0100
0000
0001
0000
0001
0000
0001
0000
0100
0000
,
0020
0000
0000
0000
0000
0000
0230
0010
,
0302
0000
0000
0000
0000
0000
2003
0001
,
3020
0000
0000
2030
,
3002
0000
0000
0203
,
0320
0000
0000
0000
0000
0000
2030
0100
,
3020
0000
0000
0000
0000
0000
0230
1000
,
0302
0000
0000
2003
,
3020
0000
0000
2030
,
3022
0000
0000
0033
0000
0000
0022
0000
0000
0033
0000
0000
0022
0000
0000
0033
0000
0000
1001
0000
1001
0000
0101
0000
,
0022
0033
0000
0000
0000
0000
0000
0000
0000
0000
0000
0000
0000
0000
0000
0000
0000
0000
0000
0000
0000
0000
0000
0000
0000
0000
0000
0000
0000
0000
0000
0000
0000
0000
0000
0000
0000
0000
0000
0000
0000
0000
0000
0000
0000
0000
0000
0000
0000
0000
0000
0000
0000
0000
0000
0000
0000
0000
0000
0000
0000
0000
0000
0000
;

//---------------dance-single - Copied from----------------
#NOTES:
     dance-single:
     Copied from:
     Challenge:
     15:
     1.000,1.000,1.000,0.257,1.000,2095.000,255.000,40.000,0.000,51.000:
0000
0000
0000
0000
,
1000
1000
1000
1000
0011
1000
1000
1000
1000
1000
1000
1000
0011
1000
0011
1000
,
1000
1000
1000
1000
0011
1000
1000
1000
1000
1000
1000
1000
0011
1000
0011
1000
,
1000
1000
1000
1000
0011
1000
1000
1000
1000
1000
1000
1000
0011
1000
0011
1000
,
1000
1000
1000
1000
0011
1000
1000
1000
1000
1000
1000
1000
0011
1000
0011
0100
,
1001
1000
1000
1000
0011
1000
1000
1000
1001
1000
1000
1000
0011
1000
0011
0100
,
1001
1000
1000
1000
0011
1000
1000
1000
1001
1000
1000
1000
0011
1000
0011
0100
,
1001
1000
1000
1000
0011
1000
1000
1000
1001
1000
1000
1000
0011
1000
0011
0100
,
1001
1000
1000
1000
0011
1000
1000
1000
1001
1000
1000
1000
0011
1000
0011
0100
,
1001
0100
1000
0001
0100
1000
0011
0100
1000
0001
0100
1000
0011
0100
1000
0001
0100
1000
0011
0100
1000
0011
0100
1000
,
0101
0010
0100
0001
0010
0100
1001
0010
0100
0001
0010
0100
1001
0010
0100
0001
0010
0100
1001
0010
0100
1001
0010
0100
,
1010
0100
1000
0010
0100
1000
0011
0100
1000
0010
0100
1000
0011
0100
1000
0010
0100
1000
0011
0100
1000
0011
0100
1000
,
0101
0010
1000
0001
0010
1000
0101
0010
1000
0001
0010
1000
0101
0010
1000
0001
0010
1000
0101
0010
1000
0101
0010
1000
,
0011
0100
1000
0001
0100
1000
0011
0100
1000
0001
0100
1000
0011
0100
1000
0001
0100
1000
0011
0100
1000
0011
0100
1000
,
0101
0010
0100
0001
0010
0100
1001
0010
0100
0001
0010
0100
1001
0010
0100
0001
0010
0100
1001
0010
0100
1001
0010
0100
,
1010
0100
1000
0010
0100
1000
0011
0100
1000
0010
0100
1000
0011
0100
1000
0010
0100
1000
0011
0100
1000
0011
0100
1000
,
0101
0010
1000
0001
0010
1000
0101
0010
1000
0001
0010
1000
0101
0010
1000
0001
0010
1000
0101
0010
1000
0101
0010
1000
,
0110
0001
1000
0001
0100
1000
0001
0100
1000
0001
0100
1000
0001
0100
1000
0001
0100
0001
1010
0100
1000
0011
0100
1000
,
0011
0100
1000
0001
0010
0100
0001
0010
0100
0001
0010
0100
0001
0010
0100
0001
0100
0010
1100
0010
0100
1001
0010
0100
,
1010
0100
1000
0010
0100
1000
0010
0100
1000
0010
0100
1000
0010
0100
1000
0010
0100
0010
1100
0010
1000
0010
0100
1000
,
0101
0010
1000
0001
0010
1000
0001
0010
1000
0001
0010
1000
0001
0010
1000
0001
0010
0001
1100
0010
1000
0001
0010
1000
,
0110
0001
1000
0001
0100
1000
0001
0100
1000
0001
0100
1000
0001
0100
1000
0001
0100
0001
1010
0100
1000
0011
0100
1000
,
0011
0100
1000
0001
0010
0100
0001
0010
0100
0001
0010
0100
0001
0010
0100
0001
0100
0010
1100
0010
0100
1001
0010
0100
,
1010
0100
1000
0010
0100
1000
0010
0100
1000
0010
0100
1000
0010
0100
1000
0010
0100
0010
1100
0010
1000
0010
0100
1000
,
0101
0010
1000
0001
0010
1000
0001
0010
1000
0001
0010
1000
0001
0010
1000
0001
0010
0001
1100
0010
1000
0001
0010
1000
,
0110
0000
0010
0000
0010
0100
0000
0010
0100
0000
0010
0000
1010
0100
1000
0010
,
0011
0000
0010
0000
0010
0100
0000
0010
0100
0000
1000
0000
1100
1000
0010
0001
,
1010
0000
0010
0000
0010
0100
0000
0010
0100
0000
0010
0000
1100
0100
0000
0010
,
0101
0000
0001
0000
0001
0100
0000
0001
0100
0000
0001
0000
1100
0100
0000
0001
,
0110
0000
0010
0000
0010
0100
0000
0010
0100
0000
0010
0000
1010
0100
1000
0010
,
0011
0000
0010
0000
0010
0100
0000
0010
0100
0000
1000
0000
1100
1000
0010
0001
,
1010
0000
0010
0000
0010
0100
0000
0010
0100
0000
0010
0000
1100
0100
0000
0010
,
0101
0000
0001
0000
0001
0100
0000
0001
0100
0000
0001
0000
1100
0100
0000
0010
,
1201
0300
0010
0000
0100
0000
0010
0000
1101
0000
0010
0000
0100
0000
0010
0000
1101
0000
0010
0000
0100
0000
0010
0000
2101
3000
0010
0000
0100
0000
1000
0000
,
0112
0003
1000
0000
0100
0000
1000
0000
0111
0000
1000
0000
0100
0000
1000
0000
0111
0000
1000
0000
0100
0000
1000
0000
0211
0300
1000
0000
0100
0000
0001
0000
,
1120
0030
0001
0000
0010
0000
0001
0000
1110
0000
0001
0000
0010
0000
0001
0000
1110
0000
0001
0000
0010
0000
0001
0000
2110
3000
0001
0000
0010
0000
0100
0000
,
1012
0003
0100
0000
0010
0000
0100
0000
1011
0000
0100
0000
0010
0000
0100
0000
1011
0000
0100
0000
0010
0000
0100
0000
2011
3000
0100
0000
0001
0000
0010
0000
,
1201
0300
0010
0000
0100
0000
0010
0000
1101
0000
0010
0000
0100
0000
0010
0000
1101
0000
0010
0000
0100
0000
0010
0000
2101
3000
0010
0000
0100
0000
1000
0000
,
0112
0003
1000
0000
0100
0000
1000
0000
0111
0000
1000
0000
0100
0000
1000
0000
0111
0000
1000
0000
0100
0000
1000
0000
0211
0300
1000
0000
0100
0000
0001
0000
,
1120
0030
0001
0000
0010
0000
0001
0000
1110
0000
0001
0000
0010
0000
0001
0000
1110
0000
0001
0000
0010
0000
0001
0000
2110
3000
0001
0000
0010
0000
0100
0000
,
1012
0003
0100
0000
0010
0000
0100
0000
1011
0000
0100
0000
0010
0000
0100
0000
1011
0000
0100
0000
0010
0000
0100
0000
2011
3000
0100
0000
0010
0000
0100
0000
,
1011
0100
1000
0001
0100
1000
0001
0100
1000
0001
0100
1000
0001
0100
1000
0001
0100
1000
0001
0100
1000
0001
0100
1000
0001
0100
1000
0001
0100
1000
0001
0100
1000
0001
0100
1000
0011
0100
1000
0001
0100
1000
0011
0100
1000
0001
0100
1000
,
0101
0010
0100
0001
0010
0100
0001
0010
0100
0001
0010
0100
0001
0010
0100
0001
0010
0100
0001
0010
0100
0001
0010
0100
0001
0010
0100
0001
0010
0100
0001
0010
0100
0001
0010
0100
1001
0010
0100
0001
0010
0100
1001
0010
0100
0001
0010
0100
,
0011
0100
1000
0010
0100
1000
0010
0100
1000
0010
0100
1000
0010
0100
1000
0010
0100
1000
0010
0100
1000
0010
0100
1000
0010
0100
1000
0010
0100
1000
0010
0100
1000
0010
0100
1000
0011
0100
1000
0010
0100
1000
0010
0100
1000
0010
0100
1000
,
0101
0010
1000
0001
0010
1000
0001
0010
1000
0001
0010
1000
0001
0010
1000
0001
0010
1000
0001
0010
1000
0001
0010
1000
0001
0010
1000
0001
0010
1000
0001
0010
1000
0001
0010
1000
0101
0010
1000
0001
0010
1000
0001
0010
1000
0001
0010
1000
,
0011
0100
1000
0001
0100
1000
0001
0100
1000
0001
0100
1000
0001
0100
1000
0001
0100
1000
0001
0100
1000
0001
0100
1000
0001
0100
1000
0001
0100
1000
0001
0100
1000
0001
0100
1000
0011
0100
1000
0001
0100
1000
0011
0100
1000
0001
0100
1000
,
0101
0010
0100
0001
0010
0100
0001
0010
0100
0001
0010
0100
0001
0010
0100
0001
0010
0100
0001
0010
0100
0001
0010
0100
0001
0010
0100
0001
0010
0100
0001
0010
0100
0001
0010
0100
1001
0010
0100
0001
0010
0100
1001
0010
0100
0001
0010
0100
,
0011
0100
1000
0010
0100
1000
0010
0100
1000
0010
0100
1000
0010
0100
1000
0010
0100
1000
0010
0100
1000
0010
0100
1000
0010
0100
1000
0010
0100
1000
0010
0100
1000
0010
0100
1000
0011
0100
1000
0010
0100
1000
0010
0100
1000
0010
0100
1000
,
0101
0010
1000
0001
0010
1000
0001
0010
1000
0001
0010
1000
0001
0010
1000
0001
0010
1000
0001
0010
1000
0001
0010
1000
0001
0010
1000
0001
0010
1000
0001
0010
1000
0001
0010
1000
0101
0010
1000
0001
0010
1000
0001
0010
1000
0001
0010
1000
,
0101
0010
0100
0000
0001
0000
0010
0000
0100
0000
1000
0000
0100
0000
0010
0000
0001
0010
0100
0000
0001
0000
0010
0000
1001
0000
0001
0000
0001
0000
0100
0000
,
0101
0010
0100
0000
0010
0000
0001
0000
0100
0000
0001
0000
0010
0000
0100
0000
0001
0010
0100
0000
0001
0000
0100
0000
1001
0000
0001
0000
0001
0000
0100
0000
,
0101
0010
0100
0000
0001
0000
0010
0000
0100
0000
0001
0000
0100
0000
0010
0000
0001
0010
0100
0000
0010
0000
0100
0000
1001
0000
0001
0000
0001
0000
0100
0000
,
0101
0010
0100
0000
0001
0000
0100
0000
0010
0000
0100
0000
0001
0000
0100
0000
1001
0010
0100
0000
1000
0000
0100
0000
0001
0000
0001
0000
0001
0000
0100
0000
,
0101
0010
0100
0000
0001
0000
0010
0000
0100
0000
1000
0000
0100
0000
0010
0000
0001
0010
0100
0000
0001
0000
0010
0000
1001
0000
0001
0000
0001
0000
0100
0000
,
0101
0010
0100
0000
0010
0000
0001
0000
0100
0000
0001
0000
0010
0000
0100
0000
0001
0010
0100
0000
0001
0000
0100
0000
1001
0000
0001
0000
0001
0000
0100
0000
,
0101
0010
0100
0000
0001
0000
0010
0000
0100
0000
0001
0000
0100
0000
0010
0000
0001
0010
0100
0000
0010
0000
0100
0000
1001
0000
0001
0000
0001
0000
0100
0000
,
0101
0010
0100
0000
0001
0000
0100
0000
0010
0000
0100
0000
0001
0000
0100
0000
0001
0010
0100
0000
1000
0000
0100
0000
1001
0000
0001
0000
0001
0000
0100
0000
,
0001
0100
1000
0001
0100
1000
0001
0100
1000
0001
0100
1000
0001
0100
1000
0001
0100
1000
0001
0100
1000
0001
0100
1000
,
0001
0010
0100
0001
0010
0100
0001
0010
0100
0001
0010
0100
0001
0010
0100
0001
0010
0100
0001
0010
0100
0001
0010
0100
,
0010
0100
1000
0010
0100
1000
0010
0100
1000
0010
0100
1000
0010
0100
1000
0010
0100
1000
0010
0100
1000
0010
0100
1000
,
0001
0010
1000
0001
0010
1000
0001
0010
1000
0001
0010
1000
0001
0010
1000
0001
0010
1000
0001
0010
1000
0001
0010
1000
,
0110
0001
1000
0001
0100
1000
0001
0100
1000
0001
0100
1000
0001
0100
1000
0001
0100
0001
1010
0100
1000
0011
0100
1000
,
0011
0100
1000
0001
0010
0100
0001
0010
0100
0001
0010
0100
0001
0010
0100
0001
0100
0010
1100
0010
0100
1001
0010
0100
,
1010
0100
1000
0010
0100
1000
0010
0100
1000
0010
0100
1000
0010
0100
1000
0010
0100
0010
1100
0010
1000
0010
0100
1000
,
0101
0010
1000
0001
0010
1000
0001
0010
1000
0001
0010
1000
0001
0010
1000
0001
0010
0001
1100
0010
1000
0001
0010
1000
,
0110
0001
1000
0001
0100
1000
0001
0100
1000
0001
0100
1000
0001
0100
1000
0001
0100
0001
1010
0100
1000
0011
0100
1000
,
0011
0100
1000
0001
0010
0100
0001
0010
0100
0001
0010
0100
0001
0010
0100
0001
0100
0010
1100
0010
0100
1001
0010
0100
,
1010
0100
1000
0010
0100
1000
0010
0100
1000
0010
0100
1000
0010
0100
1000
0010
0100
0010
1100
0010
1000
0010
0100
1000
,
0101
0010
1000
0001
0010
1000
0001
0010
1000
0001
0010
1000
0001
0010
1000
0001
0010
0001
1100
0010
1000
0001
0010
1000
,
0011
0100
1000
0001
0100
1000
0001
0100
1000
0001
0100
1000
0001
0100
1000
0001
0100
1000
0001
0100
1000
0001
0100
1000
0001
0100
1000
0001
0100
1000
0001
0100
1000
0001
0100
1000
0011
0100
1000
0001
0100
1000
0011
0100
1000
0001
0100
1000
,
0101
0010
0100
0001
0010
0100
0001
0010
0100
0001
0010
0100
0001
0010
0100
0001
0010
0100
0001
0010
0100
0001
0010
0100
0001
0010
0100
0001
0010
0100
0001
0010
0100
0001
0010
0100
1001
0010
0100
0001
0010
0100
1001
0010
0100
0001
0010
0100
,
0011
0100
1000
0010
0100
1000
0010
0100
1000
0010
0100
1000
0010
0100
1000
0010
0100
1000
0010
0100
1000
0010
0100
1000
0010
0100
1000
0010
0100
1000
0010
0100
1000
0010
0100
1000
0011
0100
1000
0010
0100
1000
0010
0100
1000
0010
0100
1000
,
0101
0010
1000
0001
0010
1000
0001
0010
1000
0001
0010
1000
0001
0010
1000
0001
0010
1000
0001
0010
1000
0001
0010
1000
0001
0010
1000
0001
0010
1000
0001
0010
1000
0001
0010
1000
0101
0010
1000
0001
0010
1000
0001
0010
1000
0001
0010
1000
,
0011
0100
1000
0001
0100
1000
0001
0100
1000
0001
0100
1000
0001
0100
1000
0001
0100
1000
0001
0100
1000
0001
0100
1000
0001
0100
1000
0001
0100
1000
0001
0100
1000
0001
0100
1000
0011
0100
1000
0001
0100
1000
0011
0100
1000
0001
0100
1000
,
0101
0010
0100
0001
0010
0100
0001
0010
0100
0001
0010
0100
0001
0010
0100
0001
0010
0100
0001
0010
0100
0001
0010
0100
0001
0010
0100
0001
0010
0100
0001
0010
0100
0001
0010
0100
1001
0010
0100
0001
0010
0100
1001
0010
0100
0001
0010
0100
,
0011
0100
1000
0010
0100
1000
0010
0100
1000
0010
0100
1000
0010
0100
1000
0010
0100
1000
0010
0100
1000
0010
0100
1000
0010
0100
1000
0010
0100
1000
0010
0100
1000
0010
0100
1000
0011
0100
1000
0010
0100
1000
0010
0100
1000
0010
0100
1000
,
0101
0010
1000
0001
0010
1000
0001
0010
1000
0001
0010
1000
0001
0010
1000
0001
0010
1000
0001
0010
1000
0001
0010
1000
0001
0010
1000
0001
0010
1000
0001
0010
1000
0001
0010
1000
0101
0010
1000
0001
0010
1000
0001
0010
1000
0001
0010
1000
,
0101
0010
0100
0000
0001
0000
0010
0000
0100
0000
1000
0000
0100
0000
0010
0000
0001
0010
0100
0000
0001
0000
0010
0000
1001
0000
0001
0000
0001
0000
0100
0000
,
0101
0010
0100
0000
0010
0000
0001
0000
0100
0000
0001
0000
0010
0000
0100
0000
0001
0010
0100
0000
0001
0000
0100
0000
1001
0000
0001
0000
0001
0000
0100
0000
,
0101
0010
0100
0000
0001
0000
0010
0000
0100
0000
0001
0000
0100
0000
0010
0000
0001
0010
0100
0000
0010
0000
0100
0000
1001
0000
0001
0000
0001
0000
0100
0000
,
0101
0010
0100
0000
0001
0000
0100
0000
0010
0000
0100
0000
0001
0000
0100
0000
0001
0010
0100
0000
1000
0000
0100
0000
1001
0000
0001
0000
0001
0000
0100
0000
,
0101
0010
0100
0000
0001
0000
0010
0000
0100
0000
1000
0000
0100
0000
0010
0000
0001
0010
0100
0000
0001
0000
0010
0000
1001
0000
0001
0000
0001
0000
0100
0000
,
0101
0010
0100
0000
0010
0000
0001
0000
0100
0000
0001
0000
0010
0000
0100
0000
0001
0010
0100
0000
0001
0000
0100
0000
1001
0000
0001
0000
0001
0000
0100
0000
,
0101
0010
0100
0000
0001
0000
0010
0000
0100
0000
0001
0000
0100
0000
0010
0000
0001
0010
0100
0000
0010
0000
0100
0000
1001
0000
0001
0000
0001
0000
0100
0000
,
0101
0010
0100
0000
0001
0000
0100
0000
0010
0000
0100
0000
0001
0000
0100
0000
1001
0010
0100
0000
1000
0000
0100
0000
0001
0000
0001
0000
0001
0000
0100
0000
,
0120
0000
0000
0000
0000
0000
1230
0010
,
0312
0000
0000
0000
0000
0000
2103
0001
,
3120
0000
0000
2130
,
3012
0000
0000
1203
,
0321
0000
0000
0000
0000
0000
2130
0100
,
3021
0000
0000
0000
0000
0000
1230
1000
,
0312
0000
0000
2103
,
3120
0000
0000
2130
,
3022
0000
0000
0033
0000
0000
0022
0000
0000
0033
0000
0000
0022
0000
0000
0033
0000
0000
1001
0000
1001
0000
1101
0000
,
0122
0033
0000
0000
0000
0000
0000
0000
0000
0000
0000
0000
0000
0000
0000
0000
0000
0000
0000
0000
0000
0000
0000
0000
0000
0000
0000
0000
0000
0000
0000
0000
0000
0000
0000
0000
0000
0000
0000
0000
0000
0000
0000
0000
0000
0000
0000
0000
;
