#TITLE:5 Years of True Dedication;
#SUBTITLE:;
#ARTIST:Gabba Front Berlin;
#TITLETRANSLIT:;
#SUBTITLETRANSLIT:;
#ARTISTTRANSLIT:;
#CREDIT:;
#BANNER:5 years bn.png;
#BACKGROUND:5 years bg.png;
#LYRICSPATH:;
#CDTITLE:;
#MUSIC:5 Years Of True Dedication.ogg;
#OFFSET:-0.535;
#SAMPLESTART:22.260;
#SAMPLELENGTH:13.400;
#SELECTABLE:YES;
#BPMS:0.000=220.000;
#STOPS:;
#BGCHANGES:;
// cache tags:
#FIRSTBEAT:32.000;
#LASTBEAT:544.500;
#SONGFILENAME:Songs/SPEEEDCOOOORE 3/5 Years of True Dedication - [Garrett]/5 years of true dedication.sm;
#HASMUSIC:1;
#HASBANNER:1;
#MUSICLENGTH:153.272;
// end cache tags

//---------------dance-single - G. Moese----------------
#NOTES:
     dance-single:
     G. Moese:
     Challenge:
     17:
     1.000,1.000,0.072,0.157,1.000,1378.000,11.000,24.000,0.000,0.000:
0000
0000
0000
0000
,
0000
0000
0000
0000
,
0000
0000
0000
0000
,
0000
0000
0000
0000
,
0000
0000
0000
0000
,
0000
0000
0000
0000
,
0000
0000
0000
0000
,
0000
0000
0000
0000
,
1000
0000
0001
0000
0100
0000
0010
0000
1000
0000
0001
0000
0100
0000
0010
0100
,
0001
0000
1000
0000
0100
0000
0010
0000
0001
0000
1000
0000
0100
0000
0010
0001
,
1000
0000
0100
0000
1000
0000
0010
0000
0100
0000
0001
0000
0010
0000
0001
0100
,
0010
1000
0001
1000
0010
0000
0000
0000
,
1001
0001
0010
0100
0010
0001
1000
0010
,
0100
0000
0001
0000
1000
0000
0100
0000
0010
0000
0001
0000
1000
0000
0010
0100
,
0001
0000
0010
0000
0100
0000
1000
0000
0001
0000
0100
0000
0010
0000
1000
0001
,
1000
0000
0001
0000
0100
0000
0010
0000
1000
0000
0001
0100
0001
0010
0100
1000
,
0010
0000
0100
0000
0001
0000
0010
0000
0100
0000
1000
0000
0100
0000
0010
0001
,
0010
0000
0001
0000
1000
0000
0001
0000
0010
0000
0100
0000
0010
0000
0001
1000
,
0010
0000
0100
0000
0001
0000
1000
0000
0001
0000
0100
0000
0010
0000
1000
0100
,
1000
0010
0100
0001
0010
0000
0001
0000
0010
0100
1000
0010
0100
0001
0010
0001
,
1000
0000
0100
0000
0010
0000
0001
0000
0010
0000
0100
0000
1000
0000
0010
0100
,
0001
0000
1000
0000
0010
0000
0100
0000
0001
0000
1000
0000
0010
0000
0100
0001
,
1000
0000
0100
0000
1000
0000
0010
0000
0100
0000
0001
0000
0010
0000
0001
1000
,
0001
0000
0100
0000
0010
0000
1000
0000
0010
0100
0001
1000
0010
0100
0001
0100
,
0001
0000
1000
0000
0001
0000
0010
0000
0100
0000
1000
0000
0001
0000
0100
0010
,
1000
0000
0001
0000
0010
0000
0100
0000
1000
0000
0010
0000
0100
0000
0001
1000
,
0010
0000
0100
0000
0001
0000
1000
0000
0100
0000
0010
0000
0001
0000
0100
0001
,
4000
0000
3001
0001
,
2002
3003
0000
0000
2000
0000
3000
0000
,
0020
0000
0000
0000
0000
0000
0000
0000
0000
0000
0000
0000
0130
0001
0100
0010
,
1000
0001
0100
0001
1000
0001
0100
0010
0400
0000
0300
0000
0001
1000
0001
0100
,
0040
0000
0030
0000
1000
0100
1000
0001
0100
0010
0100
0001
1000
0100
0010
0001
,
1000
0100
0100
1000
1000
0001
0001
0010
,
0010
0100
0100
1000
1000
0001
0004
0003
,
1000
0010
0100
0010
1000
0001
0100
0010
1000
0001
1000
0100
0010
0001
1000
0010
,
0100
0010
1000
0001
0010
0100
0010
0001
1000
0010
0100
0001
1000
0100
1000
0001
,
0100
0010
0100
0001
1000
0100
0010
0001
1000
0010
0100
0010
1000
0001
0100
0010
,
0100
0001
1000
0100
1000
0010
0100
0001
0010
0100
1000
0010
0100
0001
0010
0100
,
1000
0001
0100
0010
1000
0010
1000
0001
0010
0100
1000
0100
0010
0001
1000
0010
,
0100
0001
1000
0001
0100
0010
1000
0001
1000
0010
0100
0001
0100
0010
1000
0001
,
0100
0001
1000
0010
1000
0001
0010
0001
1000
0001
0100
0001
1000
0100
1000
0001
,
0100
0001
1000
0100
0010
0001
0100
0010
0100
0001
0010
0100
1000
0010
0100
0001
,
0100
0000
0001
0000
1000
0001
1000
0001
,
0200
0320
2030
3004
,
1003
0000
0010
0000
1000
0000
0001
0000
0010
0000
0100
0000
1000
0000
0001
0100
,
0001
0000
1000
0000
0001
0000
0010
0000
0100
0000
1000
0000
0010
0000
0100
0001
,
1000
0000
0010
0000
0100
0000
0001
0000
1000
0000
0100
0000
0010
0000
0001
1000
,
0010
0000
0100
0000
0001
0000
0100
0000
0010
0000
1000
0100
1000
0010
0100
0001
,
0010
0000
0001
0000
0100
0000
0010
0000
0100
0000
0001
0000
1000
0000
0100
0010
,
0001
0000
1000
0000
0010
0000
0100
0000
0010
0000
1000
0000
0001
0000
0010
0100
,
1000
0000
0001
0000
0010
0000
0100
0000
0010
0000
0001
0000
1000
0000
0010
0100
,
0010
0000
1000
0000
0001
0000
0010
0000
0100
0000
1000
0000
0001
0000
1000
0002
,
0000
0003
0000
0000
0000
0000
0000
0000
0000
0000
0000
0000
0000
0000
0000
0000
,
0000
0000
0000
0000
,
1000
0001
1000
0001
0100
0001
1000
0010
1000
0001
0100
0001
1000
0100
1000
0001
,
0010
0001
1000
0010
1000
0001
0100
0010
0100
0001
1000
0010
4000
0000
0000
0000
,
3001
0100
0010
0100
0001
1000
0001
0010
0100
0010
0001
1000
0100
0010
0001
1000
,
0010
0100
0001
1000
0100
1000
0010
0100
0001
0010
0100
1000
0010
0100
0001
0010
,
0001
1000
0100
1000
0001
0010
0100
0010
0001
1000
0100
1000
0001
0100
0010
0100
,
0001
1000
0100
0010
0001
1000
0010
0100
0001
1000
0100
0010
0004
0000
0000
0000
,
1003
0010
1000
0001
0100
0001
1000
0100
0010
0001
1000
0010
1000
0001
0100
0001
,
1000
0100
1000
0001
0010
0001
0100
0010
1000
0100
0010
0001
0100
0010
1000
0100
,
1000
0010
0100
0001
1000
0100
0010
0001
1000
0100
0010
0100
1000
0001
0010
0100
,
0010
0001
1000
0100
1000
0010
0100
0001
0010
0100
1000
0010
0100
0001
0010
0100
,
1000
0001
1000
0001
0100
0001
1000
0100
0010
0001
1000
0010
0100
0010
1000
0001
,
0010
0100
0010
0001
1000
0010
0100
0010
4000
0000
0000
3000
0040
0000
0000
0030
,
1000
0001
0100
0001
1000
0100
0010
0001
1000
0010
1000
0001
0100
0010
1000
0001
,
0100
0001
1000
0010
0100
0010
1000
0001
0010
0100
1000
0001
0100
0001
0010
0100
,
1000
0001
0100
0001
1000
0010
0100
0010
1000
0001
0010
0001
0100
0010
1000
0100
,
1000
0001
0100
0010
0100
0001
0010
0100
1000
0010
0100
0001
0010
0100
1000
0001
,
1000
1000
1000
1000
,
1000
0000
1000
0100
0010
0100
1000
0001
,
0100
0001
0100
0001
0100
0000
0000
0000
0001
0000
0000
0000
0001
0000
0000
0000
,
0001
0001
0010
0100
1000
1000
0010
0100
,
0001
1000
0001
1000
0001
0000
0000
0000
1000
0000
0000
0000
0100
1000
0100
1000
,
0100
0000
1000
1000
0100
0010
0100
0100
,
1000
0000
1000
0000
1000
0100
1000
0001
,
0100
0000
0100
0000
0100
0000
0001
0001
,
0020
0030
0000
0000
0010
0000
0000
0000
0010
0000
0000
0000
0010
0000
0000
0000
,
0010
0000
0010
0100
1000
0001
0100
0010
,
1000
0001
1000
0001
1000
0000
0000
0000
0001
0000
0000
0000
0001
0000
0000
0000
,
1000
1000
0100
0010
0001
0000
0001
0000
,
0100
0001
0100
0001
0100
0000
0000
0000
0001
0000
0000
0000
1000
0001
1000
0001
,
1000
0000
0001
0010
0100
0010
0001
1000
,
2001
3000
0000
0000
0001
0000
0000
0000
0100
0000
0010
0000
0100
0000
0001
0000
,
0020
0000
0230
0000
2300
0000
3002
0003
,
1001
0000
0001
0000
1000
0100
0010
0100
,
1000
0000
0001
0100
0001
0000
1000
0010
,
0100
0000
0001
0000
0010
0100
0010
0001
,
1000
0000
0010
1000
0010
0000
0100
0001
,
1001
0000
1000
0000
0100
1000
0100
0010
,
0001
0000
1000
0010
1000
0000
0010
0100
,
0001
0001
0001
0001
,
0200
0300
0000
0000
0000
0000
0000
0000
0000
0000
0000
0000
0000
0000
0000
0000
0200
0000
0300
0000
0000
0000
0000
0000
0000
0000
0000
0000
0000
0000
0000
0000
0200
0000
0000
0300
0000
0000
0000
0000
0000
0000
0000
0000
0000
0000
0000
0000
0200
0000
0000
0000
0300
0000
0000
0000
0000
0000
0000
0000
0000
0000
0000
0000
,
0101
0001
0001
0001
,
0001
0000
0001
0000
0001
0000
0001
0010
,
0100
0100
0100
0100
,
0100
0000
0100
0000
0100
0000
0100
1000
,
1001
0001
0001
0001
,
0001
0000
0001
0000
0001
0000
0001
1000
,
0020
0030
0000
0000
0000
0000
0000
0000
,
2000
3000
0000
0000
2000
3000
0000
0000
2000
3000
0000
0000
2000
3000
0000
0000
,
0001
0010
0100
0010
0001
1000
0010
0100
0010
1000
0001
0010
0100
1000
0001
0010
,
0100
0010
0001
1000
0100
0010
0100
1000
0001
0100
0010
0100
0001
1000
0010
1000
,
0100
0010
0001
0010
0100
1000
0001
0010
0001
1000
0100
1000
0001
0100
0001
1000
,
0010
1000
0010
0100
0001
0010
0100
1000
0010
1000
0100
0010
0001
0100
0010
1000
,
0100
1000
0001
0100
0001
1000
0001
0010
0100
1000
0001
0100
0010
1000
0100
1000
,
0001
0100
0010
1000
0001
0100
0001
0010
0100
1000
0010
0100
0001
0010
0100
1000
,
0010
0100
0001
0100
0010
1000
0001
0010
0100
1000
0001
0100
0001
1000
0010
1000
,
0001
0100
0001
1000
0100
1000
0001
0100
0010
1000
0100
0010
0001
0100
0010
1000
,
0100
1000
0001
0100
0001
1000
0010
1000
0001
0010
0100
0010
0001
1000
0010
0100
,
0010
1000
0001
0100
0010
0100
0001
1000
0010
1000
0001
0100
0010
1000
0100
0010
,
0100
1000
0001
0100
0010
0100
0001
1000
0010
0100
0010
1000
0010
1000
0001
0100
,
0010
1000
0001
0100
0010
0100
0001
0010
0100
1000
0010
0100
0001
0010
0001
0100
,
0010
1000
0010
1000
0001
0100
0001
0100
0010
1000
0010
1000
0001
0010
0100
1000
,
0001
0100
0010
0100
0001
1000
0100
0010
0001
1000
0010
0100
0001
1000
0100
0010
,
0100
1000
0001
0010
0100
0010
0001
1000
0010
0100
0001
0100
0010
1000
0001
0100
,
0010
1000
0001
1000
0010
0100
0001
0010
0100
1000
0010
0100
0001
0010
0001
1000
,
0001
0000
1000
0000
0001
0010
0100
0010
,
0001
0000
0000
0000
1000
0000
0100
0000
1000
0000
0000
0000
0004
0003
0000
0000
,
1000
0100
0010
0100
1000
0001
0100
0010
0100
0001
1000
0100
0010
0001
1000
0100
,
0010
0100
1000
0001
0010
0100
0010
0001
1000
0010
0100
0010
1000
0001
0100
0010
,
0100
0001
1000
0100
0010
0001
1000
0100
1000
0001
0010
0001
1000
0010
1000
0001
,
0100
0001
0100
0010
1000
0100
0010
0001
0100
0001
0010
0100
1000
0010
0100
0001
,
0010
0001
1000
0010
0100
0001
1000
0100
0010
0001
1000
0001
0010
0100
1000
0001
,
0010
0001
1000
0100
1000
0001
0100
0010
0100
0001
1000
0010
0100
0010
1000
0001
,
0100
0010
1000
0010
0100
0001
1000
0100
0010
0001
1000
0010
1000
0001
0100
0001
,
1000
0010
1000
0001
0010
0100
1000
0010
0100
0001
0010
0100
1000
0010
0100
0001
,
0010
0001
1000
0010
1000
0001
0100
0001
1000
0100
0010
0100
1000
0001
0100
0010
,
0100
0001
1000
0010
0100
0010
1000
0001
0100
0001
1000
0010
1000
0100
1000
0010
,
0100
0001
1000
0010
0100
0010
1000
0001
0100
0010
0100
0001
0100
0001
1000
0010
,
0100
0001
1000
0010
1000
0100
1000
0010
0100
0001
0010
0100
1000
0010
0100
0001
,
0010
0100
1000
0001
1000
0010
0100
0010
1000
0001
0100
0001
1000
0100
0010
0001
,
1000
0010
0100
0010
1000
0001
0010
0100
1000
0001
0100
0010
1000
0001
0010
0100
,
0010
0001
1000
0100
0010
0100
1000
0001
0100
0010
1000
0010
0100
0001
1000
0010
,
1000
0100
1000
0010
0100
0001
0010
0001
0100
0010
1000
0100
1000
0010
0100
0001
,
2000
3000
0000
0000
0000
0000
0000
0000
;
