#TITLE:AiAe;
#SUBTITLE:;
#ARTIST:Yuyoyuppe;
#TITLETRANSLIT:;
#SUBTITLETRANSLIT:;
#ARTISTTRANSLIT:;
#CREDIT:Avexian;
#BANNER:bn.png;
#BACKGROUND:bg.png;
#LYRICSPATH:;
#CDTITLE:../CDTitle_Avexian.png;
#MUSIC:04. AiAe.ogg;
#OFFSET:-0.023;
#SAMPLESTART:43.690;
#SAMPLELENGTH:21.333;
#SELECTABLE:YES;
#BPMS:0.000=180.000;
#STOPS:;
#BGCHANGES:;
// cache tags:
#FIRSTBEAT:3.000;
#LASTBEAT:706.750;
#SONGFILENAME:Songs/Index Tesseract/AiAe [Avexian]/AiAe.sm;
#HASMUSIC:1;
#HASBANNER:1;
#MUSICLENGTH:238.376;
// end cache tags

//---------------dance-single - ----------------
#NOTES:
     dance-single:
     :
     Challenge:
     15:
     1.000,1.000,0.516,0.172,1.000,1913.000,123.000,41.000,0.000,6.000:
0000
0000
0000
1100
,
0010
0000
0000
0001
0011
0000
0100
0000
,
0110
0000
0000
0100
1100
0000
0001
0000
,
0011
0000
0000
0000
0000
0000
0100
0000
0110
0000
0000
0000
0001
0000
0000
0010
,
0001
0000
1000
0000
0000
0000
0100
0000
1100
0010
0001
0010
0001
0000
0000
0000
,
0110
0000
0000
1000
1100
0000
0010
0000
,
0110
0000
0000
1000
1100
0000
0010
0000
,
0110
0000
0000
0100
0110
0000
1000
0000
,
1100
0000
0001
0000
0000
0000
0011
0000
1000
0100
1000
0100
1000
0000
0000
0000
,
0011
0000
0000
1000
1100
0000
0010
0000
,
0110
0000
0000
1000
1100
0000
0001
0000
,
0011
0000
0000
0100
0110
0000
1000
0000
,
1100
0000
0010
0000
0000
0001
0010
0000
0110
1000
0100
1000
0100
0000
0000
0000
,
0011
0000
0000
1000
1100
0000
0010
0000
,
0110
0000
0000
0001
0011
0000
0100
0000
,
0110
0000
0000
0000
0100
0000
0000
0000
0011
0000
0000
0000
2000
0000
0000
3000
,
2000
0000
0000
0000
0000
0000
0000
0000
0000
3000
0000
0000
2000
0000
0000
0000
0000
0000
3000
0000
0001
0000
0010
0000
0100
0000
1000
0000
0001
0000
0010
0000
0001
0000
0000
0000
2000
0000
0000
0000
0000
0000
0000
0000
0000
0000
0000
0000
,
0000
0000
0000
3000
0200
0000
0000
0000
0000
0000
0000
0300
0020
0000
0000
0000
,
0000
0000
0030
0000
0002
0000
0000
0000
0000
0000
0000
0003
0020
0000
0000
0000
,
0000
0000
0000
0030
0200
0000
0000
0000
0000
0000
0000
0300
2000
0000
0000
0000
,
0000
0000
0000
3000
0200
0000
0000
0000
0000
0000
0300
0000
1121
0000
0000
0000
,
0000
0000
0000
0030
0002
0000
0000
0000
0000
0000
0000
0003
0020
0000
0000
0000
,
0000
0000
0000
0030
0200
0000
0000
0000
0000
0000
0000
0300
2111
0000
0000
0000
,
0000
0000
0000
3000
0200
0000
0000
0000
0000
0000
0000
0300
1121
0000
0000
0000
,
0000
0000
0000
0030
0000
0001
0010
0001
0010
0000
0000
0000
1000
0000
0000
0000
,
0001
1000
0001
1000
,
0001
1000
0001
1000
,
0001
1000
0001
1000
,
0001
0000
0000
0000
1000
0000
0000
0000
0001
0100
0010
0100
0010
0000
1000
0000
,
0100
0010
0100
1000
0001
0100
0010
1000
,
0001
0000
0010
0000
0100
0000
1000
0000
0001
0000
0010
0000
0001
1000
0100
0010
,
0001
0000
0000
1000
0000
0000
0100
0000
0000
1000
0000
0000
0001
0000
0010
0000
0100
0000
0010
0000
0001
0000
1000
0000
0010
0000
0100
0000
0001
0000
1000
0000
0100
0000
1000
0000
0002
0000
0000
0000
0000
0000
0000
0000
0000
0003
0000
0000
,
0002
0000
0000
0003
0002
0000
0000
0003
4000
0000
0000
3000
0001
0010
0100
0010
,
0001
1000
0010
0100
0001
1000
0100
1000
0001
0010
0100
1000
0001
0010
0100
0010
,
0001
1000
0100
1000
0001
0100
0010
1000
0001
0010
0100
0010
0001
1000
0100
0010
,
0001
1000
0010
0100
0001
1000
0100
0010
0100
1000
0001
0010
0001
1000
0010
0100
,
0001
1000
0100
0010
0001
1000
0100
1000
0001
0010
0100
0010
0001
1000
0010
0100
,
0001
1000
0100
0010
0100
1000
0001
0010
0001
1000
0100
0010
0001
1000
0010
0100
,
0001
1000
0100
1000
0001
0010
0100
0010
0001
1000
0100
0010
0001
1000
0010
0100
,
0001
0100
0010
0100
0001
0010
0100
0010
0001
1000
0100
1000
0001
0010
0100
1000
,
0001
0100
0010
1000
0001
0010
0100
0010
0001
0100
0010
0100
0001
0010
0001
1000
,
0010
0100
0001
1000
0100
0010
0001
1000
0100
0010
0100
1000
0010
0100
0010
1000
,
0010
0100
0001
1000
0100
1000
0001
0010
0100
1000
0001
0100
0010
1000
0001
0010
,
0100
0010
0001
1000
0100
1000
0001
0100
0010
1000
0001
0010
0100
1000
0001
0010
,
0001
1000
0100
0010
0100
1000
0001
0100
0010
1000
0001
0010
0001
1000
0100
1000
,
0001
0010
0100
1000
0001
0100
0010
1000
0001
0010
0100
0010
0001
0100
0010
0100
,
0001
0010
0001
1000
0010
0100
0001
1000
0100
1000
0001
0010
0100
1000
0001
0010
,
0001
1000
0100
0010
0100
1000
0001
0100
0010
1000
0001
0010
0100
1000
0001
0010
,
0001
1000
0100
0010
0100
1000
0000
1000
0001
1000
0001
1000
0001
0000
0000
0000
,
0100
0110
0000
0001
0011
0000
1000
0000
,
1100
0000
0100
0000
0000
0000
0110
0000
1000
0001
1000
0001
1000
0000
0000
0000
,
0011
0100
0000
0110
1000
0000
0010
0000
,
0110
0000
0100
0000
0000
0000
1100
0000
0001
0010
0001
0010
0001
0000
0000
0000
,
0011
0010
0000
0100
0110
0000
0010
0000
,
0011
0000
0100
0000
0000
0000
0110
0000
1000
0100
1000
0100
1000
0000
0000
0000
,
1100
0100
0000
0001
0011
0000
0010
0000
,
0110
0000
0100
0000
0000
0000
1000
0000
0100
0000
0010
0100
0010
0000
0000
0000
,
0011
0001
0000
1000
1100
0000
0100
0000
,
0110
0000
0010
0000
0000
0000
0001
0000
0010
0100
0010
0100
0010
0000
0000
0000
,
1100
0100
0000
0010
0110
0000
1000
0000
,
1100
0000
0100
0000
0000
0000
0010
0000
0100
1000
0100
1000
0100
0000
0000
0000
,
0011
0010
0000
0100
0110
0000
1000
0000
,
1100
0000
0100
0000
0000
0000
0010
0000
0001
0010
0001
0010
0001
0000
0000
0000
,
1100
0000
0000
0100
0000
0000
0000
0000
0000
0010
0000
0000
0110
0000
0000
1000
0100
0000
0001
0000
0000
1000
0000
0000
,
0001
0000
0000
0000
0000
0000
1000
0000
0000
0000
1000
0000
0100
0000
0010
0000
0100
0000
1000
0000
0000
0001
0000
0000
0100
0000
0000
0010
0000
0000
1000
0000
0000
0000
0000
0000
0001
0000
0000
0100
0000
0000
0010
0000
0000
1000
0000
0000
,
0001
0010
0100
0010
0001
1000
0100
0010
0001
1000
0100
1000
0001
0010
0001
1000
,
0100
0010
0100
1000
0001
0100
0010
1000
0010
0100
0010
1000
0100
0010
0100
1000
,
0001
0010
0100
1000
0001
0100
0010
1000
0001
0010
0100
0010
0001
1000
0100
1000
,
0001
0010
0100
1000
0001
0010
0100
0010
0001
1000
0010
0100
0001
1000
0100
0010
,
0100
1000
0001
0010
0100
1000
0001
0010
0001
1000
0010
0100
0001
0100
0010
0100
,
0001
0010
0100
1000
0001
0010
0100
0010
0001
1000
0010
0100
0001
1000
0100
1000
,
0001
0010
0100
1000
0001
0010
0100
0010
0001
1000
0010
0100
0001
1000
0100
1000
,
0001
0010
0100
1000
0001
0000
0001
0010
0100
0010
0001
1000
0001
0010
0100
1000
,
0001
0010
0001
1000
0100
0010
0100
1000
0001
0100
0010
1000
0001
0010
0100
1000
,
0001
0010
0001
1000
0100
0010
0100
1000
0001
0100
0010
1000
0010
0100
0010
1000
,
0100
0010
0100
1000
0001
0010
0100
1000
0001
0100
0010
1000
0001
0010
0001
1000
,
0100
0010
0100
1000
0001
0010
0001
1000
0001
0000
1000
0000
0001
0010
0100
0010
,
0001
1000
0010
0100
0001
0100
0010
0100
0001
0010
0001
0000
1000
0000
0001
0000
,
1000
0000
0001
0000
1000
0000
0001
0000
1000
0000
0001
0000
1000
0010
0100
0001
,
1000
0000
0000
0100
0000
0000
0010
0000
0000
0001
0000
0000
1000
0000
0010
0000
0100
0000
0001
0000
1000
0000
0100
0000
0010
0000
0100
0000
1000
0000
0001
0000
0010
0000
0001
0000
0000
0000
0000
0000
0000
0000
0000
0000
0000
0000
0000
0000
,
0000
0000
0000
0000
0000
0000
0000
0000
4000
0000
0000
0000
3001
0010
0100
1000
,
0001
0010
0001
1000
0100
0010
0100
1000
0001
0100
0010
1000
0001
0010
0100
1000
,
0001
0010
0001
1000
0010
0100
0001
1000
0100
0010
0100
1000
0001
0010
0001
1000
,
0100
0010
0001
1000
0100
1000
0001
0100
0010
1000
0001
0010
0100
0010
0001
1000
,
0010
0100
0001
1000
0100
1000
0001
0010
0100
1000
0001
0100
0010
1000
0001
0010
,
0100
0010
0001
1000
0100
1000
0001
0010
0100
1000
0001
0100
0010
1000
0010
0100
,
0010
1000
0100
0010
0100
1000
0001
0100
0010
1000
0001
0010
0100
1000
0010
0100
,
0010
1000
0100
0010
0100
1000
0001
0100
0010
1000
0001
0010
0001
1000
0100
0010
,
0001
1000
0010
0100
0001
1000
0100
1000
0001
0010
0100
0010
0001
1000
0100
1000
,
0001
0100
0010
1000
0001
0010
0100
1000
0001
0010
0100
0010
0001
1000
0010
0100
,
0001
1000
0100
1000
0001
0010
0100
1000
0001
0100
0010
1000
0001
0010
0100
0010
,
0001
0100
0010
0100
0001
0100
0010
1000
0001
0010
0100
1000
0001
0010
0001
1000
,
0100
0010
0100
1000
0001
0100
0010
1000
0010
0100
0010
1000
0100
0010
0001
1000
,
0100
0010
0100
1000
0001
0100
0010
1000
0010
0100
0010
1000
0100
1000
0001
0010
,
0100
1000
0001
0010
0100
0010
0001
1000
0010
0100
0001
1000
0100
1000
0001
0010
,
0100
1000
0001
0100
0010
1000
0001
0010
0100
0010
0001
0000
1000
0000
0001
0010
,
0100
0000
0010
0000
0001
0000
1000
0000
0100
0000
0010
0000
0001
0010
0100
1000
,
0001
0100
0010
1000
0001
0010
0100
0010
0001
0100
0010
0100
0001
0010
0100
0010
,
0001
1000
0100
0010
0001
1000
0010
0100
0001
1000
0100
1000
0001
0010
0100
0010
,
0001
1000
0010
0100
0001
1000
0100
0010
0001
1000
0100
0010
0100
1000
0001
0100
,
0010
1000
0010
0100
0010
1000
0100
0010
0001
1000
0100
0010
0100
1000
0001
0100
,
0010
1000
0001
0010
0100
1000
0001
0010
0001
1000
0100
0010
0100
1000
0001
0100
,
0010
1000
0010
0100
0010
1000
0100
0010
0001
1000
0100
1000
0001
0100
0010
1000
,
0001
0010
0100
0010
0001
1000
0100
0010
0100
1000
0001
0010
0001
1000
0100
0010
,
0001
1000
0010
0100
0001
1000
0100
1000
0001
0010
0100
0010
0001
1000
0010
0100
,
0001
0100
0010
0100
0001
0010
0001
1000
0100
0010
0001
1000
0100
0010
0100
1000
,
0001
0010
0001
1000
0010
0100
0001
0100
0010
0100
0001
0010
0100
1000
0001
0010
,
0001
1000
0010
0100
0001
1000
0100
0010
0100
1000
0001
0010
0100
1000
0001
0010
,
0100
0010
0001
1000
0010
0100
0001
0100
0010
0100
0001
0010
0100
0010
0001
1000
,
0100
0010
0001
1000
0100
1000
0010
0100
0010
1000
0100
0010
0100
1000
0001
0100
,
0010
1000
0001
0010
0100
1000
0001
0010
0001
1000
0010
0100
0001
1000
0100
0010
,
0100
1000
0001
0010
0100
0010
0001
1000
0100
1000
0000
0000
0002
0000
0000
0003
,
0002
0000
0000
0000
0000
0000
0000
0000
0000
0003
0000
0000
1000
0000
0010
0000
0000
0000
0100
0000
0000
0000
0001
0000
0010
0000
0100
0000
1000
0000
0000
0000
0100
0000
0010
0000
0002
0000
0000
0000
0000
0000
0000
0000
0000
0000
0000
0000
,
0000
0000
0000
0003
0020
0000
0000
0000
0000
0000
0000
0030
0200
0000
0000
0000
,
0000
0000
0000
0300
2000
0000
0000
0000
0000
0000
0000
3000
0200
0000
0000
0000
,
0000
0000
0000
0300
0020
0000
0000
0000
0000
0000
0000
0030
0002
0000
0000
0000
,
0000
0000
0000
0003
0020
0000
0000
0000
0000
0000
0000
0030
1211
0000
0000
0000
,
0000
0000
0000
0300
2000
0000
0000
0000
0000
0000
0000
3000
0200
0000
0000
0000
,
0000
0000
0000
0300
0020
0000
0000
0000
0000
0000
0000
0030
1211
0000
0000
0000
,
0000
0000
0000
0000
0000
0300
2000
0000
0000
0000
0000
0000
0000
0000
0000
0000
0000
3000
1211
0000
0000
0000
0000
0000
,
0000
0000
0000
0000
0000
0000
0000
0000
0300
0000
0000
0000
0100
0000
0000
0010
0000
0000
0001
0000
0010
0000
0100
0000
0010
0000
0001
0000
0000
0000
0000
0000
0000
0000
0000
0000
1000
0000
0000
0000
0000
0000
0000
0000
0000
0000
0000
0000
,
0001
1000
0001
1000
,
0001
1000
0001
1000
,
0001
1000
0001
1000
,
0001
0000
1000
0000
0001
0000
1000
0001
,
1000
0001
1000
0001
1000
0001
1000
0001
,
1000
0000
0001
0000
1000
0000
0001
0000
1000
0000
0001
0000
1000
0100
0010
0100
,
1000
0000
0000
0001
0000
0000
0010
0000
0000
0001
0000
0000
1000
0000
0010
0000
0100
0000
0001
0000
1000
0000
0100
0000
0010
0000
0100
0000
1000
0000
0001
0000
0010
0000
0100
0000
1000
0000
0002
0000
0000
0000
0000
0000
0000
0000
0003
0000
,
0002
0000
0000
0000
0000
0000
0000
0000
0000
0000
0003
0000
0002
0000
0000
0000
0000
0000
0000
0000
0000
0000
0000
0000
0000
0000
0000
0000
0000
0000
0000
0000
0000
0000
0003
0000
1000
0000
0000
0010
0000
0000
0100
0000
0000
0001
0000
0000
,
1000
0100
1000
0001
0010
0100
0010
0001
0100
0010
0100
0001
0010
0100
0010
0001
,
1000
0100
0010
0001
1000
0010
0100
0001
1000
0100
0010
0100
1000
0001
0010
0001
,
1000
0100
0010
0100
1000
0001
0010
0100
1000
0001
0010
0001
1000
0010
0100
0001
,
0100
0010
0100
0001
0010
0100
0010
0001
1000
0100
0010
0001
1000
0100
1000
0001
,
0010
0100
0010
0001
0100
0010
0100
0001
0010
0100
0010
0001
1000
0100
0010
0001
,
1000
0010
0100
0001
1000
0100
0010
0100
1000
0001
0010
0001
1000
0100
0010
0100
,
1000
0001
0010
0100
1000
0001
0010
0001
1000
0010
0100
0001
1000
0100
1000
0010
,
0100
0010
1000
0100
0010
0100
1000
0001
0010
0100
1000
0001
0010
0001
1000
0010
,
0100
0001
1000
0100
0010
0100
1000
0001
0100
0010
1000
0001
0010
0001
1000
0100
,
0010
0001
1000
0100
0010
0100
1000
0001
0010
0001
1000
0010
0100
0001
0100
0010
,
0100
0001
0010
0100
0010
0001
1000
0100
0010
0001
1000
0100
1000
0001
0010
0100
,
0010
0001
1000
0100
1000
0001
0100
0010
1000
0001
0010
0100
1000
0001
0010
0100
,
0010
0001
1000
0100
1000
0001
0100
0010
1000
0001
0010
0100
0010
0001
1000
0010
,
0100
0001
1000
0100
0010
0001
1000
0010
0100
0001
1000
0100
0010
0100
1000
0001
,
0010
0001
1000
0100
0010
0100
1000
0001
0010
0001
1000
0100
0010
0100
1000
0001
,
0010
0100
1000
0001
0010
0000
0100
1000
0100
1000
0100
1000
0001
0010
0100
0010
,
0001
1000
0010
0100
0001
0100
0010
0100
0001
0010
0100
1000
0001
0010
0001
1000
,
0010
0100
0001
1000
0100
0010
0100
1000
0001
0010
0100
1000
0001
0100
0010
1000
,
0001
0010
0100
0010
0001
0100
0010
0100
0001
0100
0010
1000
0001
0010
0100
1000
,
0001
0010
0001
1000
0100
0010
0100
1000
0001
0100
0010
1000
0001
0010
0001
1000
,
0100
0010
0001
1000
0100
1000
0001
0010
0100
1000
0001
0010
0100
0010
0001
1000
,
0010
0100
0001
1000
0100
0010
0100
1000
0001
0010
0100
1000
0001
0010
0001
1000
,
0010
0100
0001
0100
0010
0100
0001
0010
0100
1000
0001
0010
0100
0010
0001
1000
,
0010
0100
0001
1000
0100
1000
0001
0010
0100
1000
0001
0010
0100
0010
0001
1000
,
0010
0100
0001
1000
0100
1000
0001
0010
0100
1000
0001
0000
0001
0010
0100
0010
,
0001
1000
0001
0010
0100
1000
0001
0010
0001
1000
0100
0010
0100
1000
0001
0100
,
0010
1000
0001
0010
0100
1000
0001
0010
0001
1000
0100
0010
0100
1000
0001
0100
,
0010
1000
0010
0100
0010
1000
0100
0010
0100
1000
0001
0010
0100
1000
0001
0100
,
0010
1000
0001
0010
0001
1000
0100
1000
0001
0100
0010
1000
0010
0100
0010
1000
,
0100
0010
0001
1000
0100
0010
0100
1000
0001
0100
0010
1000
0001
0010
0001
1000
,
0100
0010
0001
1000
0100
0010
0100
1000
0001
0100
0010
1000
0001
0010
0100
0010
,
0001
1000
0100
1000
0001
0010
0100
1000
0010
0100
0010
0100
0010
0000
0000
0000
,
0011
0110
1100
0110
,
1100
0011
0110
1100
,
0110
0011
0110
1100
,
0110
0101
0110
1010
,
1100
0110
0101
0110
,
1010
1100
0110
0011
,
0110
1100
0110
0110
,
0011
0011
1100
0110
,
1100
0110
1100
0110
,
0011
0110
1100
1100
,
0110
0011
0110
1100
,
0110
0011
0110
1100
,
0110
0011
1100
0110
,
1100
0011
0110
0011
,
0110
1100
0110
0011
,
0110
0000
0000
0000
1000
0100
0010
0001
1000
0010
0100
0001
0000
0000
0000
0000
,
0000
0000
0000
0000
,
0000
0000
0000
0000
;

//---------------dance-single - ----------------
#NOTES:
     dance-single:
     :
     Hard:
     16:
     1.000,1.000,0.122,0.206,1.000,2250.000,29.000,49.000,0.000,0.000:

0000
0000
0000
0000
,
0000
0000
0000
0000
,
0000
0000
0000
0000
,
0000
0000
0000
0000
0000
0000
0000
0000
0000
0000
0000
0000
1000
0001
0100
0010
,
1000
0100
0010
0100
1000
0001
0010
0100
1000
0100
0010
0100
1000
0001
0100
0010
,
1000
0001
0010
0100
1000
0100
0010
0100
1000
0001
0100
0010
1000
0100
0010
0100
,
1000
0001
0010
0100
1000
0100
0010
0100
1000
0001
0010
0100
1000
0100
0010
0100
,
1000
0001
0010
0100
1000
0001
0100
0010
1000
0100
0010
0100
1000
0001
0010
0100
,
1000
0100
0010
0100
1000
0001
0010
0100
1000
0100
0010
0100
1000
0001
0100
0010
,
1000
0100
0010
0100
1000
0001
0100
0010
1000
0100
0010
0100
1000
0001
0010
0100
,
1000
0100
0010
0100
1000
0001
0010
0100
1000
0100
0010
0100
1000
0001
0100
0010
,
1000
0100
0010
0100
1000
0001
0100
0010
1000
0100
0010
0001
0100
0010
1000
0100
,
0010
0100
1000
0001
0100
0010
1000
0100
0010
0100
1000
0001
0100
0010
1000
0001
,
0010
0100
1000
0001
0010
0100
1000
0100
0010
0001
0100
0010
1000
0001
0010
0100
,
1000
0100
0010
0100
1000
0001
0100
0010
1000
0100
0010
0100
1000
0001
0100
0010
,
1000
0100
0010
0100
1000
0001
0010
0100
1000
0100
0010
0100
2000
0000
0000
3001
,
2000
0000
0000
0000
0000
0000
3100
0000
0010
0000
0000
0000
0001
0000
1000
0000
0001
0100
0001
0100
0001
0000
1000
0000
0002
0000
0000
0000
0000
0000
0000
0000
,
0000
0203
0000
0320
,
0000
2030
0000
3200
,
0000
0320
0000
0032
,
0000
2000
3003
2001
,
0000
3002
0000
0023
,
0000
0230
0300
2001
,
0000
3002
0003
2002
,
0003
0000
0000
0000
3001
0000
0010
0100
0010
0000
0100
0000
0010
0001
1000
0010
,
0100
0001
1000
0100
0010
0100
1000
0001
0100
0010
1000
0100
0010
0100
1000
0001
,
0010
0100
1000
0001
0010
0001
1000
0010
0100
0001
1000
0100
0010
0100
1000
0001
,
0010
0100
1000
0100
0010
0100
1000
0001
0100
0010
1000
0100
0010
0100
1000
0001
,
0100
0010
1000
0100
0010
0001
0100
0010
1000
0100
0010
0001
0100
0010
0100
0010
,
1000
0100
1000
0100
0010
0001
0010
0001
1000
0010
1000
0010
0100
0001
0100
0001
,
0100
0010
0100
0010
1000
0010
1000
0010
0100
0001
0100
0001
0100
0010
1000
0100
,
0010
0000
0000
0100
0000
0000
1000
0000
0000
0001
0000
0000
0100
0000
0010
0000
1000
0000
0100
0000
0010
0000
0100
0000
1000
0000
0001
0000
0100
0000
0010
0000
1000
0000
0100
0000
0010
0000
0000
0000
0000
0000
0000
0000
0000
0000
0000
0000
,
0010
0000
0000
0000
0010
0000
0000
0000
0002
0000
1003
0001
0100
0010
1000
0100
,
0010
0100
1000
0001
0010
0100
1000
0100
0010
0100
1000
0001
0100
0010
1000
0100
,
0010
0100
1000
0001
0100
0010
1000
0100
0010
0100
1000
0001
0010
0100
1000
0001
,
0010
0001
1000
0100
1000
0001
0100
0010
1000
0100
0010
0100
1000
0001
0010
0100
,
1000
0100
0010
0100
1000
0001
0100
0010
1000
0001
0010
0100
1000
0001
0010
0001
,
0100
0010
0100
0001
1000
0100
1000
0001
0100
0010
0100
0001
1000
0100
0010
0001
,
0010
0100
1000
0001
0100
0010
1000
0001
0010
0100
1000
0100
0010
0100
1000
0001
,
0100
0010
1000
0100
0010
0100
1000
0001
0100
0010
1000
0100
0010
0100
1000
0001
,
0100
0010
1000
0100
0010
0001
0100
0010
1000
0001
1000
0001
1000
0100
0010
0001
,
1000
0100
0010
0001
0100
0010
1000
0001
0100
0010
0100
0001
1000
0100
0010
0001
,
0010
0100
1000
0001
0010
0001
0100
0010
1000
0010
0100
0001
1000
0100
0010
0001
,
0010
0100
1000
0001
0100
0010
1000
0010
0100
0001
0100
0010
1000
0100
0010
0001
,
0010
0100
1000
0001
0010
0001
0100
0010
1000
0100
0010
0100
1000
0010
0100
0001
,
0100
0010
1000
0100
0010
0100
1000
0001
0100
0010
1000
0100
0010
0100
1000
0001
,
0100
0010
1000
0001
0010
0100
1000
0100
0010
0100
1000
0001
0100
0010
1000
0100
,
1000
0001
1000
0100
1000
0001
0100
0010
1000
0100
0010
0100
1000
0001
0100
0010
,
1000
0100
1000
0001
0010
0100
1000
0100
0010
0100
1000
0001
1000
0100
1000
0001
,
0100
0010
1000
0100
0010
0100
1000
0001
0010
0100
1000
0100
0010
0100
1000
0001
,
0100
0010
1000
0001
0010
0100
1000
0100
0010
0100
1000
0001
0100
0010
1000
0100
,
0010
0100
1000
0001
0100
0010
1000
0001
0010
0001
1000
0010
1000
0001
0100
0010
,
1000
0001
0100
0010
0100
0001
1000
0100
0010
0100
1000
0001
0010
0100
1000
0001
,
0100
0010
0100
0001
1000
0010
0100
0010
1000
0001
0010
0001
0100
0010
1000
0001
,
0100
0010
1000
0100
0010
0100
1000
0001
0010
0100
1000
0100
0010
0001
0100
0010
,
1000
0001
0100
0010
1000
0100
1000
0001
0010
0100
1000
0001
0010
0001
1000
0100
,
1000
0001
0100
0010
0100
0001
1000
0100
0010
0001
0100
0001
0010
0100
1000
0001
,
0100
0010
1000
0001
0010
0001
0010
0001
0010
0001
0010
0001
1000
0010
0100
0001
,
1000
0100
0010
0100
1000
0001
0010
0100
1000
0100
0010
0001
0100
0010
1000
0001
,
0100
0010
1000
0001
0010
0001
1000
0100
1000
0001
0100
0010
1000
0100
0010
0100
,
1000
0001
0100
0010
1000
0001
0100
0010
1000
0100
1000
0001
0100
0010
0100
0001
,
0100
0010
1000
0001
1000
0100
0010
0100
0010
0001
0100
0010
1000
0001
0100
0010
,
1000
0100
0010
0100
1000
0001
0010
0100
1000
0100
0010
0100
1000
0001
0100
0010
,
1000
0001
0010
0100
1000
0100
0010
0001
0010
0100
1000
0001
0100
0010
1000
0100
,
0010
0000
0000
0001
0000
0000
0010
0000
0000
0100
0000
0000
1000
0000
0010
0000
0100
0000
0001
0000
0100
0000
0001
0000
0010
0000
0000
0100
0000
0000
1000
0000
0000
0001
0000
0000
0100
0000
0000
0010
0000
0000
1000
0000
0000
0001
0000
0000
,
0010
0100
1000
0100
0010
0100
1000
0001
0100
0010
1000
0001
0100
0010
0100
0010
,
1000
0001
1000
0001
0100
0010
0100
0010
1000
0001
1000
0001
1000
0100
0010
0100
,
1000
0001
0100
0010
1000
0100
0010
0100
1000
0001
0010
0100
1000
0001
0100
0010
,
1000
0100
1000
0001
0010
0100
1000
0100
0010
0001
0100
0010
1000
0001
0010
0100
,
1000
0100
0010
0100
1000
0001
0100
0010
1000
0100
0010
0001
0100
0010
1000
0100
,
0010
0100
1000
0001
0100
0010
1000
0001
0010
0100
1000
0100
0010
0001
0100
0010
,
1000
0001
0100
0010
1000
0100
0010
0100
1000
0001
0100
0010
1000
0001
0100
0010
,
1000
0100
0010
0001
1000
0000
1000
0000
0001
1000
0001
1000
0001
0100
0010
1000
,
0001
0100
0010
1000
0100
0010
0001
0100
0010
1000
0001
0010
0100
1000
0100
0010
,
0001
0100
0010
1000
0001
0010
0100
1000
0100
0010
0100
0010
0001
1000
0001
0100
,
0010
1000
0001
0100
0010
1000
0001
1000
0010
1000
0001
1000
0100
1000
0001
0100
,
0010
1000
0100
0010
0001
0010
0100
1000
0001
0100
0010
1000
0100
0010
0001
0100
,
0010
1000
0001
0010
0100
1000
0100
0010
0100
1000
0001
0010
0100
1000
0001
0100
,
0010
1000
0001
0010
0100
1000
0100
0010
0100
1000
0001
0100
0010
1000
0100
0010
,
0001
0000
0000
0010
0000
0000
0100
0000
0000
1000
0000
0000
0010
0000
0100
0000
0001
0000
0100
0000
0010
0000
1000
0000
0100
0000
0010
0000
0100
0000
1000
0000
0001
0000
0100
0000
0010
0000
0000
0000
0000
0000
0000
0000
0000
0000
0000
0000
,
0010
0000
0010
0000
0010
0000
2000
3000
,
0002
0000
0000
0000
0000
0000
0003
0000
0000
0000
0000
0000
2001
0000
0000
0000
0000
0000
0001
0000
3000
0100
0000
0000
0010
0000
0000
1000
0000
0000
0100
0000
0000
0010
0000
0000
0001
0000
0000
0000
0000
0000
0100
0000
0000
0010
0000
0000
,
0400
0000
0000
0000
0310
0000
1000
0001
0400
0000
0000
0000
0340
0000
4030
0000
,
3400
0000
0340
0000
0230
0000
1300
0001
0100
0010
1000
0100
0010
0000
0001
0000
,
0400
0340
0000
4030
,
3004
0000
0000
0000
0103
0000
0010
1000
0100
0010
0100
1000
0001
0100
0010
1000
,
0004
0000
0000
0000
0103
0010
0100
0001
4000
0000
0000
0000
3001
0000
0001
0000
,
0001
0000
0001
0000
0001
0000
1000
0010
0100
0001
0100
0010
2000
0000
3200
0000
,
0320
0230
2300
3002
0203
0310
4000
0000
,
3040
0000
0000
0000
0130
0000
0001
0100
0010
1000
0100
0010
0001
1000
0010
0100
,
0004
0000
0000
0000
0103
0010
1000
0001
0400
0000
0000
0000
0301
0000
0001
0000
,
0001
0000
0001
0000
0100
0000
0010
1000
0001
0100
0010
1000
0010
0000
0400
0000
,
0310
0000
4000
0000
3010
0000
0400
0000
0301
1000
0010
0100
0001
0000
0100
0000
,
0040
0000
0000
0000
1030
0000
0001
0100
0010
1000
0100
0010
0001
1000
0001
1000
,
0004
0000
0000
0000
0103
0010
0100
0001
0400
0000
0000
0000
0320
0000
2030
0000
,
3020
0000
0000
0000
0000
0000
0230
0000
0000
0000
0000
0000
0301
0000
0010
0000
0100
0000
1000
0000
0100
0000
0010
0000
0100
0000
1000
0000
0001
0000
0100
0000
0010
0000
1000
0000
0001
0000
0000
0000
0000
0000
0100
0000
0000
0010
0000
0000
,
0100
0000
0010
0000
1000
0000
0001
0000
1000
0000
0010
0000
1000
0100
0010
0100
,
1000
0001
0100
0010
1000
0100
0010
0100
1000
0001
0010
0100
1000
0100
0010
0100
,
1000
0001
0100
0010
1000
0100
0010
0001
0010
0100
1000
0001
0100
0010
1000
0100
,
0010
0100
1000
0001
0010
0100
1000
0100
0010
0001
0100
0010
1000
0010
0100
0001
,
4000
0000
0000
0000
3001
0000
0100
0000
0010
0000
0010
0000
1000
0100
1000
0001
,
0100
0010
1000
0001
0010
0100
1000
0100
0010
0100
1000
0001
0100
0010
1000
0001
,
0010
0100
1000
0100
0010
0100
1000
0001
0100
0010
1000
0100
0040
0000
0000
0000
,
0031
0000
0001
0000
4000
0000
0000
0000
3010
0000
0010
0000
0100
0001
0100
0001
,
0400
0000
0000
0000
0310
1000
0010
1000
0010
0100
0001
0100
0010
1000
0100
0010
,
0100
1000
0001
0010
0100
1000
0100
0010
0100
1000
0010
0100
0010
1000
0001
0100
,
0010
1000
0001
0010
0100
1000
0100
0010
0100
1000
0001
0100
0010
1000
0100
0010
,
0100
1000
0001
0100
0010
1000
0001
0010
0100
1000
0100
0010
0100
1000
0001
0100
,
0010
1000
0001
0010
0100
1000
0100
0010
0100
1000
0001
0010
0100
1000
0001
0100
,
0001
0100
0010
1000
0010
1000
0001
0100
0010
1000
0100
0010
0001
0100
0010
1000
,
0100
0010
0100
1000
0001
0100
0010
1000
0100
0010
0100
1000
0001
0100
0010
1000
,
0100
0000
0000
0010
0000
0000
0100
0000
0000
1000
0000
0000
0001
0000
0100
0000
0010
0000
1000
0000
0100
0000
0010
0000
0100
0000
1000
0000
0001
0000
0010
0000
0100
0000
1000
0000
0010
0000
0000
0100
0000
0000
0001
0000
0000
0100
0000
0000
,
0004
0000
0000
0000
1003
0010
0400
0000
0301
1000
0010
0000
0200
0000
0000
0000
,
0000
0302
0000
2003
,
0000
3020
0000
0230
,
0000
0302
0000
2003
,
0000
0002
3003
0210
,
0000
0320
0000
2030
,
0000
0200
3300
2001
,
0000
0020
3030
2001
,
0000
0000
0000
0000
0000
0000
0000
0000
0000
0000
0000
0000
3010
0000
0000
0100
0000
0000
0001
0000
0100
0000
0010
0000
1000
0000
0000
0001
0000
0000
1000
0000
0000
0000
0000
0000
0001
0000
0000
0100
0000
0000
0001
0000
0000
0100
0000
0000
,
0010
1000
0100
1000
0001
0010
0100
1000
0001
0100
0001
0010
0001
1000
0100
1000
,
0001
0100
0010
1000
0001
0100
0010
1000
0001
0010
0100
1000
0100
0010
0100
1000
,
0001
0010
0100
1000
0001
0010
0100
1000
0100
0010
0100
1000
0001
0100
0010
1000
,
0001
0100
0010
1000
0100
0010
0100
1000
0001
0100
0010
1000
0001
0100
0001
0100
,
0010
1000
0010
1000
0001
0100
0001
0100
0010
1000
0010
1000
0001
0010
0001
0010
,
0100
1000
0100
1000
0001
0100
0001
0100
0001
0100
0001
0100
0010
1000
0001
0100
,
0010
0000
0000
1000
0000
0000
0100
0000
0000
0010
0000
0000
0001
0000
1000
0000
0010
0000
1000
0000
0100
0000
1000
0000
0001
0000
0010
0000
0100
0000
1000
0000
0100
0000
0010
0000
0001
0000
0000
0000
0000
0000
0000
0000
0000
0000
0000
0000
,
0000
0000
0000
0000
0000
0000
0000
0000
0000
0000
0000
0000
1000
0001
0100
0010
,
1000
0001
0100
0010
0100
0001
0100
0010
0100
0001
0100
0010
1000
0100
1000
0010
,
0100
0010
1000
0100
1000
0001
0100
0010
1000
0100
0010
0100
1000
0001
0010
0100
,
1000
0100
0010
0100
1000
0001
0100
0010
1000
0100
0010
0100
1000
0001
0010
0100
,
1000
0001
0100
0010
1000
0001
0100
0010
0100
0001
0010
0100
1000
0100
0010
0100
,
1000
0001
0100
0010
1000
0001
0010
0100
1000
0001
0010
0001
1000
0100
0010
0001
,
0100
0010
1000
0001
0010
0100
1000
0100
0010
0001
0100
0010
1000
0001
0100
0010
,
0100
0001
0010
0001
0100
0010
0100
0001
0100
0010
0100
0001
1000
0100
0010
0001
,
0100
0010
0100
0001
0010
0100
1000
0001
0100
0010
1000
0001
0010
0100
0010
0001
,
1000
0010
0100
0001
0100
0010
0100
0001
0100
0010
0100
0010
0100
0001
0100
0010
,
1000
0001
0010
0100
1000
0100
0010
0001
1000
0010
0100
0001
0010
0001
0100
0010
,
1000
0100
0010
0100
1000
0001
0100
0010
1000
0100
0010
0001
0100
0010
1000
0001
,
0100
0010
1000
0001
0010
0100
1000
0100
0010
0100
1000
0001
0100
0010
1000
0100
,
0010
0100
1000
0001
0010
0100
1000
0100
0010
0001
0100
0010
1000
0001
0100
0010
,
1000
0001
0010
0001
0100
0010
0100
0001
0100
0010
1000
0100
1000
0001
0100
0010
,
1000
0001
0010
0100
0010
0100
0010
0001
0100
0010
0100
0001
0100
0010
0100
0010
,
1000
0001
0010
0100
1000
0100
0010
0001
0100
0010
0100
0001
1000
0010
1000
0100
,
0010
0001
1000
0100
0010
0001
0010
0100
1000
0001
0100
0010
1000
0001
0010
0100
,
1000
0001
0100
0010
0100
0001
0100
0010
1000
0100
0010
0001
0100
0010
1000
0001
,
0010
0100
1000
0100
0010
0001
1000
0010
0100
0001
0010
0100
1000
0100
0010
0001
,
0010
0100
1000
0001
0100
0010
1000
0001
0010
0100
1000
0100
0010
0001
0010
0100
,
1000
0001
0100
0010
1000
0001
0100
0010
1000
0100
1000
0001
0010
0100
1000
0100
,
0010
0001
1000
0010
1000
0001
0010
0100
1000
0100
0010
0001
0100
0010
1000
0001
,
0010
0100
1000
0100
0010
0001
0010
0100
1000
0001
0100
0010
1000
0001
0010
0100
,
1000
0100
0010
0001
0010
0100
1000
0001
0100
0010
1000
0001
0010
0100
1000
0100
,
0010
0001
0100
0010
0100
0001
0010
0100
1000
0100
0010
0001
0100
0010
1000
0001
,
0010
0100
1000
0100
0010
0100
1000
0001
0100
0010
1000
0100
0010
0100
1000
0001
,
0010
0100
1000
0100
0010
0100
1000
0001
0010
0100
1000
0100
0010
0001
0100
0010
,
1000
0001
0100
0010
0100
0001
0010
0100
1000
0100
0010
0001
0100
0010
0100
0001
,
0010
0100
1000
0100
0010
0001
0100
0010
0100
0001
0010
0100
1000
0001
0100
0010
,
0100
0001
0010
0100
1000
0100
0010
0001
0010
0100
1000
0001
0100
0010
1000
0100
,
0010
0100
1000
0001
0100
0010
1000
0100
0010
0001
0100
0010
1000
0001
0100
0010
,
1000
0001
0010
0100
1000
0100
0010
0100
1000
0001
0100
0010
1000
0000
0000
0000
,
0001
0000
0100
0000
0010
0000
1000
0100
,
0010
0000
0001
0000
1000
0000
0010
0000
0100
0000
0001
0100
0010
0000
1000
0000
,
0100
0010
0001
0100
0010
1000
0100
0010
,
0001
0000
0100
0000
0010
0000
1000
0000
0001
0000
1000
0001
1001
0000
0100
0000
,
0010
1000
0100
0010
0100
1000
0001
0010
,
0100
0000
1000
0000
0100
0000
0010
0000
0001
0000
1000
0001
0010
0000
0100
0000
,
1000
0001
0100
0010
1000
0100
0010
0001
,
0100
0000
0010
1000
0010
0000
0100
0000
0001
0100
0001
0100
0010
0000
1000
0000
,
0001
0100
0010
1000
0100
0010
0001
0010
,
0100
0000
1000
0000
0001
0000
0100
0000
0010
0000
1000
0001
0100
0000
0010
0000
,
1000
0001
0010
0100
1000
0100
0010
0001
,
0100
0010
1000
0001
0010
0100
1100
0100
,
0010
0001
0100
0010
1000
0001
0010
0100
,
1000
0000
0100
0000
0010
0000
0001
0000
0100
0000
0001
1000
0001
0000
0100
0000
,
0010
1000
0100
0010
0100
1000
0001
0100
,
0010
1000
0001
0000
0000
0000
0000
0000
;
