#TITLE:-X-perience;
#SUBTITLE:;
#ARTIST:DJ Lee Feat. Reflex;
#TITLETRANSLIT:;
#SUBTITLETRANSLIT:;
#ARTISTTRANSLIT:;
#CREDIT:;
#BANNER:-X-perience.png;
#BACKGROUND:-X-Perience-bg.png;
#LYRICSPATH:;
#CDTITLE:;
#MUSIC:Dj Lee - x - perience.mp3;
#OFFSET:0.000;
#SAMPLESTART:100.000;
#SAMPLELENGTH:11.940;
#SELECTABLE:YES;
#BPMS:0.000=140.020,194.000=70.000,209.250=140.020;
#STOPS:0.000=1.840
,65.250=3.000
,209.250=0.640
;
#BGCHANGES:;
// cache tags:
#FIRSTBEAT:1.000;
#LASTBEAT:509.250;
#SONGFILENAME:Songs/longs versions/-X-perience/X-perience.sm;
#HASMUSIC:1;
#HASBANNER:1;
#MUSICLENGTH:232.262;
// end cache tags

//---------------dance-single - ----------------
#NOTES:
     dance-single:
     :
     Hard:
     10:
     1.000,1.000,0.753,0.921,1.000,1629.000,175.000,214.000,0.000,7.000:
0000
0000
0000
0000
1001
0100
0000
0000
1001
0000
0000
0000
1001
0100
0000
0000
,
1001
0000
0000
0000
1001
0100
0000
0000
1001
0000
0100
0100
0000
1001
0000
0000
,
1001
0000
0000
0000
1001
0010
0000
0000
1001
0000
0000
0000
1001
0010
0000
0000
,
1001
0000
0000
0000
1001
0010
0000
0000
1001
0000
0010
0010
0000
1001
0000
0000
,
1001
0000
0000
0000
1001
0110
0000
0000
1001
0000
0000
0000
1001
0110
0000
0000
,
1001
0000
0000
0000
1001
0110
0000
0000
1001
0000
0000
0000
1001
0110
0000
0000
,
1001
0000
0000
0000
1001
0110
0000
0000
1001
0000
0000
0000
1001
0110
0000
0000
,
1001
0000
0000
0000
1001
0000
0000
0000
0000
0000
0000
0000
1000
0100
0001
0100
,
0010
0001
0010
0100
1000
0001
1000
0010
1000
0100
1000
0010
1000
0001
1000
0010
,
1000
0100
1000
0001
1000
0010
1000
0001
1000
0100
1000
0010
1000
0100
1000
0100
,
1000
0000
0000
0000
0010
0100
0010
0100
1000
0001
1000
0001
0010
0100
0010
0100
,
1000
0001
1000
0001
0010
0100
0010
0100
1000
0001
1000
0001
0100
0010
0100
0010
,
0100
0000
0000
0000
1000
0100
0010
0001
0010
0100
1000
0100
0010
0001
0010
0100
,
1000
0001
0010
0100
1000
0100
0010
0001
0010
0100
1000
0001
0010
0100
1000
0010
,
0100
0000
0000
0000
1000
0001
0100
0010
1000
0001
0100
0010
1000
0001
0100
0010
,
1000
0001
0100
0010
1000
0001
0100
0010
1000
0001
0100
0010
1000
0001
0100
0010
,
1000
1000
1000
1000
1000
0000
0000
0000
1001
0000
0000
0000
1100
0000
0000
0000
,
0110
0101
1010
1100
,
0110
0101
0110
1100
,
1010
1100
1010
0101
,
0011
0101
1100
0110
,
1001
0011
1100
0101
,
1010
1100
0110
0101
,
1010
0000
0110
0000
0011
0000
1100
1001
,
1001
0000
1001
0000
1001
0000
1001
0000
1001
0100
0010
0000
1001
0100
0010
0000
,
1001
0010
0100
0000
1001
0010
0100
0000
1100
0010
0100
0000
1100
0010
0100
0000
,
0011
0100
0010
0000
0011
0100
0010
0000
0110
1000
0001
0000
0110
0001
1000
0000
,
0110
1000
0010
0000
0110
0100
0000
0000
0110
1000
0100
0001
0100
1000
0100
0010
,
0100
0010
0100
1000
0010
0100
1000
0100
1001
0100
0010
0001
0010
0100
1000
0010
,
0100
1000
0010
0100
0001
0100
0010
0100
1001
0100
0010
0100
1000
0100
0010
0100
,
1000
0001
1000
0001
0100
0010
0100
0010
1001
1000
0100
0001
0100
1000
0010
1000
,
1001
0001
0001
0010
1000
0010
0001
0010
1001
0100
0010
0000
1001
0010
0100
0000
,
1001
0100
0010
0001
0100
0010
1001
0000
1001
0100
0010
0100
1000
0100
0010
0001
,
0100
0010
1000
0001
0100
0010
0100
1000
0100
0010
0100
1000
0100
0001
0100
1000
,
0100
0001
0100
1000
0100
0010
0100
1000
0100
1000
0100
0010
0100
1000
0100
0001
,
0100
1000
0100
0010
0100
1000
0100
1000
0100
1000
0001
1000
0010
1000
0100
1000
,
0010
1000
0001
1000
0010
1000
0100
1000
0001
0010
0001
0100
0001
1000
0001
0100
,
0001
0010
0001
0100
0001
1000
0001
0100
0001
0010
0100
1000
0100
0010
0001
0010
,
0100
0001
1000
0010
0100
0001
1000
0001
0100
0010
0100
1000
0100
0010
0001
0100
,
0010
1000
0001
0100
0010
1000
0001
0100
0001
0010
0100
1000
0001
0010
0100
1000
,
1000
0100
0010
0001
1000
0100
0010
0001
1001
0100
0010
0100
1001
0100
0010
0100
,
1001
0010
0100
0010
1001
0010
0100
0010
1001
0100
0010
0100
1000
0100
0010
0100
,
1001
0010
0100
0010
0001
0010
0100
0010
1001
0010
0100
0010
0001
0010
1000
0010
,
0100
0010
0001
1000
0100
0010
0001
1000
0002
2003
3200
0320
0032
2003
3002
0203
,
0320
0230
0320
0230
2300
3002
2003
3002
2003
3002
0023
0230
2300
3200
0320
0230
,
2300
3002
0203
0320
0032
0023
0230
2300
3200
0320
0032
0023
0230
2300
3200
0320
,
0032
0203
2300
3200
0320
0230
2300
3200
0302
0203
2300
3200
0302
0203
2300
3200
,
0302
0203
0302
0203
0302
0203
0302
0203
2300
3200
2300
3200
2300
3200
2300
3200
,
2300
3200
0302
0203
2300
3020
0032
0023
1030
0100
0010
0001
0010
0100
1000
0001
,
0100
0010
1000
0100
1000
0100
1000
0010
0100
0010
0100
0010
0100
0010
0100
1000
,
0001
0000
1000
0000
0001
0000
1000
0000
0001
0000
1000
0000
0001
0000
1000
0000
0010
0000
0010
0000
0010
0000
0010
0000
1000
0100
0000
0001
0000
0001
0100
0000
,
0000
0000
0010
0000
0010
0000
0010
0000
0100
0010
0000
0001
0000
0001
0010
0000
0010
0000
0000
0000
0010
0000
0010
0000
0100
0010
0000
0001
0000
0001
0010
0000
,
0010
0000
0000
0000
0000
0000
0000
0000
0010
0000
0000
0000
0010
0000
0000
0000
0100
0000
0010
0000
0000
1001
0000
0000
0100
0000
0000
0000
1000
0000
0000
0000
0100
0000
0000
0000
0001
0000
0000
0000
0100
0000
0000
0000
0001
0000
0000
0000
0100
0000
0000
0000
0010
0000
0000
0000
0001
0000
0000
0000
0100
0000
0000
0000
,
0001
0100
0001
0010
0100
1000
0100
0010
0100
0001
0100
0001
0100
0010
0001
0100
,
0001
1000
0100
0001
1000
0001
0100
1000
0100
0001
1000
0010
0100
0001
1000
0100
,
1000
0010
0100
1000
0010
0100
0010
0001
0010
0100
0000
1000
0100
0010
0001
0100
,
0010
1000
0100
1000
0010
1001
0000
0110
0000
1001
0000
0110
0000
1001
0000
0110
,
0000
1001
0000
0110
0000
1100
0000
0011
0000
1100
0000
0011
0000
1100
0000
0011
,
0000
1100
0000
0011
0000
1000
0001
1000
0001
1000
0001
1000
0001
1000
0001
1000
,
0001
1000
0001
1000
0001
1000
0001
1000
0001
1000
0001
1000
0001
1000
0001
1000
,
0001
1000
0001
1000
0000
0001
0100
1000
0100
0001
1000
0100
1000
0010
0100
1000
,
0100
0001
1000
0100
0010
0100
1000
0001
0100
0010
1000
0001
0010
0100
1000
0001
,
0100
0010
1000
0100
1000
0010
0100
0001
0010
0001
0100
0010
1000
0100
1000
0100
,
0001
0010
0001
0100
1000
0100
0001
0010
0100
1000
0100
0001
0100
1000
0010
0001
,
0010
1000
0100
0001
0100
0010
0001
0010
0100
0010
0001
0010
0100
0010
0001
0100
,
0010
0100
1000
0100
0010
1000
0001
1000
0100
1000
0001
1000
0100
1000
0001
1000
,
0001
1000
0001
0100
0010
0100
1000
0100
0010
0100
1000
0100
0010
0100
1000
0100
,
0010
0100
1000
0100
0010
0001
0010
0100
1000
0100
1000
0100
0010
0001
0010
0001
,
0010
0100
1000
0100
0010
0001
1001
0100
0010
0001
0100
0010
0100
1000
0100
0010
,
0100
0010
0001
0010
0100
0001
0100
0010
0100
1000
0100
0010
1000
0100
0010
0100
,
1000
0010
0100
0010
0001
0010
0100
1000
0100
0010
0001
0100
0010
0001
0010
0100
,
0001
0100
0100
0001
0100
0010
0001
0010
0100
1000
0001
0100
0010
0001
0010
0100
,
0010
0100
1000
0100
1000
0100
0010
0100
0010
0001
0010
0100
0001
0100
0010
1000
,
0100
1000
0010
0100
0001
0100
0010
0100
0001
0100
0010
0100
0001
0100
0010
0100
,
0001
0100
0010
0100
1000
0100
0010
0100
1000
0100
0010
0100
1000
0100
0001
0100
,
0010
0100
0001
0100
0010
0001
0100
0010
0100
0001
0100
1000
0001
1000
0001
1000
,
0001
1000
0001
0200
2300
3200
0302
0203
2300
3200
0302
0203
2300
3200
0302
0023
,
0230
2300
3200
0320
0230
0302
0023
0230
0302
2003
3002
0203
0320
0230
2300
3200
,
2300
3200
0320
0032
0023
0230
0302
0203
0320
0032
0023
0032
0203
2300
3200
0302
,
0023
0032
0203
0302
2003
3002
0203
0320
0230
2300
3200
0320
0032
2003
3002
2003
,
3200
0320
0230
0320
0230
0320
0230
0320
0230
0320
0230
0320
0032
0023
0032
0203
,
0320
2030
3200
0302
0023
2030
3002
0203
0320
0230
0302
0023
2030
3200
0320
0032
,
2003
3002
0203
0320
0230
0320
0230
0320
0230
0320
0230
0320
0230
0320
0230
0320
,
0230
0320
0230
2300
3002
2003
3002
2003
3002
2003
3002
2003
3002
2003
3002
2003
,
3002
2003
3002
0003
0000
1000
0100
0001
0000
1000
0000
0001
0100
0000
0001
0100
,
0000
0001
0100
0000
1000
0001
0100
1000
0000
0001
0010
0000
0001
0000
0001
0010
,
0100
1000
0100
0010
0001
0100
0010
0001
0000
0100
0000
0001
0100
0000
0001
0100
,
0000
0001
0100
0000
0010
0001
0100
1000
0000
0001
1000
0000
0010
0000
0100
0001
,
0000
1000
0010
0100
0001
0010
0100
1000
0000
0001
0010
0000
0100
0000
1000
0100
,
0000
0010
0001
0100
0010
0001
1000
0100
0000
0001
0000
0010
1000
0000
0001
0100
,
0010
1000
0100
0010
0001
0100
0010
0001
0000
0100
0000
0001
0010
0000
0100
1000
,
0000
0000
0001
0000
0000
0000
0100
0000
1000
0000
0000
0000
0000
0000
0000
0000
0000
0000
0000
0000
0000
0000
0000
0000
0001
1000
0100
0010
0001
1000
0100
0010
,
0001
1000
0100
0010
0001
0000
0010
0000
0000
0000
1001
0000
0100
0000
0000
0000
0000
0000
1001
0000
0000
0000
0000
0000
0000
0000
1001
0000
0100
0000
0000
0000
,
0000
1001
0000
0000
0000
1001
0100
0000
0000
1001
0000
0000
1001
0000
1001
0000
,
0000
1001
0000
0000
0000
1001
0110
0000
0000
1001
0000
0000
0000
1001
0110
0000
,
0000
1001
0000
0000
0000
1001
0110
0000
0000
1001
0000
0110
1001
0000
1001
0000
,
0000
1001
0000
1000
0000
1001
0000
0100
0010
1001
0000
1000
0000
1001
0000
0100
,
0010
1001
0000
1000
0000
1001
0000
0100
0010
1001
0000
1000
0000
1001
0000
0100
,
0010
1001
0000
1000
0000
1001
0000
0100
0010
1001
0000
1000
0000
1001
0000
0100
,
0010
1001
0000
1000
0000
2002
0000
0000
0000
0000
0000
0000
3003
0000
0000
0000
,
0000
0000
0000
0000
0000
0110
0000
0000
0000
0110
0000
0000
0000
0110
0000
0000
,
0000
0110
0000
0000
0000
0011
0000
0000
0000
0011
0000
0000
0000
0011
0000
0000
,
0000
0011
0000
0000
0000
1110
0000
0000
0000
1110
0000
0000
0000
1110
0000
0000
,
0000
1110
0000
0000
0000
1110
0000
0000
0000
1110
0000
0000
0000
1100
0000
0000
,
0000
1100
0000
0000
0000
1001
0100
1000
0100
0010
0001
0100
0010
1000
0100
1000
,
0010
0100
0001
0010
0001
0110
1000
0001
0010
0001
0100
0010
1000
0100
1000
0010
,
0100
0001
0010
0100
0010
1001
0100
0010
0100
1000
0100
0010
0100
1001
0010
0001
,
0010
0000
0100
0000
0010
0000
0001
0000
0010
0000
1001
0000
0100
0000
0010
0000
0100
0000
1001
0000
0010
0000
0100
0000
0010
0000
1000
0001
1000
0001
1000
0001
,
1000
0001
1000
0001
1000
0001
1000
0001
1000
0001
0001
0000
0100
0000
1000
0000
0100
0000
0001
0000
1000
0000
0100
0000
1000
0000
0001
0000
0010
0000
0100
0000
,
0010
0001
1000
0100
0010
0001
0100
0010
0100
0001
1000
0010
1000
0001
1000
0100
,
1000
0010
1000
0100
1000
0010
1000
0001
1000
0010
0100
1000
0100
0010
0100
1000
,
0010
0100
1000
0010
1000
0010
1000
0100
1000
0001
0010
0001
1000
0100
1000
0001
,
0100
0001
1000
0010
1000
0001
0010
0001
1000
0010
0100
0001
0010
0001
0100
0010
,
1000
0100
1000
0010
0100
0001
1000
0100
0010
0001
0100
0010
1000
0001
0100
0010
,
1000
0001
0100
0010
1000
0100
1000
0010
0100
0001
0010
0001
0100
0010
1000
0100
,
1000
0001
0100
0010
1000
0100
1000
0010
0100
0001
1000
0100
0010
0001
0100
0010
,
1000
0100
1000
0010
0100
0001
1000
0100
1000
0010
0100
0001
1000
0001
0010
0001
,
0100
0010
1000
0100
0001
0100
0010
1000
0100
1000
0010
0100
0001
1000
0100
0010
,
0001
0100
0010
1000
0010
0100
0001
1000
0100
0010
0001
0100
0010
1000
0100
0010
,
1000
0100
0001
0100
1000
0010
0001
0010
1000
0100
0010
0100
1000
0010
0100
0010
,
1000
0010
0001
0100
0010
0001
0010
0100
0001
0100
1000
0010
0100
0001
1000
0100
,
0010
0001
0100
0010
1000
0100
1000
0010
0100
0001
1000
0100
0010
0001
0100
0010
,
1000
0100
1000
0010
0100
0001
1000
0100
0010
0001
0100
0010
1000
0100
0010
0001
,
0100
0010
1000
0100
1000
0010
0100
0010
0001
0100
0010
1000
0100
0010
0001
1000
,
0100
0010
0001
0100
0010
2222
0000
0000
0000
0000
0000
0000
0000
0000
0000
0000
,
0000
0000
0000
0000
,
0000
0000
0000
0000
,
0000
0000
0000
0000
0000
3333
0000
0000
0000
0000
0000
0000
0000
0000
0000
0000
;
