#TITLE:Switchblade Squadron;
#SUBTITLE:;
#ARTIST:Covox;
#TITLETRANSLIT:;
#SUBTITLETRANSLIT:;
#ARTISTTRANSLIT:;
#CREDIT:;
#BANNER:switchbn.png;
#BACKGROUND:switchblade.png;
#LYRICSPATH:;
#CDTITLE:;
#MUSIC:Covox - Switchblade Squadron cut.mp3;
#OFFSET:-0.166;
#SAMPLESTART:55.887;
#SAMPLELENGTH:12.000;
#SELECTABLE:YES;
#BPMS:0.000=176.600;
#STOPS:95.000=1.500
;
#BGCHANGES:;
// cache tags:
#FIRSTBEAT:0.000;
#LASTBEAT:296.000;
#SONGFILENAME:Songs/toune 8/Switchblade Squadron/switch.sm;
#HASMUSIC:1;
#HASBANNER:1;
#MUSICLENGTH:106.344;
// end cache tags

//---------------dance-single - ----------------
#NOTES:
     dance-single:
     :
     Easy:
     2:
     1.000,1.000,1.000,1.000,0.254,600.000,254.000,196.000,0.000,75.000:
0010
0010
1100
1000
0000
0010
1100
1000
,
0010
0010
1100
1000
0000
0001
1100
1000
,
0100
0100
1100
1000
0000
0001
1100
0001
,
0100
1100
1000
1100
1100
0001
0000
1100
,
0020
0030
0020
0030
2100
3000
2000
3000
0020
0030
0020
0030
1100
0000
1000
0000
,
0002
0003
0002
0003
2100
3000
2000
3000
0002
0003
0002
0003
1100
0000
1000
0000
,
0200
0300
0200
0300
2100
3000
2000
3000
0200
0300
0200
0300
1100
0000
1000
0000
,
0020
0030
0020
0030
2100
3000
2000
3000
0020
0030
0020
0030
1100
0000
1000
0000
,
0020
0030
0020
0030
2100
3000
2000
3000
2020
3030
0020
0030
2200
3300
0010
0000
,
0002
0003
0002
0003
2100
3000
2000
3000
0220
0330
0002
0003
2020
3030
0001
0000
,
0200
0300
0200
0300
2100
3000
2000
3000
0202
0303
0200
0300
0022
0033
1000
0000
,
0020
0030
0020
0030
2100
3000
2000
3000
0202
0303
0020
0030
2020
3030
0100
0000
,
0020
0030
0020
0030
2100
3000
2000
3000
2020
3030
0020
0030
2200
3300
0010
0000
,
0002
0003
0002
0003
2100
3000
2000
3000
0220
0330
0002
0003
2020
3030
0001
0000
,
0200
0300
0200
0300
2100
3000
2000
3000
0202
0303
0200
0300
0022
0033
1000
0000
,
0110
0000
0010
0000
0010
0000
0010
0000
0010
0000
0000
0000
2000
3001
0100
0010
,
1100
0000
0010
0000
2100
3000
0001
0000
1100
0000
0010
0000
2100
3000
0001
0010
,
1001
0000
0010
0000
1002
0003
0100
0000
1001
0000
0010
0000
1002
0003
0010
1000
,
0110
0000
1000
0000
0210
0300
0001
0000
0110
0000
1000
0000
0210
0300
0001
0100
,
0011
0000
1000
0000
0021
0030
0100
0000
0011
0000
1000
0000
0021
0030
0100
0001
,
1010
0000
0100
0000
2010
3000
0001
0000
1010
0000
0100
0000
2010
3000
0010
1000
,
0101
0000
1000
0000
0102
0003
0010
0000
0101
0000
1000
0000
0102
0003
0010
0100
,
1001
0000
0100
0000
2001
3000
0010
0000
2001
3000
0100
0000
0020
0030
1001
0000
,
0100
0000
0010
0000
0200
0300
0000
0010
1000
0000
0010
0000
1000
0000
0000
0000
,
0010
0010
1000
1000
1010
0100
1100
0010
,
0001
0001
1000
1000
0110
0100
1010
0010
,
0100
0100
1000
1000
0101
1000
0011
0100
,
0010
0010
1000
1000
0110
0001
1010
0001
,
0010
0010
1000
1000
1010
0100
1100
0010
,
0001
0001
1000
1000
0110
0100
1010
0010
,
0100
0100
1000
1000
0101
1000
0011
0100
,
0010
0010
1000
1000
0110
0001
1010
0001
,
1000
0010
0100
0000
0000
0000
0000
0000
0000
0000
0010
0100
0001
0000
0000
0000
,
1100
0000
1100
0000
0000
0000
1001
0000
0010
0001
1000
0000
0000
0000
0000
0000
,
1001
0000
0000
0000
1000
0010
0000
0000
0001
0010
0100
1000
0001
0000
1010
0000
,
0101
0000
0000
0010
0100
0000
0001
1000
0010
1000
0010
0100
0001
0000
1000
0100
,
0010
1000
0010
0000
1100
0000
0001
1000
0100
0000
1001
0000
0100
0001
0100
0010
,
1000
0000
0001
0010
0001
1000
0010
0000
1001
0000
0100
0010
1000
0000
0011
0000
,
0100
0010
1000
0000
0001
0100
0010
0000
1001
0000
1000
0001
0100
1000
0100
0001
,
1000
0001
0100
1000
0010
0001
1000
0010
0001
1000
0100
0001
1000
0100
1000
0001
,
1100
0010
1100
0012
2103
3012
2103
3011
,
1001
0010
1001
0120
2031
3120
2031
3110
,
1001
1000
0110
0002
0213
1302
0213
0311
,
1001
1000
0011
2100
3021
2130
3021
1130
,
1001
0001
1010
0201
1320
0231
1320
0131
,
1001
0100
0110
1002
0123
1032
0123
1031
,
1001
0010
1001
0200
2301
3210
2301
3101
,
1001
0000
0010
0000
0101
0000
0120
0000
1032
0000
0123
1000
0132
0000
1013
0100
,
1010
0100
1011
2100
3012
2103
3012
1103
,
1001
0100
1011
0210
1302
0213
1302
0113
,
1001
0001
1011
2000
3120
2031
3120
1130
,
1001
0001
1011
0012
1203
0312
1203
0311
,
1001
1000
1011
1020
0231
1320
0231
1310
,
1001
1000
1011
2001
3210
2301
3210
1301
,
1001
0100
1011
0020
1032
0123
1032
1013
,
1011
0000
1011
0210
2301
3210
2310
3001
,
2000
0000
3010
0000
2000
0000
3001
0000
2000
0000
3010
0000
1001
0000
0010
1000
,
0020
0000
1030
0000
0020
0000
0130
0000
0020
0000
0031
0000
0110
0000
1000
0010
,
0200
0000
0301
0000
0200
0000
0310
0000
0200
0000
1300
0000
0011
0000
0010
0100
,
0002
0000
1003
0000
0002
0000
0103
0000
0002
0000
0013
0000
1100
0000
0010
0100
,
0011
0000
0100
0000
0011
0000
1000
0000
0011
0000
0100
0000
0011
0000
1000
0100
,
1001
0000
0100
0000
1001
0000
0010
0000
1001
0000
0100
0000
1001
0000
0100
0001
,
0110
0000
0001
0000
0110
0000
1000
0000
0110
0000
0001
0000
0110
0000
1000
0010
,
1100
0000
0001
0000
1100
0000
0010
0000
1100
0000
0001
0000
1100
0000
0010
1000
,
0101
0000
0010
0000
0101
0000
1000
0000
0101
0000
0010
0000
0101
0000
0100
0001
,
1010
0000
0001
0000
1010
0000
0100
0000
1010
0000
0001
0000
1010
0000
0100
0010
,
1001
0000
0010
0000
1001
0000
0100
0000
1001
0000
0010
0000
1001
0000
0100
1000
,
0011
0000
1000
0000
0011
0000
0100
0000
0011
0000
1000
0000
0011
0000
1000
0001
,
2100
3000
2100
3000
2100
3000
1100
0200
,
0312
0003
0012
0003
0012
0003
0011
0200
,
1320
0030
1020
0030
1020
0030
1010
0200
,
1302
0003
1002
0003
1002
0003
1001
0200
,
0000
0000
0000
0000
,
0000
0000
0000
0000
,
0300
0000
0000
0000
;
