#TITLE:Dokudenpa;
#SUBTITLE:(Jello);
#ARTIST:SharpnelSound;
#TITLETRANSLIT:;
#SUBTITLETRANSLIT:;
#ARTISTTRANSLIT:;
#CREDIT:;
#BANNER:;
#BACKGROUND:;
#LYRICSPATH:;
#CDTITLE:;
#MUSIC:sharpnelsound_8th-02dokudenpa.mp3;
#OFFSET:-0.060;
#SAMPLESTART:31.591;
#SAMPLELENGTH:12.000;
#SELECTABLE:YES;
#BPMS:0.000=188.140;
#STOPS:;
#BGCHANGES:;
// cache tags:
#FIRSTBEAT:0.000;
#LASTBEAT:613.500;
#SONGFILENAME:Songs/Essential Sim Collection/(Jello) Dokudenpa/Dokudenpa.sm;
#HASMUSIC:1;
#HASBANNER:0;
#MUSICLENGTH:216.301;
// end cache tags

//---------------dance-single - ----------------
#NOTES:
     dance-single:
     :
     Hard:
     12:
     1.000,1.000,1.000,0.111,1.000,1535.000,236.000,24.000,0.000,0.000:  // measure 1
1001
0000
0100
0010
0100
1001
0010
0100
,  // measure 2
0011
0000
1000
0000
0100
0000
1010
0000
0100
0010
0100
0000
0010
0000
0010
0000
,  // measure 3
1100
0010
1000
0100
0010
0100
1001
0010
,  // measure 4
1001
0000
0100
0000
1000
0000
0010
0000
0100
0010
0100
0000
0010
0000
0010
0000
,  // measure 5
1001
0100
0010
0100
1001
0010
0100
0001
,  // measure 6
1010
0000
0001
0000
0010
0000
1001
0000
0100
0010
0100
0000
0010
0000
0010
0000
,  // measure 7
1001
0010
0100
0010
1100
0010
1001
0010
,  // measure 8
1001
0100
0010
0100
2002
3003
0000
0000
,  // measure 9
1001
0000
0100
0000
0010
0000
1001
0000
0100
0010
0100
0000
0010
0100
0010
0000
,  // measure 10
1001
0000
0010
0000
0100
0000
0010
1000
0100
0010
0001
0000
0100
0010
1000
0001
,  // measure 11
0110
0000
0010
0000
1001
0000
0100
0000
1000
0100
1000
0000
0001
0010
0001
0000
,  // measure 12
1100
0000
0001
0000
0100
0000
0010
1000
0100
0010
0001
0000
0100
0010
1000
0100
,  // measure 13
0011
0000
1000
0000
0010
0000
0100
0000
0001
0010
0001
0000
1000
0100
1000
0000
,  // measure 14
0011
0000
0100
0000
1000
0000
0010
0001
0010
0100
1000
0000
0001
0100
0010
1000
,  // measure 15
0101
0000
0010
0000
1000
0000
0100
0000
0001
0010
0001
0000
1000
0100
1000
0000
,  // measure 16
0011
0000
0100
0000
1000
0000
0001
0010
0100
0010
0001
0000
1000
0100
0010
0001
,  // measure 17
1100
0000
0010
0000
0100
0000
0010
0000
0100
0010
0100
0000
0001
0010
0001
0000
,  // measure 18
1100
0000
0010
0000
1000
0000
0001
0010
0100
1000
0100
0000
0001
0010
0100
1000
,  // measure 19
0101
0000
0010
0000
0001
0000
1000
0000
0001
0100
0010
0000
1000
0010
0100
0000
,  // measure 20
0011
0000
0100
0000
0001
0000
1000
0100
0010
0100
1000
0000
0100
0010
0001
0100
,  // measure 21
1001
0000
0100
0000
0010
0000
0100
0000
0001
0010
0001
0000
1000
0100
1000
0000
,  // measure 22
0101
0000
0010
0000
1000
0000
0100
0010
0001
0010
0100
0000
1000
0100
1000
0001
,  // measure 23
0110
0000
0000
0000
,  // measure 24
0000
0000
0000
2002
,  // measure 25
3003
0000
0000
0000
,  // measure 26
0000
0000
1001
0000
1001
0100
0010
1001
,  // measure 27
0100
0010
0100
0000
0010
0100
0010
0000
1001
0000
0010
0000
0100
0000
0010
1000
,  // measure 28
0100
0010
0001
0000
0100
0010
1000
0001
0110
0000
0010
0000
1001
0000
0100
0000
,  // measure 29
1000
0100
1000
0000
0001
0010
0001
0000
1100
0000
0001
0000
0100
0000
0010
1000
,  // measure 30
0100
0010
0001
0000
0100
0010
1000
0100
0011
0000
1000
0000
0010
0000
0100
0000
,  // measure 31
0001
0010
0001
0000
1000
0100
1000
0000
0011
0000
0100
0000
1000
0000
0010
0001
,  // measure 32
0010
0100
1000
0000
0001
0100
0010
1000
0101
0000
0010
0000
1000
0000
0100
0000
,  // measure 33
0001
0010
0001
0000
1000
0100
1000
0000
0011
0000
0100
0000
1000
0000
0001
0010
,  // measure 34
0100
0010
0001
0000
1000
0100
0010
0001
1100
0000
0010
0000
0100
0000
0010
0000
,  // measure 35
0100
0010
0100
0000
0001
0010
0001
0000
1100
0000
0010
0000
1000
0000
0001
0010
,  // measure 36
0100
1000
0100
0000
0001
0010
0100
1000
0101
0000
0010
0000
0001
0000
1000
0000
,  // measure 37
0001
0100
0010
0000
1000
0010
0100
0000
0011
0000
0100
0000
0001
0000
1000
0100
,  // measure 38
0010
0100
1000
0000
0100
0010
0001
0100
1001
0000
0100
0000
0010
0000
0100
0000
,  // measure 39
0001
0010
0001
0000
1000
0100
1000
0000
0101
0000
0010
0000
1000
0000
0100
0010
,  // measure 40
0001
0010
0100
0000
1000
0100
1000
0001
0110
0000
0100
0000
1001
0000
1000
0000
,  // measure 41
0001
0010
0100
0000
1000
0100
0010
0000
1001
0000
0100
0000
1001
0000
0010
0000
,  // measure 42
1001
0000
0010
0000
2200
0000
3300
0000
1000
0100
1000
0000
0010
0000
1000
0100
,  // measure 43
0000
0000
0010
0000
0100
0010
0100
0000
0001
0010
0001
0000
1000
0000
0100
0010
,  // measure 44
0000
0000
1000
0000
0001
0010
0001
0000
0010
0100
0010
0000
0100
0000
1000
0100
,  // measure 45
0000
0000
0010
0000
0100
0010
0100
0000
0001
0010
0001
0000
1000
0000
0100
0010
,  // measure 46
0000
0000
1000
0000
0001
0010
0001
0000
0010
0100
0010
0000
0100
0000
1000
0100
,  // measure 47
0000
0000
0010
0000
1000
0010
0100
0000
0001
0100
0010
0000
1000
0000
0001
0010
,  // measure 48
0000
0000
1000
0000
0100
0010
0001
0000
0010
0100
1000
0000
0010
0000
0010
0100
,  // measure 49
0000
0000
0010
0000
0100
1000
0100
0000
0001
1000
0001
0000
1000
0000
0100
0010
,  // measure 50
0000
0000
1000
0000
0100
0010
0100
0000
0010
0100
1000
0000
0010
0000
1000
0100
,  // measure 51
0000
0000
0010
0000
0100
0010
0001
0000
1000
0100
1000
0000
1000
0000
0100
0010
,  // measure 52
0000
0000
1000
0000
0100
0010
0001
0000
1000
0100
0010
0000
0010
0000
0001
0100
,  // measure 53
0000
0000
0010
0000
1000
0010
0100
0000
0001
0100
0010
0000
1000
0000
0100
0010
,  // measure 54
0000
0000
1000
0000
0001
0010
0001
0000
0010
0100
1000
0000
0010
0000
1000
0100
,  // measure 55
0000
0000
0010
0000
0100
0001
0100
0000
0001
0100
0001
0000
1000
0000
0100
0010
,  // measure 56
0000
0000
1000
0000
0100
0010
1000
0000
1000
0010
0100
0000
0010
0000
0100
1000
,  // measure 57
0000
0000
0010
0000
0100
0010
0100
0000
0001
0010
0001
0000
1000
0000
0100
0010
,  // measure 58
0000
0000
1000
0000
0001
0010
0001
0000
1001
0000
1100
0000
0101
0000
0000
1001
,  // measure 59
0000
0000
0101
0000
0110
0000
1100
0000
1001
0000
1010
0000
0110
0000
0000
0011
,  // measure 60
0000
0000
1001
0000
1100
0000
0101
0000
1100
0000
1010
0000
1001
0000
0000
1010
,  // measure 61
0000
0000
1100
0000
1010
0000
1001
0000
0110
0000
0101
0000
1001
0000
0000
1001
,  // measure 62
0000
0000
0101
0000
0110
0000
1100
0000
1001
0000
0101
0000
0110
0000
0000
1100
,  // measure 63
0000
0000
0110
0000
0101
0000
1001
0000
0110
0000
1100
0000
1010
0000
0000
1001
,  // measure 64
0000
0000
0011
0000
0101
0000
1001
0000
1010
0000
0101
0000
0110
0000
0000
0101
,  // measure 65
0000
0000
1001
0000
1010
0000
1100
0000
0101
0000
0101
0000
0101
0000
0000
1000
,  // measure 66
0100
0000
0010
0000
0110
0000
0110
0000
1001
0000
1010
0000
1100
0000
0000
0101
,  // measure 67
0000
0000
1001
0000
1010
0000
0110
0000
0011
0000
1001
0000
0101
0000
0000
1010
,  // measure 68
0000
0000
1001
0000
0101
0000
0110
0000
1100
0000
1001
0000
1010
0000
0000
1001
,  // measure 69
0000
0000
0011
0000
1001
0000
0101
0000
1001
0000
1010
0000
0011
0000
0000
0101
,  // measure 70
0000
0000
1100
0000
0110
0000
1001
0000
0101
0000
1100
0000
0110
0000
0000
0101
,  // measure 71
0000
0000
1001
0000
1010
0000
0110
0000
0011
0000
1010
0000
1001
0000
0000
1100
,  // measure 72
0000
0000
0011
0000
0101
0000
1001
0000
0110
0000
1100
0000
0101
0000
0000
1001
,  // measure 73
0000
0000
1001
0000
0110
0000
0110
0000
0001
0000
0011
0000
1000
0000
0000
1001
,  // measure 74
0000
0100
0010
0010
2002
3003
1000
0000
,  // measure 75
1000
0000
0010
0100
0010
0000
0220
0330
,  // measure 76
2002
3003
0220
0330
0001
0010
0100
0000
,  // measure 77
2200
3300
0022
0033
1000
0100
0001
0010
,  // measure 78
1001
0000
0110
0000
2002
3003
0010
0100
,  // measure 79
1000
0000
0100
1000
0100
0010
0001
0010
,  // measure 80
1001
0110
1001
0110
,  // measure 81
0011
0000
1001
0000
1010
0000
1000
0100
,  // measure 82
1001
0110
0001
0010
,  // measure 83
0010
0000
1010
0000
0110
0000
0001
0010
,  // measure 84
0100
0010
0100
1000
0100
0000
0100
0000
,  // measure 85
1001
0100
0011
1010
,  // measure 86
1001
0101
1100
1010
,  // measure 87
1001
1100
0011
0101
,  // measure 88
1001
0011
1100
1010
,  // measure 89
1100
0000
1001
0000
0011
0000
0100
0010
,  // measure 90
1000
0100
1000
0100
1000
0000
0100
0000
1001
0000
0010
0000
0100
0000
0010
0000
,  // measure 91
1001
0010
0100
0010
1001
0010
1001
0100
,  // measure 92
1001
0100
0010
0100
1001
0010
0100
0010
,  // measure 93
1001
0001
0010
0001
1100
0001
1100
0001
,  // measure 94
1001
0010
0100
0010
1001
0010
0100
0010
,  // measure 95
1001
0001
0010
0100
1010
0100
1010
0100
,  // measure 96
1001
0100
0010
0100
1001
1000
0100
0010
,  // measure 97
1001
0010
0100
1000
1001
0010
1001
0100
,  // measure 98
1001
1000
0100
0010
0100
0010
0001
0010
,  // measure 99
1001
0010
0100
0010
1001
0010
1001
0100
,  // measure 100
1001
0100
0010
0001
1001
0100
0010
0100
,  // measure 101
1001
0100
0010
0100
1001
0100
1001
0010
,  // measure 102
1001
0100
0010
0100
1000
0100
2002
3003
,  // measure 103
0001
0010
1000
0010
1000
0100
2002
3003
,  // measure 104
0100
0010
0001
0010
0100
1000
0100
0000
,  // measure 105
1000
0000
0100
0000
0010
0000
1000
0000
0010
0100
0000
0100
0010
0000
0001
0000
,  // measure 106
1001
0000
0000
0000
0110
0000
0000
0000
1000
0100
1000
0001
0100
0010
1000
0001
,  // measure 107
0010
0001
1000
0010
0100
0001
1000
0001
0010
0100
0010
0001
0100
0010
1000
0100
,  // measure 108
0010
0001
0010
0100
0010
0001
0010
0100
0010
0100
1000
0010
1000
0010
0100
0010
,  // measure 109
1000
0010
0100
0001
0010
0001
0010
0100
0010
0001
0100
0010
1000
0100
0010
0100
,  // measure 110
1000
0010
0100
0010
1000
0100
1000
0010
0100
0010
1000
0001
0100
0010
1000
0001
,  // measure 111
0100
0010
1000
0001
0010
0100
0010
0001
0100
0010
0100
0001
0100
0010
1000
0010
,  // measure 112
0100
0010
0001
0100
1000
0001
0100
0010
1000
0001
0100
0001
1000
0010
1000
0001
,  // measure 113
1000
0100
1000
0001
0100
0010
1000
0001
0010
0001
1000
0010
0100
0001
1000
0001
,  // measure 114
1000
0100
1000
0001
0100
0010
1000
0001
0010
0001
1000
0010
0100
0001
1000
0001
,  // measure 115
0010
0100
0010
0001
0100
0010
1000
0100
0010
0001
0010
0100
0010
0001
0010
0100
,  // measure 116
0010
0100
1000
0010
1000
0010
0100
0010
1000
0010
0100
0001
0010
0001
0010
0100
,  // measure 117
0010
0001
0100
0010
1000
0100
0010
0100
1000
0010
0100
0010
1000
0100
1000
0010
,  // measure 118
0100
0010
1000
0001
0100
0010
1000
0001
0100
0010
1000
0001
0010
0100
0010
0001
,  // measure 119
0100
0010
0100
0001
0100
0010
1000
0010
0100
0010
0001
0100
1000
0001
0100
0010
,  // measure 120
1000
0001
0100
0001
1000
0010
1000
0001
1000
0100
1000
0001
0100
0010
1000
0001
,  // measure 121
0010
0001
1000
0010
0100
0001
1000
0001
1000
0100
1000
0001
0100
0010
1000
0001
,  // measure 122
0010
0001
0010
0001
0010
0100
0010
0100
1000
0100
0010
0001
0100
0010
1000
0100
,  // measure 123
0010
0001
0010
0100
0010
0001
0010
0100
0010
0100
1000
0010
1000
0010
0100
0010
,  // measure 124
1000
0010
0100
0001
0010
0001
0010
0100
0010
0001
0100
0010
1000
0100
0010
0100
,  // measure 125
1000
0010
0100
0010
1000
0100
1000
0010
0100
0010
1000
0001
0100
0010
1000
0001
,  // measure 126
0100
0010
1000
0001
0010
0100
0010
0001
0100
0010
0100
0001
0100
0010
1000
0010
,  // measure 127
0100
0010
0001
0100
1000
0001
0100
0010
1000
0001
0100
0001
1000
0010
1000
0001
,  // measure 128
1000
0100
1000
0001
0100
0010
1000
0001
0010
0001
1000
0010
0100
0001
1000
0001
,  // measure 129
1000
0100
1000
0001
0100
0010
1000
0001
0010
0001
1000
0010
0100
0001
1000
0001
,  // measure 130
0010
0100
0010
0001
0100
0010
1000
0100
0010
0001
0010
0100
0010
0001
0010
0100
,  // measure 131
0010
0100
1000
0010
1000
0010
0100
0010
1000
0010
0100
0001
0010
0001
0010
0100
,  // measure 132
0010
0001
0100
0010
1000
0100
0010
0100
1000
0010
0100
0010
1000
0100
1000
0010
,  // measure 133
0100
0010
1000
0001
0100
0010
1000
0001
0100
0010
1000
0001
0010
0100
0010
0001
,  // measure 134
0100
0010
0100
0001
0100
0010
1000
0010
0100
0010
0001
0100
1000
0001
0100
0010
,  // measure 135
1000
0001
0100
0001
1000
0010
1000
0001
1000
0100
1000
0001
0100
0010
1000
0001
,  // measure 136
0010
0001
1000
0010
0100
0001
1000
0001
1000
0100
1000
0001
0100
0010
1000
0001
,  // measure 137
0010
0001
1000
0010
0100
0001
1000
0100
0011
0000
1001
0000
0101
0000
0000
0000
,  // measure 138
0001
0010
0001
0000
1000
0100
1000
0100
1000
0100
0010
0000
0001
0000
0010
0100
,  // measure 139
0000
0000
0010
0000
0100
0010
0100
0000
0001
0010
0001
0000
1000
0000
0100
0010
,  // measure 140
0000
0000
1000
0000
0001
0010
0001
0000
0010
0100
0010
0000
0100
0000
1000
0100
,  // measure 141
0000
0000
0010
0000
0100
0010
0100
0000
0001
0010
0001
0000
1000
0000
0100
0010
,  // measure 142
0000
0000
1000
0000
0001
0010
0001
0000
0010
0100
0010
0000
0100
0000
1000
0100
,  // measure 143
0000
0000
0010
0000
1000
0010
0100
0000
0001
0100
0010
0000
1000
0000
0001
0010
,  // measure 144
0000
0000
1000
0000
0100
0010
0001
0000
0010
0100
1000
0000
0010
0000
0010
0100
,  // measure 145
0000
0000
0010
0000
0100
1000
0100
0000
0001
1000
0001
0000
1000
0000
0100
0010
,  // measure 146
0000
0000
1000
0000
0100
0010
0100
0000
0010
0100
1000
0000
0010
0000
1000
0100
,  // measure 147
0000
0000
0010
0000
0100
0010
0001
0000
1000
0100
1000
0000
1000
0000
0100
0010
,  // measure 148
0000
0000
1000
0000
0100
0010
0001
0000
1000
0100
0010
0000
0010
0000
0001
0100
,  // measure 149
0000
0000
0010
0000
1000
0010
0100
0000
0001
0100
0010
0000
1000
0000
0100
0010
,  // measure 150
0000
0000
1000
0000
0001
0010
0001
0000
0010
0100
1000
0000
0010
0000
1000
0100
,  // measure 151
0000
0000
0010
0000
0100
0001
0100
0000
0001
0100
0001
0000
1000
0000
0100
0010
,  // measure 152
0000
0000
1000
0000
0100
0010
1000
0000
1000
0010
0100
0000
0010
0000
0100
1000
,  // measure 153
0000
0000
0010
0000
0100
0010
0100
0000
0001
0010
0001
0000
1000
0000
0100
0010
,  // measure 154
0000
0000
1000
0000
0001
0010
0001
0000
0000
0000
0000
0000
0000
0000
0000
0000
;

//---------------dance-single - ----------------
#NOTES:
     dance-single:
     :
     Easy:
     1:
     0.000,0.000,0.000,0.000,0.000,0.000,0.000,0.000,0.000,0.000:  // measure 1
0000
0000
0000
0000
;
