#TITLE:Chop Hand Knife;
#SUBTITLE:;
#ARTIST:C-Type;
#TITLETRANSLIT:;
#SUBTITLETRANSLIT:;
#ARTISTTRANSLIT:;
#CREDIT:;
#BANNER:chophandknife-bn.PNG;
#BACKGROUND:chophandknife-bg.PNG;
#LYRICSPATH:;
#CDTITLE:OMEGAspike.PNG;
#MUSIC:16 - c-type - chophandknife.mp3;
#OFFSET:-1.607;
#SAMPLESTART:33.080;
#SAMPLELENGTH:20.000;
#SELECTABLE:YES;
#BPMS:0.000=234.101;
#STOPS:6.000=0.115
,6.500=0.110
,12.000=0.660
,17.500=0.110
,25.000=0.110
,25.500=0.110
,26.000=0.150
,32.500=0.105
,33.000=0.150
,38.500=0.110
,39.000=0.110
,39.500=0.150
,46.000=0.110
,46.500=0.150
,369.500=0.060
,369.750=0.060
,370.000=0.060
,476.500=0.110
,477.000=0.150
,498.500=0.130
;
#BGCHANGES:;
// cache tags:
#FIRSTBEAT:0.000;
#LASTBEAT:499.000;
#SONGFILENAME:Songs/toune 2/(OMEGAspike)Chop Hand Knife/16 - c-type - chophandknife.sm;
#HASMUSIC:1;
#HASBANNER:1;
#MUSICLENGTH:135.790;
// end cache tags

//---------------dance-single - ----------------
#NOTES:
     dance-single:
     :
     Hard:
     12:
     1.000,1.000,1.000,0.007,0.107,878.000,527.000,1.000,0.000,1.000:
0011
1000
0001
1100
0000
0011
1000
0000
,
0001
1100
0000
1000
0011
1100
0110
1001
,
0110
1001
0110
1001
0110
1001
0110
0000
,
1001
0011
0100
0001
1100
0000
1100
0010
,
0000
1001
0000
0011
1010
0000
0000
0000
,
0101
1010
0101
1010
0101
1010
0101
1010
,
0101
0000
0110
1001
1001
0011
1100
0011
,
1100
0000
0011
0000
1100
0000
0011
0000
1100
0000
1001
0000
0000
0110
0000
0000
,
1001
0110
1001
0110
0101
1010
0110
0101
,
1010
0110
0101
1010
0000
0101
1001
1100
,
0011
1100
0011
1001
0110
1001
0110
1001
,
0110
0000
0000
0101
0000
0000
1001
0000
0110
0000
1001
0000
0110
0000
0101
0000
,
1010
0000
0000
0000
0000
0000
0110
0000
0000
0000
0000
0000
1000
0000
0000
0000
0100
0000
0000
0000
0010
0000
0000
0000
0001
0000
0000
0010
0000
0000
0100
0000
0000
1000
0000
0000
0011
0000
0000
0000
0000
0000
0100
0000
0000
0000
0000
0000
,
1001
0010
1100
0010
0101
0010
1100
0010
,
1001
0100
0011
0100
1010
0100
0011
1000
,
0110
0001
1010
0100
0011
1000
0110
0001
,
1100
0010
0101
1000
0011
0100
1001
0010
,
1100
0010
0101
1000
0011
0100
1001
0010
,
1100
0010
0101
0010
1100
0001
0110
1000
,
0011
0100
1001
0100
0011
1000
0110
0001
,
1100
0000
0010
0000
0101
0000
1000
0000
0011
1100
0011
1100
0011
0000
1000
0000
,
0101
0010
1100
0001
0110
1000
0011
1000
,
0110
0001
1010
0100
0011
1000
0110
0001
,
1100
0010
0101
1000
0011
1000
0110
0001
,
1100
0010
0101
0010
1100
0001
0110
1000
,
0101
0010
1100
0001
0110
1000
0101
0010
,
1100
0010
1100
0001
0110
1000
0101
1000
,
0011
0100
0011
1000
0101
0010
1100
0001
,
1100
0000
0010
0000
1001
0000
0010
0000
1100
0011
1100
0011
1100
0000
0010
0000
,
1100
0001
1100
0010
1100
0001
1100
0010
,
1100
0001
1100
0010
1100
0001
0011
1000
,
0011
0100
0011
1000
0011
0100
0011
1000
,
0011
0100
0011
1000
0011
0100
1001
0100
,
1001
0010
1001
0100
1001
0010
1001
0100
,
1001
0010
1001
0100
1001
0010
1100
0010
,
1100
0001
1100
0010
1100
0001
1100
0010
,
1100
0000
0001
0000
1100
0000
0010
0000
0011
1100
0011
1100
0011
0000
1000
0000
,
0011
0100
0011
1000
0011
0100
0011
1000
,
0011
0100
0011
1000
0011
0100
1001
0100
,
1001
0010
1001
0100
1001
0010
1001
0100
,
1001
0010
1001
0100
1001
0010
1100
0010
,
1100
0001
1100
0010
1100
0001
1100
0010
,
1100
0001
1100
0010
1100
0001
0011
1000
,
0011
0100
0011
1000
0011
0100
0011
1000
,
0011
0000
0100
0000
0011
0000
1000
0000
0011
1100
0011
1100
0011
0000
1000
0000
,
0101
0010
1100
0001
0110
1000
0011
1000
,
0110
0001
1010
0100
0011
1000
0110
0001
,
1010
0100
1001
0010
1100
0001
0110
1000
,
0101
0010
1001
0100
0011
1000
0110
0001
,
1010
0100
0011
1000
0101
0010
1100
0001
,
0110
1000
0011
0100
1001
0010
1001
0100
,
0011
1000
0110
0001
1010
0100
0011
1000
,
0101
0000
0010
0000
1001
0000
0100
0000
0011
1100
0011
1100
0011
0000
1000
0000
,
0110
0001
1010
0100
1001
0010
0101
1000
,
0011
0100
1001
0010
1100
0010
0101
1000
,
0011
1000
0101
0010
1001
0100
1010
0100
,
0011
0100
1001
0010
1100
0001
0110
0001
,
1010
0100
0011
1000
0101
0010
1100
0001
,
0110
0001
1010
0100
0011
1000
0110
0001
,
1010
0100
1001
0010
1100
0010
0101
0010
,
1100
0000
0001
0000
0110
0000
1000
0000
0011
1100
0011
1100
0011
0000
0000
0000
,
1000
0100
0000
0100
1000
0000
0010
0100
,
0001
0100
0010
0000
0010
0000
1100
0000
,
0001
0010
0000
0010
0001
0000
1000
0100
,
0010
0100
1000
0000
1000
0000
0110
0000
,
1000
0001
0000
0001
1000
0000
0010
0100
,
0001
1000
0100
0000
0100
0000
0011
0000
,
0100
1000
0000
1000
0001
0000
0010
0100
,
1000
0000
0001
0000
1000
0000
0000
0000
1100
0011
1100
0011
1100
0000
0000
0000
,
0010
0001
0000
1000
0100
0000
0010
0100
,
0001
1000
0010
0000
0010
0000
1100
0000
,
0010
0001
0000
0100
1000
0000
0010
0100
,
0001
1000
0010
0000
0010
0000
1001
0000
,
0010
0100
0000
0100
0010
0000
1000
0100
,
0010
0001
1000
0000
1000
0000
0011
0000
,
0100
1000
0000
0010
0001
0000
0001
0010
,
1000
0000
0100
0000
0001
0000
0000
0000
0011
1100
0011
1100
0011
0000
0000
0000
,
0000
0110
0000
0000
1100
0000
0101
1010
,
0101
1010
0101
1010
0101
1010
0101
0000
,
0000
1001
0000
0000
0110
0000
1100
0011
,
1100
0011
1100
0000
0011
0000
1010
0000
,
0000
0101
0000
0000
1001
0000
0110
1001
,
0110
1001
0110
0000
0110
0000
1100
0000
,
0000
0101
0000
0000
1100
0000
0011
1100
,
0011
0000
1100
0000
0011
0000
1100
0000
0011
1100
0011
1100
0011
0000
0000
0000
,
0000
1001
0000
0000
1100
0000
0011
1100
,
1100
0011
1001
0000
1001
0000
0110
0000
,
0000
0101
0000
0000
1010
0000
1001
0110
,
1001
0110
0101
0000
1010
0000
0011
0000
,
0000
1010
0000
0000
0101
0000
1010
0101
,
1010
0101
1001
0000
0110
0000
1100
0000
,
0000
0101
0000
0000
1001
0000
0110
0000
,
1000
0000
0001
0000
0000
0000
1100
0011
1100
0000
0011
0000
1000
0000
0011
0000
,
1000
0110
0001
1010
0100
0011
1000
0110
,
0001
1010
0100
0011
1000
0110
0001
1010
,
0100
0011
1000
0011
0100
1010
0100
1010
,
0001
0110
1000
0011
0100
1001
0010
1001
,
0100
0011
1000
0110
0001
1100
0010
0101
,
0010
1100
0001
0110
1000
0011
0100
1001
,
0010
1100
0001
0110
1000
0011
0100
1001
,
0010
0000
1100
0000
0001
0000
1100
0011
1100
0011
1100
0000
0001
0000
0110
0000
,
0001
1100
0010
0101
0010
1001
0100
0011
,
0100
1010
0100
0011
1000
0110
0001
1010
,
0001
1010
0100
0011
1000
0110
0001
0110
,
1000
0101
0010
1001
0100
0011
1000
0110
,
0001
1010
0001
0110
1000
0101
0010
1001
,
0100
0011
1000
0110
0001
1010
0100
1001
,
0010
0101
0010
1100
0010
0101
1000
0011
,
0100
0000
1001
0000
0010
0000
1100
0011
1100
0011
1100
0000
0000
0000
0011
0000
,
0000
1001
0000
0110
0000
1010
0000
0101
,
0000
0011
0000
1001
0000
1010
0001
0000
,
0001
1010
0000
1001
0000
1100
0011
1100
,
0011
1100
0011
1100
0011
1100
0000
0101
,
0000
1001
0000
0110
0000
1010
0000
0101
,
0000
1001
0000
0110
0000
0011
1000
0000
,
1000
0011
0000
1001
0000
0110
1001
0110
,
1001
0110
1001
0110
1001
0110
0000
1001
,
0000
0101
0000
1001
0000
1010
0000
1001
,
0000
0110
0000
1010
0000
0101
0010
0000
,
0010
0101
1001
0110
1010
0110
0101
0110
,
1010
0101
1001
0110
0000
0101
0000
1001
,
0000
1010
0000
0101
0000
1001
0000
1010
,
0000
1001
0000
0110
0001
0000
0001
0110
,
0000
1001
0000
1010
0101
1010
0101
1010
,
0101
1010
0101
1001
0000
0012
1103
0000
;
