#TITLE:Zamknij Kurwa Ryj Bo Napierdalam;
#SUBTITLE:;
#ARTIST:Unknown artist;
#TITLETRANSLIT:;
#SUBTITLETRANSLIT:;
#ARTISTTRANSLIT:;
#CREDIT:;
#BANNER:../speedcore rejects ban.png;
#BACKGROUND:../speedcore rejects bg.png;
#LYRICSPATH:;
#CDTITLE:;
#MUSIC:Zamknij Kurwa Ryj Bo Napierdalam.ogg;
#OFFSET:-0.020;
#SAMPLESTART:42.550;
#SAMPLELENGTH:15.000;
#SELECTABLE:YES;
#BPMS:0.000=240.000;
#STOPS:148.000=4.500
;
#BGCHANGES:;
// cache tags:
#FIRSTBEAT:14.750;
#LASTBEAT:547.000;
#SONGFILENAME:Songs/Speedcore Rejects/Zamknij Kurwa Ryj Bo Napierdalam - [Happy Feet!]/Zamknij Kurwa Ryj Bo Napierdalam.sm;
#HASMUSIC:1;
#HASBANNER:1;
#MUSICLENGTH:141.435;
// end cache tags

//---------------dance-single - Blank----------------
#NOTES:
     dance-single:
     Blank:
     Challenge:
     16:
     1.000,1.000,0.240,0.438,1.000,1023.000,34.000,62.000,159.000,7.000:



0000
0000
0000
0000
,
0000
0000
0000
0000
,
0000
0000
0000
0000
,
0000
0000
0000
0000
0000
0000
0000
0000
0000
0000
0000
MMMM
0000
0000
0000
0000
,
0001
0000
1000
0100
1000
0000
0010
0000
0100
0000
0001
0000
1000
0000
0100
0000
,
0010
0000
0001
0010
0001
0000
1000
0000
0100
0000
1000
0000
0010
0000
0100
0000
,
0001
0000
0100
0010
0100
0000
0010
0000
1000
0000
0100
0000
0010
0000
0001
0100
,
0001
0000
1000
0100
1000
0000
0010
0000
0100
0001
0100
0001
1000
0001
1000
0001
,
1000
0000
0010
0100
0010
0000
1000
0000
0100
0000
0010
0000
0001
0000
1000
0000
,
0010
0000
1000
0001
1000
0000
0010
0000
0100
0001
0100
0001
0100
0001
0100
0001
,
0100
0000
0010
1000
0010
0000
1000
0000
0100
0000
1000
0000
0010
0000
0100
0000
,
0001
0000
1000
0001
1000
0000
0001
0000
1001
0000
0000
0000
0000
0000
0000
0000
,
1111
0000
0000
0000
0000
0000
0MM0
0000
M00M
0MM0
0000
0000
,
1000
0001
1000
0001
0100
0001
1000
0001
0010
0100
1000
0100
1000
0001
1000
0001
,
1000
0010
0100
0001
0100
0001
1000
0100
1000
0001
0010
0001
4000
0000
0000
0000
,
3001
0010
0001
0010
0100
1000
0001
1000
0001
1000
0001
0010
0001
1000
0100
1000
,
0001
1000
0001
0100
0001
1000
0010
1000
0040
0000
0000
0000
0000
0000
0000
0000
,
MM3M
0000
000M
0000
000M
0000
000M
0000
100M
0100
1000
0001
1000
0001
0100
0001
,
0100
0010
1000
0001
1000
0001
0010
0001
1000
0001
1000
0100
4000
0000
0000
0000
,
3001
0100
0001
0100
0010
1000
0001
0100
0001
1000
0001
1000
0100
1000
0001
1000
,
0001
0010
0100
1000
0100
1000
0001
0010
0001
1000
0001
1000
0004
0000
0403
0000
,
0310
0000
1000
0001
1000
0000
0100
0000
1000
0000
0001
0000
0100
0000
0010
0000
,
1000
0000
0001
0010
0001
0000
1000
0000
0100
0000
1000
0000
0001
0000
0010
0000
,
0001
0000
0100
0010
0100
0000
0010
0000
1000
0000
0100
0000
0010
0000
0100
0000
,
1000
0000
0001
0010
0001
0000
1000
0100
1000
0000
0001
0100
0001
0000
1000
0001
,
1MM0
0000
0010
1000
0010
0000
0100
0000
0001
0000
0010
0000
0100
0000
0010
0000
,
MM01
0000
1000
0100
1000
0000
0010
0000
M10M
0000
0001
0000
1000
0000
0100
0000
,
M01M
0000
0001
1000
0001
0000
1000
0000
0010
0000
0100
0000
0010
0000
1000
0000
,
01MM
0000
1000
0010
1000
0000
0010
0000
1000
0001
1000
0001
0100
0000
0000
0000
,
0101
0000
0000
0000
1001
0000
0000
0000
0001
1000
0001
1000
0100
0000
0000
0000
,
1000
0000
0001
0100
0001
0000
1000
0000
0100
1000
0100
0000
0010
0000
0001
1000
,
0001
0000
0000
0000
1001
0000
0000
0000
1000
0001
1000
0001
0010
0000
0000
0000
,
M000
00M0
0M00
000M
,
2220
0000
3330
0000
0000
0000
0000
0000
0001
1000
0001
1000
0100
0000
0010
0000
,
0222
0333
0000
0000
2022
3033
0000
0000
,
2202
0000
3303
0000
0000
0000
0000
0000
1000
0001
1000
0001
0010
0000
0100
0000
,
0220
0000
0000
0000
0000
0000
0000
0000
0000
0000
0000
0000
0000
0000
0000
0330
,
MMMM
MMMM
0MMM
0MMM
01MM
0100
0100
0100
,
1000
0001
1000
0001
0100
0001
1000
0100
1000
0001
0010
0001
1000
0100
0010
0001
,
0010
0001
1000
0001
1000
0010
1000
0001
1000
0001
0010
0001
4000
0000
0000
0000
,
3001
0010
0001
1000
0100
1000
0001
1000
0001
0100
0001
0100
0001
1000
0100
1000
,
0001
0010
0100
1000
0100
1000
0001
1000
0002
0000
0000
0000
0000
0000
0000
0000
,
1003
0100
1000
0001
1000
0001
0100
0001
1000
0010
1000
0001
0010
0100
1000
0100
,
1000
0001
0010
0001
1000
0001
1000
0001
0400
0000
0000
0000
0000
0000
0000
0000
,
0310
1000
0010
1000
0001
1000
0001
0010
0100
1000
0100
1000
0001
1000
0001
0100
,
0001
1000
0100
1000
0001
0010
0001
1000
0002
0000
0000
0000
0000
0000
0000
0000
,
0103
0001
1000
0001
0010
0100
0010
0001
,
1000
0000
0100
0000
1000
0000
0010
0000
0100
0000
0001
0000
1000
0001
1000
0001
,
1000
0100
1000
0010
0100
0010
1000
0001
,
0010
0001
1000
0001
0200
00M0
M000
000M
,
M310
0000
1000
0000
0001
0000
1000
0000
0001
0100
0001
0100
0001
0000
1000
0000
,
0010
0100
0001
0010
0100
0010
0001
1000
,
2001
0000
0000
0000
0000
0000
0000
0000
0000
0000
0000
0000
0000
0000
0000
0000
0000
0000
0000
0000
0000
0000
0000
0000
0000
0000
0000
0000
0000
0000
0000
3000
1002
0000
0000
0000
0000
0000
0000
0000
0000
0000
0000
0000
0000
0000
0000
0000
0000
0000
0000
0000
0000
0000
0000
0000
0000
0000
0000
0000
0000
0000
0000
0000
,
1003
0100
1000
0001
1000
0001
0010
0001
1000
0001
0100
0001
,
10M0
01M0
10M0
00M1
01M0
00M1
10M0
01M0
,
10M0
00M1
10M0
00M1
01M0
0010
1000
0100
,
1000
0000
0001
0100
0001
0000
1000
0000
0100
0000
1000
0000
0010
0000
0100
0000
,
0001
1000
0001
1000
0100
0000
0000
0000
2200
0000
0000
0000
3322
0000
0000
0000
,
1033
0000
0100
1000
0100
0000
0010
0000
0001
0000
1000
0000
0010
0000
0100
0000
,
0001
0000
1000
0010
1000
0000
0001
0000
0010
0000
0100
0000
1000
0000
0001
0000
,
0100
0000
0001
0010
0001
0000
1000
0000
0010
0000
0100
0000
0001
0000
1000
0000
,
0100
1000
0001
1000
0001
0100
0010
1000
0100
0010
0001
1000
,
0001
100M
M001
100M
0010
0010
0100
0100
,
0010
1000
0001
1000
0001
0000
0010
0000
0100
0000
1000
0000
0001
0000
0100
0000
,
0010
0000
1000
0000
0100
0000
1000
0000
0001
1000
0001
1000
0001
1000
0001
1000
,
0MM1
0000
MMMM
MMMM
,
1000
0000
0001
1000
0001
0000
0100
0000
0010
0000
1000
0000
0100
0000
1000
0000
,
0001
0000
0010
0100
0010
0000
0100
0000
1000
0000
0001
0000
1000
0000
0001
0000
,
0010
0000
0100
1000
0100
0000
0010
0000
0001
0000
1000
0000
0010
0000
0100
0000
,
0202
0000
0000
0000
,
0303
0000
0000
0000
,
0000
0000
0000
0000
,
0000
2000
0000
0000
,
3002
0000
0000
0000
,
0000
0023
0000
0000
,
0230
0000
0000
0000
,
0000
2300
0000
0000
,
3020
0000
0000
0000
,
0000
0230
0000
0000
,
0302
0000
0000
0000
,
0000
2003
0000
0000
,
3002
0000
0000
0000
,
0000
0023
0000
0000
,
0032
0000
0000
0000
0000
0000
0000
0000
0000
0000
0003
MMMM
0000
0000
0000
0000
,
0000
2000
0000
0000
,
3020
0000
0000
0000
,
0000
0000
0000
0000
M230
M000
M000
M000
M000
M000
M000
M000
M00M
M00M
M00M
M00M
,
M00M
M00M
M00M
M00M
M0MM
M0MM
M0MM
M0MM
M0MM
M0MM
M0MM
M0MM
M0MM
M0MM
M0MM
M0MM
,
M3MM
0000
0000
0000
0001
0100
0001
1000
0001
1000
0100
1000
0001
0010
0001
0010
,
0001
0010
0100
1000
0100
1000
0001
1000
0001
0100
0010
1000
0010
1000
0001
1000
,
0004
0000
0000
0000
1003
0100
1000
0001
1000
0001
0010
0001
1000
0001
1000
0100
,
1000
0001
0100
0001
M1M0
0000
0000
0000
0M0M
0000
0000
0000
M00M
0000
0000
0000
,
0MM0
0000
0000
0000
0004
0000
0000
0000
0000
0000
0000
0000
1003
0010
1000
0001
,
0010
0100
1000
0001
1000
0001
0100
0001
1000
0100
1000
0001
2000
0000
0000
0000
,
0000
0000
0000
0000
3040
0000
0000
0000
0000
0000
0000
0000
0130
0001
1000
0100
,
1000
0001
1000
0010
1000
0001
0010
0100
1000
0000
1000
0000
0002
0000
0000
0000
,
0013
0100
0010
0100
1000
0000
0010
0000
0100
0000
0001
0000
0020
0000
0100
0000
,
0100
0130
1000
0001
0100
0010
1000
0001
,
0010
0001
1000
0001
0100
0010
1000
0100
,
1000
0001
0010
0001
0100
0001
1000
0010
,
0100
0010
1000
0100
0010
0001
2000
0001
,
0001
3001
0010
0001
0100
0010
1000
0100
,
1000
0001
0100
0010
0100
0001
1000
0100
,
1000
0010
0100
0010
1000
0001
0100
0001
,
1000
0100
0110
0000
0110
0000
0200
0000
,
1300
0001
0020
0000
0032
0000
1003
0010
,
0100
0001
1001
0000
1001
0000
2000
0000
,
3001
0100
0020
0000
0230
0000
0301
1000
,
0001
1000
1100
0000
1100
0000
0002
0000
,
0103
0001
0020
0000
0032
0000
1003
0010
,
0100
0001
0011
0000
0011
0000
2000
0000
,
3010
0100
0002
0000
0023
0000
0130
1000
,
0010
1000
0001
0100
0010
1000
0100
1000
,
0001
1000
0001
0100
0010
1000
0100
0010
,
0001
0010
0001
0100
0001
1000
0010
0100
,
0010
1000
0100
1000
0001
0010
0001
1000
,
0001
0100
0010
1000
0100
0010
0100
1000
,
0001
1000
0001
0100
0001
0010
0001
1000
,
0100
0010
0001
0100
0001
1000
0010
0100
,
0010
1000
0200
0000
2300
0000
3001
1000
,
0001
0000
1000
0000
0001
0100
0001
1000
0001
1000
0100
1000
0001
0010
0100
1000
,
0100
1000
0001
0100
0001
1000
0001
1000
0001
0100
0010
0100
0020
0000
0000
0000
,
0000
0000
0000
0000
0130
0001
0100
0001
1000
0001
1000
0100
1000
0001
0010
0001
,
1000
0001
1000
0001
0100
0001
1000
0010
1000
0010
1000
0001
1000
0000
0010
0000
,
0400
M3MM
0000
0000
,
0000
0000
0000
0000
0001
0100
0001
1000
0100
1000
0001
1000
0001
0100
0001
1000
,
0001
0010
0100
1000
0100
1000
0001
1000
0001
0010
0001
1000
0001
0100
0010
1000
,
0001
1000
0001
1000
0001
0100
0001
1000
0100
0010
0001
1000
0002
0000
0000
0000
,
0003
0000
0000
0000
0100
0000
0010
0000
1000
0000
0001
0000
0100
0001
0100
0001
,
0100
0010
1000
0001
0100
0010
0400
0304
,
4003
0000
3400
0000
1300
0000
0001
0000
0010
0000
0100
0000
1000
0001
1000
0001
,
1000
0000
0010
0000
1000
0100
1000
0100
1000
0000
0010
0000
0400
0000
0004
0000
,
0000
0000
0300
0000
1003
0000
0010
0000
0100
0000
0010
0000
1000
0001
1000
0001
,
1000
0010
0100
0001
0010
0100
0010
0001
,
1000
0000
1000
0000
0010
0000
0100
0000
0001
0000
0010
0000
0001
0100
0001
0100
,
0001
0000
1000
0000
0001
1000
0001
1000
0001
0000
0100
0000
00M1
0000
1M00
0000
,
00M1
1M00
2002
0000
0000
0000
3003
0000
;
