#TITLE:Spiral;
#SUBTITLE:;
#ARTIST:Pendulum;
#TITLETRANSLIT:;
#SUBTITLETRANSLIT:;
#ARTISTTRANSLIT:;
#CREDIT:;
#BANNER:spiralbn.png;
#BACKGROUND:spiralbg.png;
#LYRICSPATH:;
#CDTITLE:;
#MUSIC:spiral.ogg;
#OFFSET:-0.044;
#SAMPLESTART:122.130;
#SAMPLELENGTH:22.200;
#SELECTABLE:YES;
#BPMS:0.000=173.000;
#STOPS:;
#BGCHANGES:;
// cache tags:
#FIRSTBEAT:0.000;
#LASTBEAT:1067.500;
#SONGFILENAME:Songs/Pendulum/Spiral/spiral.sm;
#HASMUSIC:1;
#HASBANNER:1;
#MUSICLENGTH:372.912;
// end cache tags

//---------------dance-single - I. Pyles----------------
#NOTES:
     dance-single:
     I. Pyles:
     Beginner:
     1:
     0.025,0.035,0.000,0.000,0.000,66.000,0.000,0.000,0.000,0.000:

0000
0000
0000
0000
,
0000
0000
0000
0000
,
0000
0000
0000
0000
,
0000
0000
0000
0000
,
0010
0000
0000
0000
,
0000
0000
0000
0000
,
0000
0000
0000
0000
,
0000
0000
0000
0000
,
0100
0000
0000
0000
,
0000
0000
0000
0000
,
0000
0000
0000
0000
,
0000
0000
0000
0000
,
0010
0000
0000
0000
,
0000
0000
0000
0000
,
0000
0000
0000
0000
,
0000
0000
0000
0000
,
0010
0000
0000
0000
,
0000
0000
0000
0000
,
0000
0000
0000
0000
,
0000
0000
0000
0000
,
0001
0000
0000
0000
,
0000
0000
0000
0000
,
0000
0000
0000
0000
,
0000
0000
0000
0000
,
0100
0000
0000
0000
,
0000
0000
0000
0000
,
0000
0000
0000
0000
,
0000
0000
0000
0000
,
0010
0000
0000
0000
,
0000
0000
0000
0000
,
0000
0000
0000
0000
,
0000
0000
0000
0000
,
0010
0000
0000
0000
,
0000
0000
0000
0000
,
0000
0000
0000
0000
,
0000
0000
0000
0000
,
0010
0000
0000
0000
,
0000
0000
0000
0000
,
0000
0000
0000
0000
,
0000
0000
0000
0000
,
0100
0000
0000
0000
,
0000
0000
0000
0000
,
0000
0000
0000
0000
,
0000
0000
0000
0000
,
0010
0000
0000
0000
,
0000
0000
0000
0000
,
0000
0000
0000
0000
,
0000
0000
0000
0000
,
0010
0000
0000
0000
,
0000
0000
0000
0000
,
0000
0000
0000
0000
,
0000
0000
0000
0000
,
0100
0000
0000
0000
,
0000
0000
0000
0000
,
0000
0000
0000
0000
,
0000
0000
0000
0000
,
1000
0000
0000
0000
,
0000
0000
0000
0000
,
0000
0000
0000
0000
,
0000
0000
0000
0000
,
1000
0000
0000
0000
,
0000
0000
0000
0000
,
0000
0000
0000
0000
,
0000
0000
0000
0000
,
0010
0000
0000
0000
,
0000
0000
0000
0000
,
0000
0000
0000
0000
,
0000
0000
0000
0000
,
0100
0000
0000
0000
,
0000
0000
0000
0000
,
0000
0000
0000
0000
,
0000
0000
0000
0000
,
0010
0000
0000
0000
,
0000
0000
0000
0000
,
0000
0000
0000
0000
,
0000
0000
0000
0000
,
0100
0000
0000
0000
,
0000
0000
0000
0000
,
0000
0000
0000
0000
,
0000
0000
0000
0000
,
1000
0000
0000
0000
,
0000
0000
0000
0000
,
0000
0000
0000
0000
,
0000
0000
0000
0000
,
0100
0000
0000
0000
,
0000
0000
0000
0000
,
0000
0000
0000
0000
,
0000
0000
0000
0000
,
1000
0000
0000
0000
,
0000
0000
0000
0000
,
0000
0000
0000
0000
,
0000
0000
0000
0000
,
1000
0000
0000
0000
,
0000
0000
0000
0000
,
0000
0000
0000
0000
,
0000
0000
0000
0000
,
0001
0000
0000
0000
,
0000
0000
0000
0000
,
0000
0000
0000
0000
,
0000
0000
0000
0000
,
0100
0000
0000
0000
,
0000
0000
0000
0000
,
0000
0000
0000
0000
,
0000
0000
0000
0000
,
0001
0000
0000
0000
,
0000
0000
0000
0000
,
0000
0000
0000
0000
,
0000
0000
0000
0000
,
0010
0000
0000
0000
,
0000
0000
0000
0000
,
0000
0000
0000
0000
,
0000
0000
0000
0000
,
1000
0000
0000
0000
,
0000
0000
0000
0000
,
0000
0000
0000
0000
,
0000
0000
0000
0000
,
1000
0000
0000
0000
,
0000
0000
0000
0000
,
0000
0000
0000
0000
,
0000
0000
0000
0000
,
0100
0000
0000
0000
,
0000
0000
0000
0000
,
0000
0000
0000
0000
,
0000
0000
0000
0000
,
1000
0000
0000
0000
,
0000
0000
0000
0000
,
0000
0000
0000
0000
,
0000
0000
0000
0000
,
0100
0000
0000
0000
,
0000
0000
0000
0000
,
0000
0000
0000
0000
,
0000
0000
0000
0000
,
1000
0000
0000
0000
,
0000
0000
0000
0000
,
0000
0000
0000
0000
,
0000
0000
0000
0000
,
0100
0000
0000
0000
,
0000
0000
0000
0000
,
0000
0000
0000
0000
,
0000
0000
0000
0000
,
1000
0000
0000
0000
,
0000
0000
0000
0000
,
0000
0000
0000
0000
,
0000
0000
0000
0000
,
1000
0000
0000
0000
,
0000
0000
0000
0000
,
0000
0000
0000
0000
,
0000
0000
0000
0000
,
0100
0000
0000
0000
,
0000
0000
0000
0000
,
0000
0000
0000
0000
,
0000
0000
0000
0000
,
0010
0000
0000
0000
,
0000
0000
0000
0000
,
0000
0000
0000
0000
,
0000
0000
0000
0000
,
0010
0000
0000
0000
,
0000
0000
0000
0000
,
0000
0000
0000
0000
,
0000
0000
0000
0000
,
1000
0000
0000
0000
,
0000
0000
0000
0000
,
0000
0000
0000
0000
,
0000
0000
0000
0000
,
0100
0000
0000
0000
,
0000
0000
0000
0000
,
0000
0000
0000
0000
,
0000
0000
0000
0000
,
1000
0000
0000
0000
,
0000
0000
0000
0000
,
0000
0000
0000
0000
,
0000
0000
0000
0000
,
0010
0000
0000
0000
,
0000
0000
0000
0000
,
0000
0000
0000
0000
,
0000
0000
0000
0000
,
0010
0000
0000
0000
,
0000
0000
0000
0000
,
0000
0000
0000
0000
,
0000
0000
0000
0000
,
1000
0000
0000
0000
,
0000
0000
0000
0000
,
0000
0000
0000
0000
,
0000
0000
0000
0000
,
0100
0000
0000
0000
,
0000
0000
0000
0000
,
0000
0000
0000
0000
,
0000
0000
0000
0000
,
0100
0000
0000
0000
,
0000
0000
0000
0000
,
0000
0000
0000
0000
,
0000
0000
0000
0000
,
1000
0000
0000
0000
,
0000
0000
0000
0000
,
0000
0000
0000
0000
,
0000
0000
0000
0000
,
1000
0000
0000
0000
,
0000
0000
0000
0000
,
0000
0000
0000
0000
,
0000
0000
0000
0000
,
0100
0000
0000
0000
,
0000
0000
0000
0000
,
0000
0000
0000
0000
,
0000
0000
0000
0000
,
0001
0000
0000
0000
,
0000
0000
0000
0000
,
0000
0000
0000
0000
,
0000
0000
0000
0000
,
0100
0000
0000
0000
,
0000
0000
0000
0000
,
0000
0000
0000
0000
,
0000
0000
0000
0000
,
0010
0000
0000
0000
,
0000
0000
0000
0000
,
0000
0000
0000
0000
,
0000
0000
0000
0000
,
0001
0000
0000
0000
,
0000
0000
0000
0000
,
0000
0000
0000
0000
,
0000
0000
0000
0000
,
1000
0000
0000
0000
,
0000
0000
0000
0000
,
0000
0000
0000
0000
,
0000
0000
0000
0000
,
0100
0000
0000
0000
,
0000
0000
0000
0000
,
0000
0000
0000
0000
,
0000
0000
0000
0000
,
0100
0000
0000
0000
,
0000
0000
0000
0000
,
0000
0000
0000
0000
,
0000
0000
0000
0000
,
0001
0000
0000
0000
,
0000
0000
0000
0000
,
0000
0000
0000
0000
,
0000
0000
0000
0000
,
1000
0000
0000
0000
,
0000
0000
0000
0000
,
0000
0000
0000
0000
,
0000
0000
0000
0000
,
1000
0000
0000
0000
,
0000
0000
0000
0000
,
0000
0000
0000
0000
,
0000
0000
0000
0000
,
1000
0000
0000
0000
,
0000
0000
0000
0000
,
0000
0000
0000
0000
,
0000
0000
0000
0000
,
0010
0000
0000
0000
,
0000
0000
0000
0000
,
0000
0000
0000
0000
,
0000
0000
0000
0000
,
0100
0000
0000
0000
,
0000
0000
0000
0000
,
0000
0000
0000
0000
,
0000
0000
0000
0000
,
0100
0000
0000
0000
,
0000
0000
0000
0000
,
0000
0000
0000
0000
,
0000
0000
0000
0000
,
0001
0000
0000
0000
,
0000
0000
0000
0000
,
0000
0000
0000
0000
,
0000
0000
0000
0000
,
0010
0000
0000
0000
;

//---------------dance-single - I. Pyles----------------
#NOTES:
     dance-single:
     I. Pyles:
     Easy:
     12:
     0.918,0.930,0.137,0.048,0.696,2323.000,51.000,18.000,154.000,0.000:



00M0
0000
00M0
0000
,
00M0
0000
00M0
0000
,
00M0
0000
00M0
0000
,
00M0
0000
00M0
0000
,
M001
0000
0100
0000
0010
0000
0100
0001
M000
0010
0000
0100
0000
0000
0000
0010
,
M001
0000
0100
0000
0010
0000
0100
0001
M000
0010
0000
0100
0000
0000
0100
0000
,
M010
0000
0001
0000
0100
0000
0010
0100
M000
0001
0000
0010
0000
0000
0000
0100
,
M010
0000
0001
0000
0100
0000
0010
0100
M000
0001
0000
0010
0000
0000
0010
0000
,
010M
0000
1000
0000
0010
0000
0100
0010
000M
1000
0000
0100
0000
0000
0000
0010
,
010M
0000
1000
0000
0010
0000
0100
0010
000M
1000
0000
0100
0000
0000
0100
0000
,
001M
0000
0100
0000
1000
0000
0010
0100
000M
0010
0000
1000
0000
0000
0000
0100
,
001M
0000
0100
0000
1000
0000
0010
0100
000M
0010
0000
1000
0000
0000
1000
0000
,
00M1
0000
1000
0000
0100
0000
1000
0001
00M0
0100
0000
0001
0000
0000
0000
0100
,
00M1
0000
1000
0000
0100
0000
1000
0001
00M0
0100
0000
0001
0000
0000
0001
0000
,
10M0
0000
0100
0000
1000
0000
0001
0100
00M0
0001
0000
1000
0000
0000
0000
0001
,
0M10
0000
0001
0000
1000
0000
0010
1000
0M00
0001
0000
1000
0000
0000
1000
0000
,
0200
0000
1000
0000
,
1000
0000
0000
0000
1000
0000
0020
0300
,
0032
0000
1000
0000
,
0200
0003
0000
0000
0001
0000
0000
0000
,
0020
0300
0000
0000
1000
0000
0000
0000
,
1000
0000
0000
0000
1000
0000
0200
0030
,
0302
0000
0010
0000
,
2000
0003
0000
0000
0010
0000
0000
0000
,
0200
3000
0000
0000
0010
0000
0000
0000
,
0010
0000
0000
0000
0010
0000
2000
0300
,
3002
0000
0010
0000
,
0200
0003
0000
0000
0001
0000
0000
0000
,
0020
0300
0000
0000
1000
0000
0000
0000
,
1000
0000
0000
0000
1000
0000
0200
0030
,
0302
0000
0010
0000
,
2000
0003
0000
0000
0100
0000
0000
3000
,
1000
0000
0001
0000
0011
0000
0010
0100
0010
0001
1000
0000
1001
0000
0000
1000
,
0010
0000
0100
0000
1010
0000
0010
1000
0000
0001
0100
0010
0000
0010
1000
0001
,
0100
0000
0010
0000
0101
0000
0100
0010
0100
0001
1000
0100
0000
0100
0010
0001
,
1000
0000
0001
0000
0011
0000
0010
0001
0000
1000
0100
0010
0000
0010
0100
0010
,
0001
0000
1000
0000
1100
0000
0100
0010
0100
1000
0001
0000
1001
0000
0000
0001
,
0100
0000
0010
0000
0101
0000
0100
0001
0000
1000
0010
0100
0000
0100
0001
1000
,
0010
0000
0100
0000
1010
0000
0010
0100
0010
1000
0001
0010
0000
0010
0100
1000
,
0001
0000
1000
0000
1100
0000
0100
1000
0000
0001
0010
0100
0000
0100
0010
0100
,
1000
0000
0001
0000
0101
0000
0100
0010
0100
0001
1000
0000
1001
0000
0000
1000
,
0100
0000
0010
0000
1100
0000
0100
1000
0000
0001
0010
0100
0000
0100
1000
0001
,
0010
0000
0100
0000
0011
0000
0010
0100
0010
0001
1000
0010
0000
0010
0100
0001
,
1000
0000
0001
0000
0101
0000
0100
0001
0000
1000
0010
0100
0000
0100
0010
0100
,
0001
0000
1000
0000
1010
0000
0010
0100
0010
1000
0001
0000
1001
0000
0000
0001
,
0010
0000
0100
0000
0011
0000
0010
0001
0000
1000
0100
0010
0000
0010
0001
1000
,
0100
0000
0010
0000
1100
0000
0100
0010
0100
1000
0001
0100
0000
0100
0010
1000
,
0001
0000
1000
0000
1010
0000
0010
1000
0000
0001
0100
0010
0000
0010
0100
0010
,
1000
0000
0001
0000
0011
0000
0010
0100
0010
0001
1000
0000
1001
0000
0000
1000
,
0010
0000
0100
0000
1010
0000
0010
1000
0000
0001
0100
0010
0000
0010
1000
0001
,
0100
0000
0010
0000
0101
0000
0100
0010
0100
0001
1000
0100
0000
0100
0010
0001
,
1000
0000
0001
0000
0011
0000
0010
0001
0000
1000
0100
0010
0000
0010
0100
0010
,
0001
0000
1000
0000
1100
0000
0100
0010
0100
1000
0001
0000
1001
0000
0000
0001
,
0100
0000
0010
0000
0101
0000
0100
0001
0000
1000
0010
0100
0000
0100
0001
1000
,
0010
0000
0100
0000
1010
0000
0010
0100
0010
1000
0001
0010
0000
0010
0100
1000
,
0001
0000
1000
0000
1100
0000
0100
1000
0000
0001
0010
0100
0000
0100
0010
0100
,
1000
0000
0001
0000
0101
0000
0100
0010
0100
0001
1000
0000
1001
0000
0000
1000
,
0100
0000
0010
0000
1100
0000
0100
1000
0000
0001
0010
0100
0000
0100
1000
0001
,
0010
0000
0100
0000
0011
0000
0010
0100
0010
0001
1000
0010
0000
0010
0100
0001
,
1000
0000
0001
0000
0101
0000
0100
0001
0000
1000
0010
0100
0000
0100
0010
0100
,
0001
0000
1000
0000
1010
0000
0010
0100
0010
1000
0001
0000
1001
0000
0000
0001
,
0010
0000
0100
0000
0011
0000
0010
0001
0000
1000
0100
0010
0000
0010
0001
1000
,
0100
0000
0010
0000
1100
0000
0100
0010
0100
1000
0001
0100
0000
0100
0010
1000
,
0001
0000
1000
0000
1010
0000
0010
1000
0000
0001
0100
0010
0000
0010
0100
0010
,
1000
0000
0001
0000
1000
0000
0100
1000
0000
0001
0000
0100
0000
0000
0000
0001
,
1000
0000
0100
0000
1000
0000
0001
0100
0000
0001
0000
1000
0000
0000
1000
0000
,
0010
0000
1000
0000
0001
0000
0010
0001
0000
1000
0000
0010
0000
0000
0000
1000
,
0001
0000
0010
0000
0001
0000
1000
0010
0000
1000
0000
0001
0000
0000
0001
0000
,
M100
0000
0001
0000
0010
0000
0100
0010
M000
0001
0000
0100
M000
0000
0000
0010
,
1000
0000
0001
0000
0M10
0000
0001
1000
0M00
0010
0000
1000
0M00
0000
1000
0000
,
M001
0000
M010
0000
M100
0000
M010
0001
M000
0100
M000
0010
M000
0000
M000
0100
,
0001
0M00
1000
0M00
0010
0M00
1000
0M01
0000
0M10
0000
0M01
0000
0M00
0001
0000
,
10M0
00M1
10M0
00M1
10M0
00M1
10M0
00M1
,
10M0
00M1
1M00
0M01
1M00
00M1
10M0
00M1
,
1M00
0M01
1M00
0M01
1M00
0M01
1M00
0M01
,
10M0
00M1
10M0
0M01
1M00
0M01
1M00
0M01
,
010M
001M
010M
001M
010M
001M
010M
001M
,
010M
001M
M100
M010
M100
001M
010M
001M
,
M100
M010
M100
M010
M100
M010
M100
M010
,
000M
M000
00M0
0M00
00M0
0M00
000M
M000
0M00
00M0
000M
0000
,
1001
0000
0001
0000
0010
0000
0001
0100
0001
0100
0010
0000
1000
0001
1000
0001
,
0100
0000
0010
0000
0010
0000
1000
0010
1000
0010
0100
0000
0010
1000
0010
1000
,
0001
0000
1000
0000
0010
0000
1000
0100
1000
0100
0010
0000
0100
1000
0100
1000
,
0001
0000
0100
0000
0100
0000
0010
1000
0010
1000
0100
0000
0010
0001
0010
0001
,
0100
0000
0010
0000
0010
0000
1000
0010
1000
0010
0100
0000
0010
1000
0010
1000
,
0001
0000
1000
0000
1000
0000
0100
0010
0100
0010
0001
0000
0010
0100
0010
0100
,
1000
0000
0001
0000
0010
0000
0001
0010
0001
0010
0100
0000
1000
0010
1000
0010
,
0100
0000
0001
0000
0001
0000
0100
0001
1000
0001
0100
0000
0010
1000
0001
1000
,
0100
0000
1000
0000
0010
0000
1000
0100
1000
0100
0010
0000
0001
1000
0001
1000
,
0100
0000
0010
0000
0010
0000
0001
0010
0001
0010
0100
0000
0010
0001
0010
0001
,
1000
0000
0001
0000
0010
0000
0001
0100
0001
0100
0010
0000
0100
0001
0100
0001
,
1000
0000
0100
0000
0100
0000
0010
0001
0010
0001
0100
0000
0010
1000
0010
1000
,
0100
0000
0010
0000
0010
0000
0001
0010
0001
0010
0100
0000
0010
0001
0010
0001
,
1000
0000
0001
0000
0001
0000
0100
0010
0100
0010
1000
0000
0010
0100
0010
0100
,
0001
0000
1000
0000
0010
0000
1000
0010
1000
0010
0100
0000
0001
0010
0001
0010
,
0100
0000
1000
0000
0011
0000
0100
1000
0001
0100
0010
0000
0100
0001
1000
0001
,
0010
0100
0100
1000
0100
0100
0010
0100
,
0100
1000
0001
0001
0010
0100
0100
0010
,
0001
0001
0100
0010
0010
0100
0001
0001
,
1000
0000
0010
0000
0010
0000
1000
0000
0001
0000
0001
0000
0010
0000
0100
1000
,
0010
0100
0100
0001
0100
0100
0010
0100
,
0100
0001
1000
1000
0010
0100
0100
0010
,
1000
1000
0100
0010
0010
0100
1000
1000
,
0001
0000
0010
0000
0010
0000
0001
0000
1000
0000
1000
0000
0100
0000
0010
0001
,
0100
0010
0010
1000
0010
0010
0100
0010
,
0010
1000
0001
0001
0100
0010
0010
0100
,
0001
0001
0010
0100
0100
0010
0001
0001
,
1000
0000
0100
0000
0100
0000
1000
0000
0001
0000
0001
0000
0100
0000
0010
1000
,
0100
0010
0010
0001
0010
0010
0100
0010
,
0010
0001
1000
1000
0100
0010
0010
0100
,
1000
1000
0010
0100
0100
0010
1000
1000
,
0100
0000
0010
0000
1001
0000
1000
0100
0010
0001
1000
0010
0100
0001
1000
0001
,
0100
0000
0010
0000
0010
0000
1000
0010
1000
0010
0100
0000
0001
1000
0001
1000
,
0010
0000
0100
0000
0100
0000
0001
0100
0001
0100
0010
0000
0100
0001
0100
0001
,
1000
0000
0001
0000
0010
0000
0001
0010
0001
0010
0100
0000
0010
0001
0010
0001
,
1000
0000
0010
0000
0010
0000
0100
0001
0100
0001
0010
0000
0100
1000
0100
1000
,
0010
0000
0100
0000
0100
0000
0001
0100
0001
0100
0010
0000
0100
0001
0100
0001
,
1000
0000
0001
0000
0001
0000
0010
0100
0010
0100
1000
0000
0100
0010
0100
0010
,
0001
0000
1000
0000
0010
0000
1000
0100
1000
0100
0010
0000
0001
0100
0001
0100
,
0010
0000
1000
0000
1000
0000
0010
1000
0001
1000
0010
0000
0100
0001
1000
0001
,
0010
0000
0001
0000
0100
0000
0001
0010
0001
0010
0100
0000
1000
0001
1000
0001
,
0010
0000
0100
0000
0100
0000
1000
0100
1000
0100
0010
0000
0100
1000
0100
1000
,
0001
0000
1000
0000
0010
0000
1000
0010
1000
0010
0100
0000
0010
1000
0010
1000
,
0001
0000
0010
0000
0010
0000
0100
1000
0100
1000
0010
0000
0100
0001
0100
0001
,
0010
0000
0100
0000
0100
0000
1000
0100
1000
0100
0010
0000
0100
1000
0100
1000
,
0001
0000
1000
0000
1000
0000
0010
0100
0010
0100
0001
0000
0100
0010
0100
0010
,
1000
0000
0001
0000
0010
0000
0001
0100
0001
0100
0010
0000
1000
0100
1000
0100
,
0010
0000
0001
0000
1100
0000
0010
0001
1000
0010
0100
0000
0010
1000
0001
1000
,
0100
0010
0010
0001
0010
0010
0100
0010
,
0010
0001
1000
1000
0100
0010
0010
0100
,
1000
1000
0010
0100
0100
0010
1000
1000
,
0001
0000
0100
0000
0100
0000
0001
0000
1000
0000
1000
0000
0100
0000
0010
0001
,
0100
0010
0010
1000
0010
0010
0100
0010
,
0010
1000
0001
0001
0100
0010
0010
0100
,
0001
0001
0010
0100
0100
0010
0001
0001
,
1000
0000
0100
0000
0100
0000
1000
0000
0001
0000
0001
0000
0010
0000
0100
1000
,
0010
0100
0100
0001
0100
0100
0010
0100
,
0100
0001
1000
1000
0010
0100
0100
0010
,
1000
1000
0100
0010
0010
0100
1000
1000
,
0001
0000
0010
0000
0010
0000
0001
0000
1000
0000
1000
0000
0010
0000
0100
0001
,
0010
0100
0100
1000
0100
0100
0010
0100
,
0100
1000
0001
0001
0010
0100
0100
0010
,
0001
0001
0100
0010
0010
0100
0001
0001
,
0010
0000
0000
0000
0000
0000
0100
0000
0000
0000
0000
0000
1001
0000
0000
0000
0000
0000
1000
0000
0000
0100
0000
0000
4000
0000
0004
0000
0000
0000
0000
0000
0000
0000
0000
0000
0000
0000
0000
0000
0000
0000
3000
0000
0003
0000
0000
0000
,
1000
0010
0100
0001
0010
0100
1000
0010
,
0100
0001
0010
0100
1000
0010
0100
0001
,
0010
0100
1000
0010
0100
0001
0010
0100
,
1000
0010
0100
0001
0010
0100
1000
0010
,
0100
0001
0010
0100
1000
0010
0100
0001
,
0010
0100
1000
0010
0100
0001
0010
0100
,
1000
0010
0100
0001
0010
0100
1000
0010
,
0100
0000
0001
0000
0010
0000
0100
0000
1000
0000
0010
0000
0100
0000
0001
1000
,
0001
0100
0010
1000
0100
0010
0001
0100
,
0010
1000
0100
0010
0001
0100
0010
1000
,
0100
0010
0001
0100
0010
1000
0100
0010
,
0001
0100
0010
1000
0100
0010
0001
0100
,
0010
1000
0100
0010
0001
0100
0010
1000
,
0100
0010
0001
0100
0010
1000
0100
0010
,
0001
0100
0010
1000
0100
0010
0001
0100
,
0010
0000
1000
0000
0100
0000
0010
0000
0001
0000
0100
0000
0010
0000
1000
0001
,
1000
0010
0100
0001
0010
0100
1000
0010
,
0100
0001
0010
0100
1000
0010
0100
0001
,
0010
0100
1000
0010
0100
0001
0010
0100
,
1000
0010
0100
0001
0010
0100
1000
0010
,
0100
0001
0010
0100
1000
0010
0100
0001
,
0010
0100
1000
0010
0100
0001
0010
0100
,
1000
0010
0100
0001
0010
0100
1000
0010
,
0100
0000
0001
0000
0010
0000
0100
0000
1000
0000
0010
0000
0100
0000
0001
1000
,
0001
0100
0010
1000
0100
0010
0001
0100
,
0010
1000
0100
0010
0001
0100
0010
1000
,
0100
0010
0001
0100
0010
1000
0100
0010
,
0001
0100
0010
1000
0100
0010
0001
0100
,
0010
000M
000M
000M
000M
000M
000M
000M
,
000M
000M
0M00
0M00
0M00
00M0
00M0
00M0
,
M000
M000
M000
M000
M000
M000
M000
M000
,
000M
M000
00M0
0M00
00M0
0M00
000M
M000
0M00
00M0
000M
0000
,
1001
0000
1000
0000
0010
0000
1000
0010
1000
0010
0100
0000
0001
1000
0001
1000
,
0010
0000
0100
0000
0100
0000
0001
0100
0001
0100
0010
0000
0100
0001
0100
0001
,
1000
0000
0001
0000
0010
0000
0001
0010
0001
0010
0100
0000
0010
0001
0010
0001
,
1000
0000
0010
0000
0010
0000
0100
0001
0100
0001
0010
0000
0100
1000
0100
1000
,
0010
0000
0100
0000
0100
0000
0001
0100
0001
0100
0010
0000
0100
0001
0100
0001
,
1000
0000
0001
0000
0001
0000
0010
0100
0010
0100
1000
0000
0100
0010
0100
0010
,
0001
0000
1000
0000
0010
0000
1000
0100
1000
0100
0010
0000
0001
0100
0001
0100
,
0010
0000
1000
0000
1000
0000
0010
1000
0001
1000
0010
0000
0100
0001
1000
0001
,
0010
0000
0001
0000
0100
0000
0001
0010
0001
0010
0100
0000
1000
0001
1000
0001
,
0010
0000
0100
0000
0100
0000
1000
0100
1000
0100
0010
0000
0100
1000
0100
1000
,
0001
0000
1000
0000
0010
0000
1000
0010
1000
0010
0100
0000
0010
1000
0010
1000
,
0001
0000
0010
0000
0010
0000
0100
1000
0100
1000
0010
0000
0100
0001
0100
0001
,
0010
0000
0100
0000
0100
0000
1000
0100
1000
0100
0010
0000
0100
1000
0100
1000
,
0001
0000
1000
0000
1000
0000
0010
0100
0010
0100
0001
0000
0100
0010
0100
0010
,
1000
0000
0001
0000
0010
0000
0001
0100
0001
0100
0010
0000
1000
0100
1000
0100
,
0010
0000
0001
0000
1100
0000
0010
0001
1000
0010
0100
0000
0010
1000
0001
1000
,
0100
0010
0010
0001
0010
0010
0100
0010
,
0010
0001
1000
1000
0100
0010
0010
0100
,
1000
1000
0010
0100
0100
0010
1000
1000
,
0001
0000
0100
0000
0100
0000
0001
0000
1000
0000
1000
0000
0100
0000
0010
0001
,
0100
0010
0010
1000
0010
0010
0100
0010
,
0010
1000
0001
0001
0100
0010
0010
0100
,
0001
0001
0010
0100
0100
0010
0001
0001
,
1000
0000
0100
0000
0100
0000
1000
0000
0001
0000
0001
0000
0010
0000
0100
1000
,
0010
0100
0100
0001
0100
0100
0010
0100
,
0100
0001
1000
1000
0010
0100
0100
0010
,
1000
1000
0100
0010
0010
0100
1000
1000
,
0001
0000
0010
0000
0010
0000
0001
0000
1000
0000
1000
0000
0010
0000
0100
0001
,
0010
0100
0100
1000
0100
0100
0010
0100
,
0100
1000
0001
0001
0010
0100
0100
0010
,
0001
0001
0100
0010
0010
0100
0001
0001
,
0010
0000
0100
0000
1001
0000
0001
0010
0100
1000
0001
0100
0010
1000
0001
1000
,
0010
0000
0100
0000
0100
0000
0001
0100
0001
0100
0010
0000
1000
0001
1000
0001
,
0100
0000
0010
0000
0010
0000
1000
0010
1000
0010
0100
0000
0010
1000
0010
1000
,
0001
0000
1000
0000
0010
0000
1000
0100
1000
0100
0010
0000
0100
1000
0100
1000
,
0001
0000
0100
0000
0100
0000
0010
1000
0010
1000
0100
0000
0010
0001
0010
0001
,
0100
0000
0010
0000
0010
0000
1000
0010
1000
0010
0100
0000
0010
1000
0010
1000
,
0001
0000
1000
0000
1000
0000
0100
0010
0100
0010
0001
0000
0010
0100
0010
0100
,
1000
0000
0001
0000
0010
0000
0001
0010
0001
0010
0100
0000
1000
0010
1000
0010
,
0100
0000
0001
0000
0001
0000
0100
0001
1000
0001
0100
0000
0010
1000
0001
1000
,
0100
0000
1000
0000
0010
0000
1000
0100
1000
0100
0010
0000
0001
1000
0001
1000
,
0100
0000
0010
0000
0010
0000
0001
0010
0001
0010
0100
0000
0010
0001
0010
0001
,
1000
0000
0001
0000
0010
0000
0001
0100
0001
0100
0010
0000
0100
0001
0100
0001
,
1000
0000
0100
0000
0100
0000
0010
0001
0010
0001
0100
0000
0010
1000
0010
1000
,
0100
0000
0010
0000
0010
0000
0001
0010
0001
0010
0100
0000
0010
0001
0010
0001
,
1000
0000
0001
0000
0001
0000
0100
0010
0100
0010
1000
0000
0010
0100
0010
0100
,
0001
0000
1000
0000
0010
0000
1000
0010
1000
0010
0100
0000
0001
0010
0001
0010
,
0100
0000
1000
0000
0011
0000
0100
1000
0001
0100
0010
0000
0100
0001
1000
0001
,
0010
0100
0100
1000
0100
0100
0010
0100
,
0100
1000
0001
0001
0010
0100
0100
0010
,
0001
0001
0100
0010
0010
0100
0001
0001
,
1000
0000
0010
0000
0010
0000
1000
0000
0001
0000
0001
0000
0010
0000
0100
1000
,
0010
0100
0100
0001
0100
0100
0010
0100
,
0100
0001
1000
1000
0010
0100
0100
0010
,
1000
1000
0100
0010
0010
0100
1000
1000
,
0001
0000
0010
0000
0010
0000
0001
0000
1000
0000
1000
0000
0100
0000
0010
0001
,
0100
0010
0010
1000
0010
0010
0100
0010
,
0010
1000
0001
0001
0100
0010
0010
0100
,
0001
0001
0010
0100
0100
0010
0001
0001
,
1000
0000
0100
0000
0100
0000
1000
0000
0001
0000
0001
0000
0100
0000
0010
1000
,
0100
0010
0010
0001
0010
0010
0100
0010
,
0010
0001
1000
1000
0100
0010
0010
0100
,
1000
1000
0010
0100
0100
0010
1000
1000
,
0100
0000
0000
0000
0000
0000
0010
0000
0000
0000
0000
0000
1001
0000
0000
0000
0000
0000
1000
0000
0000
0010
0000
0000
4000
0000
0004
0000
0000
0000
0000
0000
0000
0000
0000
0000
0000
0000
0000
0000
0000
0000
3000
0000
0003
0000
0000
0000
,
1000
0010
0100
0001
0010
0100
1000
0010
,
0100
0001
0010
0100
1000
0010
0100
0001
,
0010
0100
1000
0010
0100
0001
0010
0100
,
1000
0010
0100
0001
0010
0100
1000
0010
,
0100
0001
0010
0100
1000
0010
0100
0001
,
0010
0100
1000
0010
0100
0001
0010
0100
,
1000
0010
0100
0001
0010
0100
1000
0010
,
0100
0000
0001
0000
0010
0000
0100
0000
1000
0000
0010
0000
0100
0000
0001
1000
,
0001
0100
0010
1000
0100
0010
0001
0100
,
0010
1000
0100
0010
0001
0100
0010
1000
,
0100
0010
0001
0100
0010
1000
0100
0010
,
0001
0100
0010
1000
0100
0010
0001
0100
,
0010
1000
0100
0010
0001
0100
0010
1000
,
0100
0010
0001
0100
0010
1000
0100
0010
,
0001
0100
0010
1000
0100
0010
0001
0100
,
0010
0000
1000
0000
0100
0000
0010
0000
0001
0000
0100
0000
0010
0000
1000
0001
,
1000
0010
0100
0001
0010
0100
1000
0010
,
0100
0001
0010
0100
1000
0010
0100
0001
,
0010
0100
1000
0010
0100
0001
0010
0100
,
1000
0010
0100
0001
0010
0100
1000
0010
,
0100
0001
0010
0100
1000
0010
0100
0001
,
0010
0100
1000
0010
0100
0001
0010
0100
,
1000
0010
0100
0001
0010
0100
1000
0010
,
0100
0001
0010
0100
1000
0010
0100
0001
,
2002
0000
0000
0000
,
0000
0000
0000
0000
,
0000
0000
0000
0000
0000
0000
0000
3003
;

//---------------dance-single - I. Pyles----------------
#NOTES:
     dance-single:
     I. Pyles:
     Medium:
     13:
     1.000,1.000,0.083,0.048,1.000,2624.000,31.000,18.000,154.000,0.000:





00M0
0000
00M0
0000
,
00M0
0000
00M0
0000
,
00M0
0000
00M0
0000
,
00M0
0000
00M0
0000
,
M001
0000
0100
0000
0010
0000
0100
0001
M000
0010
0000
0100
0000
0000
0000
0010
,
M001
0000
0100
0000
0010
0000
0100
0001
M000
0010
0000
0100
0000
0000
0100
0000
,
M010
0000
0001
0000
0100
0000
0010
0100
M000
0001
0000
0010
0000
0000
0000
0100
,
M010
0000
0001
0000
0100
0000
0010
0100
M000
0001
0000
0010
0000
0000
0010
0000
,
010M
0000
1000
0000
0010
0000
0100
0010
000M
1000
0000
0100
0000
0000
0000
0010
,
010M
0000
1000
0000
0010
0000
0100
0010
000M
1000
0000
0100
0000
0000
0100
0000
,
001M
0000
0100
0000
1000
0000
0010
0100
000M
0010
0000
1000
0000
0000
0000
0100
,
001M
0000
0100
0000
1000
0000
0010
0100
000M
0010
0000
1000
0000
0000
1000
0000
,
00M1
0000
1000
0000
0100
0000
1000
0001
00M0
0100
0000
0001
0000
0000
0000
0100
,
00M1
0000
1000
0000
0100
0000
1000
0001
00M0
0100
0000
0001
0000
0000
0001
0000
,
10M0
0000
0100
0000
1000
0000
0001
0100
00M0
0001
0000
1000
0000
0000
0000
0001
,
0M10
0000
0001
0000
1000
0000
0010
1000
0M00
0001
0000
1000
0000
0000
1000
0000
,
0200
0000
1000
0000
,
1000
0000
0000
0000
1000
0000
0020
0300
,
0032
0000
1000
0000
,
0200
0003
0000
0000
0001
0000
0000
0000
,
0020
0300
0000
0000
1000
0000
0000
0000
,
1000
0000
0000
0000
1000
0000
0200
0030
,
0302
0000
0010
0000
,
2000
0003
0000
0000
0010
0000
0000
0000
,
0200
3000
0000
0000
0010
0000
0000
0000
,
0010
0000
0000
0000
0010
0000
2000
0300
,
3002
0000
0010
0000
,
0200
0003
0000
0000
0001
0000
0000
0000
,
0020
0300
0000
0000
1000
0000
0000
0000
,
1000
0000
0000
0000
1000
0000
0200
0030
,
0302
0000
0010
0000
,
2000
0003
0000
0000
0100
0000
0000
3000
,
1000
0000
0001
0000
0011
0000
0010
0100
0010
0001
1000
0000
1001
0000
0000
1000
,
0010
0000
0100
0000
1010
0000
0010
1000
0000
0001
0100
0010
0000
0010
1000
0001
,
0100
0000
0010
0000
0101
0000
0100
0010
0100
0001
1000
0100
0000
0100
0010
0001
,
1000
0000
0001
0000
0011
0000
0010
0001
0000
1000
0100
0010
0000
0010
0100
0010
,
0001
0000
1000
0000
1100
0000
0100
0010
0100
1000
0001
0000
1001
0000
0000
0001
,
0100
0000
0010
0000
0101
0000
0100
0001
0000
1000
0010
0100
0000
0100
0001
1000
,
0010
0000
0100
0000
1010
0000
0010
0100
0010
1000
0001
0010
0000
0010
0100
1000
,
0001
0000
1000
0000
1100
0000
0100
1000
0000
0001
0010
0100
0000
0100
0010
0100
,
1000
0000
0001
0000
0101
0000
0100
0010
0100
0001
1000
0000
1001
0000
0000
1000
,
0100
0000
0010
0000
1100
0000
0100
1000
0000
0001
0010
0100
0000
0100
1000
0001
,
0010
0000
0100
0000
0011
0000
0010
0100
0010
0001
1000
0010
0000
0010
0100
0001
,
1000
0000
0001
0000
0101
0000
0100
0001
0000
1000
0010
0100
0000
0100
0010
0100
,
0001
0000
1000
0000
1010
0000
0010
0100
0010
1000
0001
0000
1001
0000
0000
0001
,
0010
0000
0100
0000
0011
0000
0010
0001
0000
1000
0100
0010
0000
0010
0001
1000
,
0100
0000
0010
0000
1100
0000
0100
0010
0100
1000
0001
0100
0000
0100
0010
1000
,
0001
0000
1000
0000
1010
0000
0010
1000
0000
0001
0100
0010
0000
0010
0100
0010
,
1000
0100
0010
0001
0100
0010
1000
0001
1000
0100
0010
0001
0100
0010
1000
0001
,
1000
0100
0010
0001
0100
0001
1000
0100
0010
0001
0100
0010
1000
0010
1000
0001
,
1000
0100
0010
0001
0100
0001
1000
0100
0010
0001
0100
0010
1000
0010
1000
0001
,
1000
0100
0010
0001
0100
0001
1000
0100
0010
0001
0100
0010
1000
0010
1000
0001
,
1000
0010
0100
0001
0010
0100
1000
0001
1000
0010
0100
0001
0010
0100
1000
0001
,
1000
0010
0100
0001
0010
0001
1000
0010
0100
0001
0010
0100
1000
0100
1000
0001
,
1000
0010
0100
0001
0010
0001
1000
0010
0100
0001
0010
0100
1000
0100
1000
0001
,
1000
0010
0100
0001
0010
0001
1000
0010
0100
0001
0010
0100
1000
0100
1000
0001
,
1000
0100
0010
0001
0100
0010
0100
0001
1000
0100
0010
0001
0100
0010
0100
0001
,
1000
0100
0010
0001
0100
0001
1000
0100
0010
0001
0100
0010
0100
0010
0100
0001
,
1000
0100
0010
0001
0100
0001
1000
0100
0010
0001
0100
0010
0100
0010
0100
0001
,
1000
0100
0010
0001
0100
0001
1000
0100
0010
0001
0100
0010
0100
0010
0100
0001
,
1000
0010
0100
0001
0010
0100
0010
0001
1000
0010
0100
0001
0010
0100
0010
0001
,
1000
0010
0100
0001
0010
0001
1000
0010
0100
0001
0010
0100
0010
0100
0010
0001
,
1000
0010
0100
0001
0010
0001
1000
0010
0100
0001
0010
0100
0010
0100
0010
0001
,
1000
0010
0100
0001
0010
0001
1000
0010
0100
0001
0010
0100
0010
0100
0010
0001
,
0100
0000
0001
0000
1000
0000
0100
1000
0000
0001
0000
0100
0000
0000
0000
0001
,
1000
0000
0100
0000
1000
0000
0001
0100
0000
0001
0000
1000
0000
0000
1000
0000
,
0010
0000
1000
0000
0001
0000
0010
0001
0000
1000
0000
0010
0000
0000
0000
1000
,
0001
0000
0010
0000
0001
0000
1000
0010
0000
1000
0000
0001
0000
0000
0001
0000
,
M100
0000
0001
0000
0010
0000
0100
0010
M000
0001
0000
0100
M000
0000
0000
0010
,
1000
0000
0001
0000
0M10
0000
0001
1000
0M00
0010
0000
1000
0M00
0000
1000
0000
,
M001
0000
M010
0000
M100
0000
M010
0001
M000
0100
M000
0010
M000
0000
M000
0100
,
0001
0M00
1000
0M00
0010
0M00
1000
0M01
0000
0M10
0000
0M01
0000
0M00
0001
0000
,
10M0
00M1
10M0
00M1
10M0
00M1
10M0
00M1
,
10M0
00M1
1M00
0M01
1M00
00M1
10M0
00M1
,
1M00
0M01
1M00
0M01
1M00
0M01
1M00
0M01
,
10M0
00M1
10M0
0M01
1M00
0M01
1M00
0M01
,
010M
001M
010M
001M
010M
001M
010M
001M
,
010M
001M
M100
M010
M100
001M
010M
001M
,
M100
M010
M100
M010
M100
M010
M100
M010
,
000M
M000
00M0
0M00
00M0
0M00
000M
M000
0M00
00M0
000M
0000
,
1001
0000
0001
0000
0010
0000
0001
0100
0001
0100
0010
0000
1000
0001
1000
0001
,
0100
0000
0010
0000
0010
0000
1000
0010
1000
0010
0100
0000
0010
1000
0010
1000
,
0001
0000
1000
0000
0010
0000
1000
0100
1000
0100
0010
0000
0100
1000
0100
1000
,
0001
0000
0100
0000
0100
0000
0010
1000
0010
1000
0100
0000
0010
0001
0010
0001
,
0100
0000
0010
0000
0010
0000
1000
0010
1000
0010
0100
0000
0010
1000
0010
1000
,
0001
0000
1000
0000
1000
0000
0100
0010
0100
0010
0001
0000
0010
0100
0010
0100
,
1000
0000
0001
0000
0010
0000
0001
0010
0001
0010
0100
0000
1000
0010
1000
0010
,
0100
0000
0001
0000
0001
0000
0100
0001
1000
0001
0100
0000
0010
1000
0001
1000
,
0100
0000
1000
0000
0010
0000
1000
0100
1000
0100
0010
0000
0001
1000
0001
1000
,
0100
0000
0010
0000
0010
0000
0001
0010
0001
0010
0100
0000
0010
0001
0010
0001
,
1000
0000
0001
0000
0010
0000
0001
0100
0001
0100
0010
0000
0100
0001
0100
0001
,
1000
0000
0100
0000
0100
0000
0010
0001
0010
0001
0100
0000
0010
1000
0010
1000
,
0100
0000
0010
0000
0010
0000
0001
0010
0001
0010
0100
0000
0010
0001
0010
0001
,
1000
0000
0001
0000
0001
0000
0100
0010
0100
0010
1000
0000
0010
0100
0010
0100
,
0001
0000
1000
0000
0010
0000
1000
0010
1000
0010
0100
0000
0001
0010
0001
0010
,
0100
0000
1000
0000
0011
0000
0100
1000
0001
0100
0010
0000
0100
0001
1000
0001
,
0010
0100
0100
1000
0100
0100
0010
0100
,
0100
1000
0001
0001
0010
0100
0100
0010
,
0001
0001
0100
0010
0010
0100
0001
0001
,
1000
0000
0010
0000
0010
0000
1000
0000
0001
0000
0001
0000
0010
0000
0100
1000
,
0010
0100
0100
0001
0100
0100
0010
0100
,
0100
0001
1000
1000
0010
0100
0100
0010
,
1000
1000
0100
0010
0010
0100
1000
1000
,
0001
0000
0010
0000
0010
0000
0001
0000
1000
0000
1000
0000
0100
0000
0010
0001
,
0100
0010
0010
1000
0010
0010
0100
0010
,
0010
1000
0001
0001
0100
0010
0010
0100
,
0001
0001
0010
0100
0100
0010
0001
0001
,
1000
0000
0100
0000
0100
0000
1000
0000
0001
0000
0001
0000
0100
0000
0010
1000
,
0100
0010
0010
0001
0010
0010
0100
0010
,
0010
0001
1000
1000
0100
0010
0010
0100
,
1000
1000
0010
0100
0100
0010
1000
1000
,
0100
0000
0010
0000
1001
0000
1000
0100
0010
0001
1000
0010
0100
0001
1000
0001
,
0100
0000
0010
0000
0010
0000
1000
0010
1000
0010
0100
0000
0001
1000
0001
1000
,
0010
0000
0100
0000
0100
0000
0001
0100
0001
0100
0010
0000
0100
0001
0100
0001
,
1000
0000
0001
0000
0010
0000
0001
0010
0001
0010
0100
0000
0010
0001
0010
0001
,
1000
0000
0010
0000
0010
0000
0100
0001
0100
0001
0010
0000
0100
1000
0100
1000
,
0010
0000
0100
0000
0100
0000
0001
0100
0001
0100
0010
0000
0100
0001
0100
0001
,
1000
0000
0001
0000
0001
0000
0010
0100
0010
0100
1000
0000
0100
0010
0100
0010
,
0001
0000
1000
0000
0010
0000
1000
0100
1000
0100
0010
0000
0001
0100
0001
0100
,
0010
0000
1000
0000
1000
0000
0010
1000
0001
1000
0010
0000
0100
0001
1000
0001
,
0010
0000
0001
0000
0100
0000
0001
0010
0001
0010
0100
0000
1000
0001
1000
0001
,
0010
0000
0100
0000
0100
0000
1000
0100
1000
0100
0010
0000
0100
1000
0100
1000
,
0001
0000
1000
0000
0010
0000
1000
0010
1000
0010
0100
0000
0010
1000
0010
1000
,
0001
0000
0010
0000
0010
0000
0100
1000
0100
1000
0010
0000
0100
0001
0100
0001
,
0010
0000
0100
0000
0100
0000
1000
0100
1000
0100
0010
0000
0100
1000
0100
1000
,
0001
0000
1000
0000
1000
0000
0010
0100
0010
0100
0001
0000
0100
0010
0100
0010
,
1000
0000
0001
0000
0010
0000
0001
0100
0001
0100
0010
0000
1000
0100
1000
0100
,
0010
0000
0001
0000
1100
0000
0010
0001
1000
0010
0100
0000
0010
1000
0001
1000
,
0100
0010
0010
0001
0010
0010
0100
0010
,
0010
0001
1000
1000
0100
0010
0010
0100
,
1000
1000
0010
0100
0100
0010
1000
1000
,
0001
0000
0100
0000
0100
0000
0001
0000
1000
0000
1000
0000
0100
0000
0010
0001
,
0100
0010
0010
1000
0010
0010
0100
0010
,
0010
1000
0001
0001
0100
0010
0010
0100
,
0001
0001
0010
0100
0100
0010
0001
0001
,
1000
0000
0100
0000
0100
0000
1000
0000
0001
0000
0001
0000
0010
0000
0100
1000
,
0010
0100
0100
0001
0100
0100
0010
0100
,
0100
0001
1000
1000
0010
0100
0100
0010
,
1000
1000
0100
0010
0010
0100
1000
1000
,
0001
0000
0010
0000
0010
0000
0001
0000
1000
0000
1000
0000
0010
0000
0100
0001
,
0010
0100
0100
1000
0100
0100
0010
0100
,
0100
1000
0001
0001
0010
0100
0100
0010
,
0001
0001
0100
0010
0010
0100
0001
0001
,
0010
0000
0000
0000
0000
0000
0100
0000
0000
0000
0000
0000
1001
0000
0000
0000
0000
0000
1000
0000
0000
0100
0000
0000
4000
0000
0004
0000
0000
0000
0000
0000
0000
0000
0000
0000
0000
0000
0000
0000
0000
0000
3000
0000
0003
0000
0000
0000
,
1000
0010
0100
0001
0010
0100
1000
0010
,
0100
0001
0010
0100
1000
0010
0100
0001
,
0010
0100
1000
0010
0100
0001
0010
0100
,
1000
0010
0100
0001
0010
0100
1000
0010
,
0100
0001
0010
0100
1000
0010
0100
0001
,
0010
0100
1000
0010
0100
0001
0010
0100
,
1000
0010
0100
0001
0010
0100
1000
0010
,
0100
0000
0001
0000
0010
0000
0100
0000
1000
0000
0010
0000
0100
0000
0001
1000
,
0001
0010
0100
1000
0100
1000
0001
0010
0100
1000
0100
1000
0001
0010
0100
1000
,
0100
1000
0001
0100
0010
1000
0010
1000
0001
0100
0010
1000
0010
1000
0001
0100
,
0010
1000
0010
1000
0001
0010
0100
1000
0100
1000
0001
0010
0100
1000
0100
1000
,
0001
0010
0100
1000
0100
1000
0001
0100
0010
1000
0010
1000
0001
0100
0010
1000
,
0010
1000
0001
0100
0010
1000
0010
1000
0001
0010
0100
1000
0100
1000
0001
0010
,
0100
1000
0100
1000
0001
0010
0100
1000
0100
1000
0001
0100
0010
1000
0010
1000
,
0001
0100
0010
1000
0010
1000
0001
0100
0010
1000
0010
1000
0001
0010
0100
1000
,
0100
1000
0001
0010
0100
1000
0100
1000
0001
0010
0100
1000
0100
1000
0001
0010
,
0001
1000
0010
1000
0010
0100
0001
1000
0010
1000
0010
0100
0001
1000
0010
1000
,
0010
0100
0001
1000
0100
1000
0100
0010
0001
1000
0100
1000
0100
0010
0001
1000
,
0100
1000
0100
0010
0001
1000
0010
1000
0010
0100
0001
1000
0010
1000
0010
0100
,
0001
1000
0010
1000
0010
0100
0001
1000
0100
1000
0100
0010
0001
1000
0100
1000
,
0100
0010
0001
1000
0100
1000
0100
0010
0001
1000
0010
1000
0010
0100
0001
1000
,
0010
1000
0010
0100
0001
1000
0010
1000
0010
0100
0001
1000
0100
1000
0100
0010
,
0001
1000
0100
1000
0100
0010
0001
1000
0100
1000
0100
0010
0001
1000
0010
1000
,
0010
0100
0001
1000
0010
1000
0010
0100
0001
1000
0010
1000
0010
0100
0001
1000
,
0001
0010
0100
0010
0100
1000
0001
0010
0100
0010
0100
1000
0001
0010
0100
0010
,
0100
1000
0001
0100
0010
0100
0010
1000
0001
0100
0010
0100
0010
1000
0001
0100
,
0010
0100
0010
1000
0001
0010
0100
0010
0100
1000
0001
0010
0100
0010
0100
1000
,
0001
0010
0100
0010
0100
1000
0001
0100
0010
0100
0010
1000
0001
0010
0100
1000
,
0010
000M
000M
000M
000M
000M
000M
000M
,
000M
000M
0M00
0M00
0M00
00M0
00M0
00M0
,
M000
M000
M000
M000
M000
M000
M000
M000
,
000M
M000
00M0
0M00
00M0
0M00
000M
M000
0M00
00M0
000M
0000
,
1001
0000
1000
0000
0010
0000
1000
0010
1000
0010
0100
0000
0001
1000
0001
1000
,
0010
0000
0100
0000
0100
0000
0001
0100
0001
0100
0010
0000
0100
0001
0100
0001
,
1000
0000
0001
0000
0010
0000
0001
0010
0001
0010
0100
0000
0010
0001
0010
0001
,
1000
0000
0010
0000
0010
0000
0100
0001
0100
0001
0010
0000
0100
1000
0100
1000
,
0010
0000
0100
0000
0100
0000
0001
0100
0001
0100
0010
0000
0100
0001
0100
0001
,
1000
0000
0001
0000
0001
0000
0010
0100
0010
0100
1000
0000
0100
0010
0100
0010
,
0001
0000
1000
0000
0010
0000
1000
0100
1000
0100
0010
0000
0001
0100
0001
0100
,
0010
0000
1000
0000
1000
0000
0010
1000
0001
1000
0010
0000
0100
0001
1000
0001
,
0010
0000
0001
0000
0100
0000
0001
0010
0001
0010
0100
0000
1000
0001
1000
0001
,
0010
0000
0100
0000
0100
0000
1000
0100
1000
0100
0010
0000
0100
1000
0100
1000
,
0001
0000
1000
0000
0010
0000
1000
0010
1000
0010
0100
0000
0010
1000
0010
1000
,
0001
0000
0010
0000
0010
0000
0100
1000
0100
1000
0010
0000
0100
0001
0100
0001
,
0010
0000
0100
0000
0100
0000
1000
0100
1000
0100
0010
0000
0100
1000
0100
1000
,
0001
0000
1000
0000
1000
0000
0010
0100
0010
0100
0001
0000
0100
0010
0100
0010
,
1000
0000
0001
0000
0010
0000
0001
0100
0001
0100
0010
0000
1000
0100
1000
0100
,
0010
0000
0001
0000
1100
0000
0010
0001
1000
0010
0100
0000
0010
1000
0001
1000
,
0100
0010
0010
0001
0010
0010
0100
0010
,
0010
0001
1000
1000
0100
0010
0010
0100
,
1000
1000
0010
0100
0100
0010
1000
1000
,
0001
0000
0100
0000
0100
0000
0001
0000
1000
0000
1000
0000
0100
0000
0010
0001
,
0100
0010
0010
1000
0010
0010
0100
0010
,
0010
1000
0001
0001
0100
0010
0010
0100
,
0001
0001
0010
0100
0100
0010
0001
0001
,
1000
0000
0100
0000
0100
0000
1000
0000
0001
0000
0001
0000
0010
0000
0100
1000
,
0010
0100
0100
0001
0100
0100
0010
0100
,
0100
0001
1000
1000
0010
0100
0100
0010
,
1000
1000
0100
0010
0010
0100
1000
1000
,
0001
0000
0010
0000
0010
0000
0001
0000
1000
0000
1000
0000
0010
0000
0100
0001
,
0010
0100
0100
1000
0100
0100
0010
0100
,
0100
1000
0001
0001
0010
0100
0100
0010
,
0001
0001
0100
0010
0010
0100
0001
0001
,
0010
0000
0100
0000
1001
0000
0001
0010
0100
1000
0001
0100
0010
1000
0001
1000
,
0010
0000
0100
0000
0100
0000
0001
0100
0001
0100
0010
0000
1000
0001
1000
0001
,
0100
0000
0010
0000
0010
0000
1000
0010
1000
0010
0100
0000
0010
1000
0010
1000
,
0001
0000
1000
0000
0010
0000
1000
0100
1000
0100
0010
0000
0100
1000
0100
1000
,
0001
0000
0100
0000
0100
0000
0010
1000
0010
1000
0100
0000
0010
0001
0010
0001
,
0100
0000
0010
0000
0010
0000
1000
0010
1000
0010
0100
0000
0010
1000
0010
1000
,
0001
0000
1000
0000
1000
0000
0100
0010
0100
0010
0001
0000
0010
0100
0010
0100
,
1000
0000
0001
0000
0010
0000
0001
0010
0001
0010
0100
0000
1000
0010
1000
0010
,
0100
0000
0001
0000
0001
0000
0100
0001
1000
0001
0100
0000
0010
1000
0001
1000
,
0100
0000
1000
0000
0010
0000
1000
0100
1000
0100
0010
0000
0001
1000
0001
1000
,
0100
0000
0010
0000
0010
0000
0001
0010
0001
0010
0100
0000
0010
0001
0010
0001
,
1000
0000
0001
0000
0010
0000
0001
0100
0001
0100
0010
0000
0100
0001
0100
0001
,
1000
0000
0100
0000
0100
0000
0010
0001
0010
0001
0100
0000
0010
1000
0010
1000
,
0100
0000
0010
0000
0010
0000
0001
0010
0001
0010
0100
0000
0010
0001
0010
0001
,
1000
0000
0001
0000
0001
0000
0100
0010
0100
0010
1000
0000
0010
0100
0010
0100
,
0001
0000
1000
0000
0010
0000
1000
0010
1000
0010
0100
0000
0001
0010
0001
0010
,
0100
0000
1000
0000
0011
0000
0100
1000
0001
0100
0010
0000
0100
0001
1000
0001
,
0010
0100
0100
1000
0100
0100
0010
0100
,
0100
1000
0001
0001
0010
0100
0100
0010
,
0001
0001
0100
0010
0010
0100
0001
0001
,
1000
0000
0010
0000
0010
0000
1000
0000
0001
0000
0001
0000
0010
0000
0100
1000
,
0010
0100
0100
0001
0100
0100
0010
0100
,
0100
0001
1000
1000
0010
0100
0100
0010
,
1000
1000
0100
0010
0010
0100
1000
1000
,
0001
0000
0010
0000
0010
0000
0001
0000
1000
0000
1000
0000
0100
0000
0010
0001
,
0100
0010
0010
1000
0010
0010
0100
0010
,
0010
1000
0001
0001
0100
0010
0010
0100
,
0001
0001
0010
0100
0100
0010
0001
0001
,
1000
0000
0100
0000
0100
0000
1000
0000
0001
0000
0001
0000
0100
0000
0010
1000
,
0100
0010
0010
0001
0010
0010
0100
0010
,
0010
0001
1000
1000
0100
0010
0010
0100
,
1000
1000
0010
0100
0100
0010
1000
1000
,
0100
0000
0000
0000
0000
0000
0010
0000
0000
0000
0000
0000
1001
0000
0000
0000
0000
0000
1000
0000
0000
0010
0000
0000
4000
0000
0004
0000
0000
0000
0000
0000
0000
0000
0000
0000
0000
0000
0000
0000
0000
0000
3000
0000
0003
0000
0000
0000
,
1000
0100
0010
0001
0010
0001
1000
0100
0010
0001
0010
0001
1000
0100
0010
0001
,
0010
0001
1000
0010
0100
0001
0100
0001
1000
0010
0100
0001
0100
0001
1000
0010
,
0100
0001
0100
0001
1000
0100
0010
0001
0010
0001
1000
0100
0010
0001
0010
0001
,
1000
0100
0010
0001
0010
0001
1000
0010
0100
0001
0100
0001
1000
0010
0100
0001
,
0100
0001
1000
0010
0100
0001
0100
0001
1000
0100
0010
0001
0010
0001
1000
0100
,
0010
0001
0010
0001
1000
0100
0010
0001
0010
0001
1000
0010
0100
0001
0100
0001
,
1000
0010
0100
0001
0100
0001
1000
0010
0100
0001
0100
0001
1000
0100
0010
0001
,
0010
0001
1000
0100
0010
0001
0010
0001
1000
0100
0010
0001
0010
0001
1000
0100
,
1000
0010
0100
0001
0010
0100
1000
0010
,
0100
0001
0010
0100
1000
0010
0100
0001
,
0010
0100
1000
0010
0100
0001
0010
0100
,
1000
0010
0100
0001
0010
0100
1000
0010
,
0100
0001
0010
0100
1000
0010
0100
0001
,
0010
0100
1000
0010
0100
0001
0010
0100
,
1000
0010
0100
0001
0010
0100
1000
0010
,
0100
0000
0001
0000
0010
0000
0100
0000
1000
0000
0010
0000
0100
0000
0001
1000
,
0001
0100
0010
1000
0100
0010
0001
0100
,
0010
1000
0100
0010
0001
0100
0010
1000
,
0100
0010
0001
0100
0010
1000
0100
0010
,
0001
0100
0010
1000
0100
0010
0001
0100
,
0010
1000
0100
0010
0001
0100
0010
1000
,
0100
0010
0001
0100
0010
1000
0100
0010
,
0001
0100
0010
1000
0100
0010
0001
0100
,
0010
1000
0100
0010
0001
0100
0010
1000
,
2002
0000
0000
0000
,
0000
0000
0000
0000
,
0000
0000
0000
0000
0000
0000
0000
3003
;

//---------------dance-single - I. Pyles----------------
#NOTES:
     dance-single:
     I. Pyles:
     Hard:
     14:
     1.000,1.000,0.083,0.048,1.000,3092.000,31.000,18.000,154.000,0.000:







00M0
0000
00M0
0000
,
00M0
0000
00M0
0000
,
00M0
0000
00M0
0000
,
00M0
0000
00M0
0000
,
M001
0000
0100
0000
0010
0000
0100
0001
M000
0010
0000
0100
0000
0000
0000
0010
,
M001
0000
0100
0000
0010
0000
0100
0001
M000
0010
0000
0100
0000
0000
0100
0000
,
M010
0000
0001
0000
0100
0000
0010
0100
M000
0001
0000
0010
0000
0000
0000
0100
,
M010
0000
0001
0000
0100
0000
0010
0100
M000
0001
0000
0010
0000
0000
0010
0000
,
010M
0000
1000
0000
0010
0000
0100
0010
000M
1000
0000
0100
0000
0000
0000
0010
,
010M
0000
1000
0000
0010
0000
0100
0010
000M
1000
0000
0100
0000
0000
0100
0000
,
001M
0000
0100
0000
1000
0000
0010
0100
000M
0010
0000
1000
0000
0000
0000
0100
,
001M
0000
0100
0000
1000
0000
0010
0100
000M
0010
0000
1000
0000
0000
1000
0000
,
00M1
0000
1000
0000
0100
0000
1000
0001
00M0
0100
0000
0001
0000
0000
0000
0100
,
00M1
0000
1000
0000
0100
0000
1000
0001
00M0
0100
0000
0001
0000
0000
0001
0000
,
10M0
0000
0100
0000
1000
0000
0001
0100
00M0
0001
0000
1000
0000
0000
0000
0001
,
0M10
0000
0001
0000
1000
0000
0010
1000
0M00
0001
0000
1000
0000
0000
1000
0000
,
0200
0000
1000
0000
,
1000
0000
0000
0000
1000
0000
0020
0300
,
0032
0000
1000
0000
,
0200
0003
0000
0000
0001
0000
0000
0000
,
0020
0300
0000
0000
1000
0000
0000
0000
,
1000
0000
0000
0000
1000
0000
0200
0030
,
0302
0000
0010
0000
,
2000
0003
0000
0000
0010
0000
0000
0000
,
0200
3000
0000
0000
0010
0000
0000
0000
,
0010
0000
0000
0000
0010
0000
2000
0300
,
3002
0000
0010
0000
,
0200
0003
0000
0000
0001
0000
0000
0000
,
0020
0300
0000
0000
1000
0000
0000
0000
,
1000
0000
0000
0000
1000
0000
0200
0030
,
0302
0000
0010
0000
,
2000
0003
0000
0000
0100
0000
0000
3000
,
1000
0000
0001
0000
0011
0000
0010
0100
0010
0001
1000
0000
1001
0000
0000
1000
,
0010
0000
0100
0000
1010
0000
0010
1000
0000
0001
0100
0010
0000
0010
1000
0001
,
0100
0000
0010
0000
0101
0000
0100
0010
0100
0001
1000
0100
0000
0100
0010
0001
,
1000
0000
0001
0000
0011
0000
0010
0001
0000
1000
0100
0010
0000
0010
0100
0010
,
0001
0000
1000
0000
1100
0000
0100
0010
0100
1000
0001
0000
1001
0000
0000
0001
,
0100
0000
0010
0000
0101
0000
0100
0001
0000
1000
0010
0100
0000
0100
0001
1000
,
0010
0000
0100
0000
1010
0000
0010
0100
0010
1000
0001
0010
0000
0010
0100
1000
,
0001
0000
1000
0000
1100
0000
0100
1000
0000
0001
0010
0100
0000
0100
0010
0100
,
1000
0000
0001
0000
0101
0000
0100
0010
0100
0001
1000
0000
1001
0000
0000
1000
,
0100
0000
0010
0000
1100
0000
0100
1000
0000
0001
0010
0100
0000
0100
1000
0001
,
0010
0000
0100
0000
0011
0000
0010
0100
0010
0001
1000
0010
0000
0010
0100
0001
,
1000
0000
0001
0000
0101
0000
0100
0001
0000
1000
0010
0100
0000
0100
0010
0100
,
0001
0000
1000
0000
1010
0000
0010
0100
0010
1000
0001
0000
1001
0000
0000
0001
,
0010
0000
0100
0000
0011
0000
0010
0001
0000
1000
0100
0010
0000
0010
0001
1000
,
0100
0000
0010
0000
1100
0000
0100
0010
0100
1000
0001
0100
0000
0100
0010
1000
,
0001
0000
1000
0000
1010
0000
0010
1000
0000
0001
0100
0010
0000
0010
0100
0010
,
1000
0100
0010
0001
0100
0010
1000
0001
1000
0100
0010
0001
0100
0010
1000
0001
,
1000
0100
0010
0001
0100
0001
1000
0100
0010
0001
0100
0010
1000
0010
1000
0001
,
1000
0100
0010
0001
0100
0001
1000
0100
0010
0001
0100
0010
1000
0010
1000
0001
,
1000
0100
0010
0001
0100
0001
1000
0100
0010
0001
0100
0010
1000
0010
1000
0001
,
1000
0010
0100
0001
0010
0100
1000
0001
1000
0010
0100
0001
0010
0100
1000
0001
,
1000
0010
0100
0001
0010
0001
1000
0010
0100
0001
0010
0100
1000
0100
1000
0001
,
1000
0010
0100
0001
0010
0001
1000
0010
0100
0001
0010
0100
1000
0100
1000
0001
,
1000
0010
0100
0001
0010
0001
1000
0010
0100
0001
0010
0100
1000
0100
1000
0001
,
1000
0100
0010
0001
0100
0010
0100
0001
1000
0100
0010
0001
0100
0010
0100
0001
,
1000
0100
0010
0001
0100
0001
1000
0100
0010
0001
0100
0010
0100
0010
0100
0001
,
1000
0100
0010
0001
0100
0001
1000
0100
0010
0001
0100
0010
0100
0010
0100
0001
,
1000
0100
0010
0001
0100
0001
1000
0100
0010
0001
0100
0010
0100
0010
0100
0001
,
1000
0010
0100
0001
0010
0100
0010
0001
1000
0010
0100
0001
0010
0100
0010
0001
,
1000
0010
0100
0001
0010
0001
1000
0010
0100
0001
0010
0100
0010
0100
0010
0001
,
1000
0010
0100
0001
0010
0001
1000
0010
0100
0001
0010
0100
0010
0100
0010
0001
,
1000
0010
0100
0001
0010
0001
1000
0010
0100
0001
0010
0100
0010
0100
0010
0001
,
0100
0000
0001
0000
1000
0000
0100
1000
0000
0001
0000
0100
0000
0000
0000
0001
,
1000
0000
0100
0000
1000
0000
0001
0100
0000
0001
0000
1000
0000
0000
1000
0000
,
0010
0000
1000
0000
0001
0000
0010
0001
0000
1000
0000
0010
0000
0000
0000
1000
,
0001
0000
0010
0000
0001
0000
1000
0010
0000
1000
0000
0001
0000
0000
0001
0000
,
M100
0000
0001
0000
0010
0000
0100
0010
M000
0001
0000
0100
M000
0000
0000
0010
,
1000
0000
0001
0000
0M10
0000
0001
1000
0M00
0010
0000
1000
0M00
0000
1000
0000
,
M001
0000
M010
0000
M100
0000
M010
0001
M000
0100
M000
0010
M000
0000
M000
0100
,
0001
0M00
1000
0M00
0010
0M00
1000
0M01
0000
0M10
0000
0M01
0000
0M00
0001
0000
,
10M0
00M1
10M0
00M1
10M0
00M1
10M0
00M1
,
10M0
00M1
1M00
0M01
1M00
00M1
10M0
00M1
,
1M00
0M01
1M00
0M01
1M00
0M01
1M00
0M01
,
10M0
00M1
10M0
0M01
1M00
0M01
1M00
0M01
,
010M
001M
010M
001M
010M
001M
010M
001M
,
010M
001M
M100
M010
M100
001M
010M
001M
,
M100
M010
M100
M010
M100
M010
M100
M010
,
000M
M000
00M0
0M00
00M0
0M00
000M
M000
0M00
00M0
000M
0000
,
1001
0000
0001
0000
0010
0000
0001
0100
0001
0100
0010
0000
1000
0001
1000
0001
,
0100
0000
0010
0000
0010
0000
1000
0010
1000
0010
0100
0000
0010
1000
0010
1000
,
0001
0000
1000
0000
0010
0000
1000
0100
1000
0100
0010
0000
0100
1000
0100
1000
,
0001
0000
0100
0000
0100
0000
0010
1000
0010
1000
0100
0000
0010
0001
0010
0001
,
0100
0000
0010
0000
0010
0000
1000
0010
1000
0010
0100
0000
0010
1000
0010
1000
,
0001
0000
1000
0000
1000
0000
0100
0010
0100
0010
0001
0000
0010
0100
0010
0100
,
1000
0000
0001
0000
0010
0000
0001
0010
0001
0010
0100
0000
1000
0010
1000
0010
,
0100
0000
0001
0000
0001
0000
0100
0001
1000
0001
0100
0000
0010
1000
0001
1000
,
0100
0000
1000
0000
0010
0000
1000
0100
1000
0100
0010
0000
0001
1000
0001
1000
,
0100
0000
0010
0000
0010
0000
0001
0010
0001
0010
0100
0000
0010
0001
0010
0001
,
1000
0000
0001
0000
0010
0000
0001
0100
0001
0100
0010
0000
0100
0001
0100
0001
,
1000
0000
0100
0000
0100
0000
0010
0001
0010
0001
0100
0000
0010
1000
0010
1000
,
0100
0000
0010
0000
0010
0000
0001
0010
0001
0010
0100
0000
0010
0001
0010
0001
,
1000
0000
0001
0000
0001
0000
0100
0010
0100
0010
1000
0000
0010
0100
0010
0100
,
0001
0000
1000
0000
0010
0000
1000
0010
1000
0010
0100
0000
0001
0010
0001
0010
,
0100
0000
1000
0000
0011
0000
0100
1000
0001
0100
0010
0000
0100
0001
1000
0001
,
0010
0100
1000
0001
1000
0001
0010
0100
1000
0001
1000
0001
0010
0100
1000
0001
,
1000
0001
0100
0010
1000
0001
1000
0001
0100
0010
1000
0001
1000
0001
0100
0010
,
1000
0001
1000
0001
0100
0010
1000
0010
1000
0001
0100
0010
1000
0010
1000
0001
,
0010
0100
1000
0100
1000
0001
0010
0100
1000
0100
1000
0001
0010
0100
0010
0001
,
0100
0010
1000
0001
1000
0001
0100
0010
1000
0001
1000
0001
0100
0010
1000
0001
,
1000
0001
0010
0100
1000
0001
1000
0001
0010
0100
1000
0001
1000
0001
0010
0100
,
1000
0001
1000
0001
0010
0100
1000
0100
1000
0001
0010
0100
1000
0100
1000
0001
,
0100
0010
1000
0010
1000
0001
0100
0010
1000
0010
1000
0001
0100
0010
0100
0001
,
0010
0100
1000
0001
1000
0001
0010
0100
1000
0001
1000
0001
0010
0100
1000
0001
,
1000
0001
0100
0010
1000
0001
1000
0001
0100
0010
1000
0001
1000
0001
0100
0010
,
1000
0001
1000
0001
0100
0010
1000
0010
1000
0001
0100
0010
1000
0010
1000
0001
,
0010
0100
1000
0100
1000
0001
0010
0100
1000
0100
1000
0001
0010
0100
0010
0001
,
0100
0010
1000
0001
1000
0001
0100
0010
1000
0001
1000
0001
0100
0010
1000
0001
,
1000
0001
0010
0100
1000
0001
1000
0001
0010
0100
1000
0001
1000
0001
0010
0100
,
1000
0001
1000
0001
0010
0100
1000
0100
1000
0001
0010
0100
1000
0100
1000
0001
,
0100
0000
0010
0000
1001
0000
1000
0100
0010
0001
1000
0010
0100
0001
1000
0001
,
0100
0000
0010
0000
0010
0000
1000
0010
1000
0010
0100
0000
0001
1000
0001
1000
,
0010
0000
0100
0000
0100
0000
0001
0100
0001
0100
0010
0000
0100
0001
0100
0001
,
1000
0000
0001
0000
0010
0000
0001
0010
0001
0010
0100
0000
0010
0001
0010
0001
,
1000
0000
0010
0000
0010
0000
0100
0001
0100
0001
0010
0000
0100
1000
0100
1000
,
0010
0000
0100
0000
0100
0000
0001
0100
0001
0100
0010
0000
0100
0001
0100
0001
,
1000
0000
0001
0000
0001
0000
0010
0100
0010
0100
1000
0000
0100
0010
0100
0010
,
0001
0000
1000
0000
0010
0000
1000
0100
1000
0100
0010
0000
0001
0100
0001
0100
,
0010
0000
1000
0000
1000
0000
0010
1000
0001
1000
0010
0000
0100
0001
1000
0001
,
0010
0000
0001
0000
0100
0000
0001
0010
0001
0010
0100
0000
1000
0001
1000
0001
,
0010
0000
0100
0000
0100
0000
1000
0100
1000
0100
0010
0000
0100
1000
0100
1000
,
0001
0000
1000
0000
0010
0000
1000
0010
1000
0010
0100
0000
0010
1000
0010
1000
,
0001
0000
0010
0000
0010
0000
0100
1000
0100
1000
0010
0000
0100
0001
0100
0001
,
0010
0000
0100
0000
0100
0000
1000
0100
1000
0100
0010
0000
0100
1000
0100
1000
,
0001
0000
1000
0000
1000
0000
0010
0100
0010
0100
0001
0000
0100
0010
0100
0010
,
1000
0000
0001
0000
0010
0000
0001
0100
0001
0100
0010
0000
1000
0100
1000
0100
,
0010
0000
0001
0000
1100
0000
0010
0001
1000
0010
0100
0000
0010
1000
0001
1000
,
0100
0010
0001
1000
0001
1000
0100
0010
0001
1000
0001
1000
0100
0010
0001
1000
,
0001
1000
0010
0100
0001
1000
0001
1000
0010
0100
0001
1000
0001
1000
0010
0100
,
0001
1000
0001
1000
0010
0100
0001
0100
0001
1000
0010
0100
0001
0100
0001
1000
,
0100
0010
0001
0010
0001
1000
0100
0010
0001
0010
0001
1000
0100
0010
0100
1000
,
0010
0100
0001
1000
0001
1000
0010
0100
0001
1000
0001
1000
0010
0100
0001
1000
,
0001
1000
0100
0010
0001
1000
0001
1000
0100
0010
0001
1000
0001
1000
0100
0010
,
0001
1000
0001
1000
0100
0010
0001
0010
0001
1000
0100
0010
0001
0010
0001
1000
,
0010
0100
0001
0100
0001
1000
0010
0100
0001
0100
0001
1000
0010
0100
0010
1000
,
0100
0010
0001
1000
0001
1000
0100
0010
0001
1000
0001
1000
0100
0010
0001
1000
,
0001
1000
0010
0100
0001
1000
0001
1000
0010
0100
0001
1000
0001
1000
0010
0100
,
0001
1000
0001
1000
0010
0100
0001
0100
0001
1000
0010
0100
0001
0100
0001
1000
,
0100
0010
0001
0010
0001
1000
0100
0010
0001
0010
0001
1000
0100
0010
0100
1000
,
0010
0100
0001
1000
0001
1000
0010
0100
0001
1000
0001
1000
0010
0100
0001
1000
,
0001
1000
0100
0010
0001
1000
0001
1000
0100
0010
0001
1000
0001
1000
0100
0010
,
0001
1000
0001
1000
0100
0010
0001
0010
0001
1000
0100
0010
0001
0010
0001
1000
,
0010
0000
0000
0000
0000
0000
0100
0000
0000
0000
0000
0000
1001
0000
0000
0000
0000
0000
1000
0000
0000
0100
0000
0000
4000
0000
0004
0000
0000
0000
0000
0000
0000
0000
0000
0000
0000
0000
0000
0000
0000
0000
3000
0000
0003
0000
0000
0000
,
1000
0010
0100
0001
0010
0100
1000
0010
,
0100
0001
0010
0100
1000
0010
0100
0001
,
0010
0100
1000
0010
0100
0001
0010
0100
,
1000
0010
0100
0001
0010
0100
1000
0010
,
0100
0001
0010
0100
1000
0010
0100
0001
,
0010
0100
1000
0010
0100
0001
0010
0100
,
1000
0010
0100
0001
0010
0100
1000
0010
,
0100
0000
0001
0000
0010
0000
0100
0000
1000
0000
0010
0000
0100
0000
0001
1000
,
0001
0010
0100
1000
0100
1000
0001
0010
0100
1000
0100
1000
0001
0010
0100
1000
,
0100
1000
0001
0100
0010
1000
0010
1000
0001
0100
0010
1000
0010
1000
0001
0100
,
0010
1000
0010
1000
0001
0010
0100
1000
0100
1000
0001
0010
0100
1000
0100
1000
,
0001
0010
0100
1000
0100
1000
0001
0100
0010
1000
0010
1000
0001
0100
0010
1000
,
0010
1000
0001
0100
0010
1000
0010
1000
0001
0010
0100
1000
0100
1000
0001
0010
,
0100
1000
0100
1000
0001
0010
0100
1000
0100
1000
0001
0100
0010
1000
0010
1000
,
0001
0100
0010
1000
0010
1000
0001
0100
0010
1000
0010
1000
0001
0010
0100
1000
,
0100
1000
0001
0010
0100
1000
0100
1000
0001
0010
0100
1000
0100
1000
0001
0010
,
0001
1000
0010
1000
0010
0100
0001
1000
0010
1000
0010
0100
0001
1000
0010
1000
,
0010
0100
0001
1000
0100
1000
0100
0010
0001
1000
0100
1000
0100
0010
0001
1000
,
0100
1000
0100
0010
0001
1000
0010
1000
0010
0100
0001
1000
0010
1000
0010
0100
,
0001
1000
0010
1000
0010
0100
0001
1000
0100
1000
0100
0010
0001
1000
0100
1000
,
0100
0010
0001
1000
0100
1000
0100
0010
0001
1000
0010
1000
0010
0100
0001
1000
,
0010
1000
0010
0100
0001
1000
0010
1000
0010
0100
0001
1000
0100
1000
0100
0010
,
0001
1000
0100
1000
0100
0010
0001
1000
0100
1000
0100
0010
0001
1000
0010
1000
,
0010
0100
0001
1000
0010
1000
0010
0100
0001
1000
0010
1000
0010
0100
0001
1000
,
0001
0010
0100
0010
0100
1000
0001
0010
0100
0010
0100
1000
0001
0010
0100
0010
,
0100
1000
0001
0100
0010
0100
0010
1000
0001
0100
0010
0100
0010
1000
0001
0100
,
0010
0100
0010
1000
0001
0010
0100
0010
0100
1000
0001
0010
0100
0010
0100
1000
,
0001
0010
0100
0010
0100
1000
0001
0100
0010
0100
0010
1000
0001
0010
0100
1000
,
0010
000M
000M
000M
000M
000M
000M
000M
,
000M
000M
0M00
0M00
0M00
00M0
00M0
00M0
,
M000
M000
M000
M000
M000
M000
M000
M000
,
000M
M000
00M0
0M00
00M0
0M00
000M
M000
0M00
00M0
000M
0000
,
1001
0000
1000
0000
0010
0000
1000
0010
1000
0010
0100
0000
0001
1000
0001
1000
,
0010
0000
0100
0000
0100
0000
0001
0100
0001
0100
0010
0000
0100
0001
0100
0001
,
1000
0000
0001
0000
0010
0000
0001
0010
0001
0010
0100
0000
0010
0001
0010
0001
,
1000
0000
0010
0000
0010
0000
0100
0001
0100
0001
0010
0000
0100
1000
0100
1000
,
0010
0000
0100
0000
0100
0000
0001
0100
0001
0100
0010
0000
0100
0001
0100
0001
,
1000
0000
0001
0000
0001
0000
0010
0100
0010
0100
1000
0000
0100
0010
0100
0010
,
0001
0000
1000
0000
0010
0000
1000
0100
1000
0100
0010
0000
0001
0100
0001
0100
,
0010
0000
1000
0000
1000
0000
0010
1000
0001
1000
0010
0000
0100
0001
1000
0001
,
0010
0000
0001
0000
0100
0000
0001
0010
0001
0010
0100
0000
1000
0001
1000
0001
,
0010
0000
0100
0000
0100
0000
1000
0100
1000
0100
0010
0000
0100
1000
0100
1000
,
0001
0000
1000
0000
0010
0000
1000
0010
1000
0010
0100
0000
0010
1000
0010
1000
,
0001
0000
0010
0000
0010
0000
0100
1000
0100
1000
0010
0000
0100
0001
0100
0001
,
0010
0000
0100
0000
0100
0000
1000
0100
1000
0100
0010
0000
0100
1000
0100
1000
,
0001
0000
1000
0000
1000
0000
0010
0100
0010
0100
0001
0000
0100
0010
0100
0010
,
1000
0000
0001
0000
0010
0000
0001
0100
0001
0100
0010
0000
1000
0100
1000
0100
,
0010
0000
0001
0000
1100
0000
0010
0001
1000
0010
0100
0000
0010
1000
0001
1000
,
0100
0010
0001
1000
0001
1000
0100
0010
0001
1000
0001
1000
0100
0010
0001
1000
,
0001
1000
0010
0100
0001
1000
0001
1000
0010
0100
0001
1000
0001
1000
0010
0100
,
0001
1000
0001
1000
0010
0100
0001
0100
0001
1000
0010
0100
0001
0100
0001
1000
,
0100
0010
0001
0010
0001
1000
0100
0010
0001
0010
0001
1000
0100
0010
0100
1000
,
0010
0100
0001
1000
0001
1000
0010
0100
0001
1000
0001
1000
0010
0100
0001
1000
,
0001
1000
0100
0010
0001
1000
0001
1000
0100
0010
0001
1000
0001
1000
0100
0010
,
0001
1000
0001
1000
0100
0010
0001
0010
0001
1000
0100
0010
0001
0010
0001
1000
,
0010
0100
0001
0100
0001
1000
0010
0100
0001
0100
0001
1000
0010
0100
0010
1000
,
0100
0010
0001
1000
0001
1000
0100
0010
0001
1000
0001
1000
0100
0010
0001
1000
,
0001
1000
0010
0100
0001
1000
0001
1000
0010
0100
0001
1000
0001
1000
0010
0100
,
0001
1000
0001
1000
0010
0100
0001
0100
0001
1000
0010
0100
0001
0100
0001
1000
,
0100
0010
0001
0010
0001
1000
0100
0010
0001
0010
0001
1000
0100
0010
0100
1000
,
0010
0100
0001
1000
0001
1000
0010
0100
0001
1000
0001
1000
0010
0100
0001
1000
,
0001
1000
0100
0010
0001
1000
0001
1000
0100
0010
0001
1000
0001
1000
0100
0010
,
0001
1000
0001
1000
0100
0010
0001
0010
0001
1000
0100
0010
0001
0010
0001
1000
,
0010
0000
0100
0000
1001
0000
0001
0010
0100
1000
0001
0100
0010
1000
0001
1000
,
0010
0000
0100
0000
0100
0000
0001
0100
0001
0100
0010
0000
1000
0001
1000
0001
,
0100
0000
0010
0000
0010
0000
1000
0010
1000
0010
0100
0000
0010
1000
0010
1000
,
0001
0000
1000
0000
0010
0000
1000
0100
1000
0100
0010
0000
0100
1000
0100
1000
,
0001
0000
0100
0000
0100
0000
0010
1000
0010
1000
0100
0000
0010
0001
0010
0001
,
0100
0000
0010
0000
0010
0000
1000
0010
1000
0010
0100
0000
0010
1000
0010
1000
,
0001
0000
1000
0000
1000
0000
0100
0010
0100
0010
0001
0000
0010
0100
0010
0100
,
1000
0000
0001
0000
0010
0000
0001
0010
0001
0010
0100
0000
1000
0010
1000
0010
,
0100
0000
0001
0000
0001
0000
0100
0001
1000
0001
0100
0000
0010
1000
0001
1000
,
0100
0000
1000
0000
0010
0000
1000
0100
1000
0100
0010
0000
0001
1000
0001
1000
,
0100
0000
0010
0000
0010
0000
0001
0010
0001
0010
0100
0000
0010
0001
0010
0001
,
1000
0000
0001
0000
0010
0000
0001
0100
0001
0100
0010
0000
0100
0001
0100
0001
,
1000
0000
0100
0000
0100
0000
0010
0001
0010
0001
0100
0000
0010
1000
0010
1000
,
0100
0000
0010
0000
0010
0000
0001
0010
0001
0010
0100
0000
0010
0001
0010
0001
,
1000
0000
0001
0000
0001
0000
0100
0010
0100
0010
1000
0000
0010
0100
0010
0100
,
0001
0000
1000
0000
0010
0000
1000
0010
1000
0010
0100
0000
0001
0010
0001
0010
,
0100
0000
1000
0000
0011
0000
0100
1000
0001
0100
0010
0000
0100
0001
1000
0001
,
0010
0100
1000
0001
1000
0001
0010
0100
1000
0001
1000
0001
0010
0100
1000
0001
,
1000
0001
0100
0010
1000
0001
1000
0001
0100
0010
1000
0001
1000
0001
0100
0010
,
1000
0001
1000
0001
0100
0010
1000
0010
1000
0001
0100
0010
1000
0010
1000
0001
,
0010
0100
1000
0100
1000
0001
0010
0100
1000
0100
1000
0001
0010
0100
0010
0001
,
0100
0010
1000
0001
1000
0001
0100
0010
1000
0001
1000
0001
0100
0010
1000
0001
,
1000
0001
0010
0100
1000
0001
1000
0001
0010
0100
1000
0001
1000
0001
0010
0100
,
1000
0001
1000
0001
0010
0100
1000
0100
1000
0001
0010
0100
1000
0100
1000
0001
,
0100
0010
1000
0010
1000
0001
0100
0010
1000
0010
1000
0001
0100
0010
0100
0001
,
0010
0100
1000
0001
1000
0001
0010
0100
1000
0001
1000
0001
0010
0100
1000
0001
,
1000
0001
0100
0010
1000
0001
1000
0001
0100
0010
1000
0001
1000
0001
0100
0010
,
1000
0001
1000
0001
0100
0010
1000
0010
1000
0001
0100
0010
1000
0010
1000
0001
,
0010
0100
1000
0100
1000
0001
0010
0100
1000
0100
1000
0001
0010
0100
0010
0001
,
0100
0010
1000
0001
1000
0001
0100
0010
1000
0001
1000
0001
0100
0010
1000
0001
,
1000
0001
0010
0100
1000
0001
1000
0001
0010
0100
1000
0001
1000
0001
0010
0100
,
1000
0001
1000
0001
0010
0100
1000
0100
1000
0001
0010
0100
1000
0100
1000
0001
,
0100
0000
0000
0000
0000
0000
0010
0000
0000
0000
0000
0000
1001
0000
0000
0000
0000
0000
1000
0000
0000
0010
0000
0000
4000
0000
0004
0000
0000
0000
0000
0000
0000
0000
0000
0000
0000
0000
0000
0000
0000
0000
3000
0000
0003
0000
0000
0000
,
1000
0100
0010
0001
0010
0001
1000
0100
0010
0001
0010
0001
1000
0100
0010
0001
,
0010
0001
1000
0010
0100
0001
0100
0001
1000
0010
0100
0001
0100
0001
1000
0010
,
0100
0001
0100
0001
1000
0100
0010
0001
0010
0001
1000
0100
0010
0001
0010
0001
,
1000
0100
0010
0001
0010
0001
1000
0010
0100
0001
0100
0001
1000
0010
0100
0001
,
0100
0001
1000
0010
0100
0001
0100
0001
1000
0100
0010
0001
0010
0001
1000
0100
,
0010
0001
0010
0001
1000
0100
0010
0001
0010
0001
1000
0010
0100
0001
0100
0001
,
1000
0010
0100
0001
0100
0001
1000
0010
0100
0001
0100
0001
1000
0100
0010
0001
,
0010
0001
1000
0100
0010
0001
0010
0001
1000
0100
0010
0001
0010
0001
1000
0100
,
1000
0010
0100
0001
0010
0100
1000
0010
,
0100
0001
0010
0100
1000
0010
0100
0001
,
0010
0100
1000
0010
0100
0001
0010
0100
,
1000
0010
0100
0001
0010
0100
1000
0010
,
0100
0001
0010
0100
1000
0010
0100
0001
,
0010
0100
1000
0010
0100
0001
0010
0100
,
1000
0010
0100
0001
0010
0100
1000
0010
,
0100
0000
0001
0000
0010
0000
0100
0000
1000
0000
0010
0000
0100
0000
0001
1000
,
0001
0100
0010
1000
0100
0010
0001
0100
,
0010
1000
0100
0010
0001
0100
0010
1000
,
0100
0010
0001
0100
0010
1000
0100
0010
,
0001
0100
0010
1000
0100
0010
0001
0100
,
0010
1000
0100
0010
0001
0100
0010
1000
,
0100
0010
0001
0100
0010
1000
0100
0010
,
0001
0100
0010
1000
0100
0010
0001
0100
,
0010
1000
0100
0010
0001
0100
0010
1000
,
2002
0000
0000
0000
,
0000
0000
0000
0000
,
0000
0000
0000
0000
0000
0000
0000
3003
;

//---------------dance-single - I. Pyles----------------
#NOTES:
     dance-single:
     I. Pyles:
     Challenge:
     15:
     1.000,1.000,0.241,0.046,1.000,3306.000,90.000,17.000,155.000,0.000:










00M0
0000
00M0
0000
,
00M0
0000
00M0
0000
,
00M0
0000
00M0
0000
,
00M0
0000
00M0
0000
,
M001
0000
0100
0000
0010
0000
0100
0001
M000
0010
0000
0100
0000
0000
0000
0010
,
M001
0000
0100
0000
0010
0000
0100
0001
M000
0010
0000
0100
0000
0000
0100
0000
,
M010
0000
0001
0000
0100
0000
0010
0100
M000
0001
0000
0010
0000
0000
0000
0100
,
M010
0000
0001
0000
0100
0000
0010
0100
M000
0001
0000
0010
0000
0000
0010
0000
,
010M
0000
1000
0000
0010
0000
0100
0010
000M
1000
0000
0100
0000
0000
0000
0010
,
010M
0000
1000
0000
0010
0000
0100
0010
000M
1000
0000
0100
0000
0000
0100
0000
,
001M
0000
0100
0000
1000
0000
0010
0100
000M
0010
0000
1000
0000
0000
0000
0100
,
001M
0000
0100
0000
1000
0000
0010
0100
000M
0010
0000
1000
0000
0000
1000
0000
,
00M1
0000
1000
0000
0100
0000
1000
0001
00M0
0100
0000
0001
0000
0000
0000
0100
,
00M1
0000
1000
0000
0100
0000
1000
0001
00M0
0100
0000
0001
0000
0000
0001
0000
,
10M0
0000
0100
0000
1000
0000
0001
0100
00M0
0001
0000
1000
0000
0000
0000
0001
,
0M10
0000
0001
0000
1000
0000
0010
1000
0M00
0001
0000
1000
0000
0000
1000
0000
,
0200
0000
1000
0000
,
1000
0000
0000
0000
1000
0000
0020
0300
,
0032
0000
1000
0000
,
0200
0003
0000
0000
0001
0000
0000
0000
,
0020
0300
0000
0000
1000
0000
0000
0000
,
1000
0000
0000
0000
1000
0000
0200
0030
,
0302
0000
0010
0000
,
2000
0003
0000
0000
0010
0000
0000
0000
,
0200
3000
0000
0000
0010
0000
0000
0000
,
0010
0000
0000
0000
0010
0000
2000
0300
,
3002
0000
0010
0000
,
0200
0003
0000
0000
0001
0000
0000
0000
,
0020
0300
0000
0000
1000
0000
0000
0000
,
1000
0000
0000
0000
1000
0000
0200
0030
,
0302
0000
0010
0000
,
2000
0003
0000
0000
0100
0000
0000
3000
,
1000
0000
0001
0000
0011
0000
0010
0100
0010
0001
1000
0000
1001
0000
0000
1000
,
0010
0000
0100
0000
1010
0000
0010
1000
0000
0001
0100
0010
0000
0010
1000
0001
,
0100
0000
0010
0000
0101
0000
0100
0010
0100
0001
1000
0100
0000
0100
0010
0001
,
1000
0000
0001
0000
0011
0000
0010
0001
0000
1000
0100
0010
0000
0010
0100
0010
,
0001
0000
1000
0000
1100
0000
0100
0010
0100
1000
0001
0000
1001
0000
0000
0001
,
0100
0000
0010
0000
0101
0000
0100
0001
0000
1000
0010
0100
0000
0100
0001
1000
,
0010
0000
0100
0000
1010
0000
0010
0100
0010
1000
0001
0010
0000
0010
0100
1000
,
0001
0000
1000
0000
1100
0000
0100
1000
0000
0001
0010
0100
0000
0100
0010
0100
,
1000
0000
0001
0000
0101
0000
0100
0010
0100
0001
1000
0000
1001
0000
0000
1000
,
0100
0000
0010
0000
1100
0000
0100
1000
0000
0001
0010
0100
0000
0100
1000
0001
,
0010
0000
0100
0000
0011
0000
0010
0100
0010
0001
1000
0010
0000
0010
0100
0001
,
1000
0000
0001
0000
0101
0000
0100
0001
0000
1000
0010
0100
0000
0100
0010
0100
,
0001
0000
1000
0000
1010
0000
0010
0100
0010
1000
0001
0000
1001
0000
0000
0001
,
0010
0000
0100
0000
0011
0000
0010
0001
0000
1000
0100
0010
0000
0010
0001
1000
,
0100
0000
0010
0000
1100
0000
0100
0010
0100
1000
0001
0100
0000
0100
0010
1000
,
0001
0000
1000
0000
1010
0000
0010
1000
0000
0001
0100
0010
0000
0010
0100
0010
,
1000
0100
0010
0001
0100
0010
1000
0001
1000
0100
0010
0001
0100
0010
1000
0001
,
1000
0100
0010
0001
0100
0001
1000
0100
0010
0001
0100
0010
1000
0010
1000
0001
,
1000
0100
0010
0001
0100
0001
1000
0100
0010
0001
0100
0010
1000
0010
1000
0001
,
1000
0100
0010
0001
0100
0001
1000
0100
0010
0001
0100
0010
1000
0010
1000
0001
,
1000
0010
0100
0001
0010
0100
1000
0001
1000
0010
0100
0001
0010
0100
1000
0001
,
1000
0010
0100
0001
0010
0001
1000
0010
0100
0001
0010
0100
1000
0100
1000
0001
,
1000
0010
0100
0001
0010
0001
1000
0010
0100
0001
0010
0100
1000
0100
1000
0001
,
1000
0010
0100
0001
0010
0001
1000
0010
0100
0001
0010
0100
1000
0100
1000
0001
,
1000
0100
0010
0001
0100
0010
0100
0001
1000
0100
0010
0001
0100
0010
0100
0001
,
1000
0100
0010
0001
0100
0001
1000
0100
0010
0001
0100
0010
0100
0010
0100
0001
,
1000
0100
0010
0001
0100
0001
1000
0100
0010
0001
0100
0010
0100
0010
0100
0001
,
1000
0100
0010
0001
0100
0001
1000
0100
0010
0001
0100
0010
0100
0010
0100
0001
,
1000
0010
0100
0001
0010
0100
0010
0001
1000
0010
0100
0001
0010
0100
0010
0001
,
1000
0010
0100
0001
0010
0001
1000
0010
0100
0001
0010
0100
0010
0100
0010
0001
,
1000
0010
0100
0001
0010
0001
1000
0010
0100
0001
0010
0100
0010
0100
0010
0001
,
1000
0010
0100
0001
0010
0001
1000
0010
0100
0001
0010
0100
0010
0100
0010
0001
,
0100
0000
0001
0000
1000
0000
0100
1000
0000
0001
0000
0100
0000
0000
0000
0001
,
1000
0000
0100
0000
1000
0000
0001
0100
0000
0001
0000
1000
0000
0000
1000
0000
,
0010
0000
1000
0000
0001
0000
0010
0001
0000
1000
0000
0010
0000
0000
0000
1000
,
0001
0000
0010
0000
0001
0000
1000
0010
0000
1000
0000
0001
0000
0000
0001
0000
,
M100
0000
0001
0000
0010
0000
0100
0010
M000
0001
0000
0100
M000
0000
0000
0010
,
1000
0000
0001
0000
0M10
0000
0001
1000
0M00
0010
0000
1000
0M00
0000
1000
0000
,
M001
0000
M010
0000
M100
0000
M010
0001
M000
0100
M000
0010
M000
0000
M000
0100
,
0001
0M00
1000
0M00
0010
0M00
1000
0M01
0000
0M10
0000
0M01
0000
0M00
0001
0000
,
10M0
00M1
10M0
00M1
10M0
00M1
10M0
00M1
,
10M0
00M1
1M00
0M01
1M00
00M1
10M0
00M1
,
1M00
0M01
1M00
0M01
1M00
0M01
1M00
0M01
,
10M0
00M1
10M0
0M01
1M00
0M01
1M00
0M01
,
010M
001M
010M
001M
010M
001M
010M
001M
,
010M
001M
M100
M010
M100
001M
010M
001M
,
M100
M010
M100
M010
M100
M010
M100
M010
,
000M
M000
00M0
0M00
00M0
0M00
000M
M000
0M00
00M0
000M
0000
,
0101
0000
0001
0000
1001
0000
0001
0100
0001
0100
0010
0000
1000
0001
1000
0001
,
0100
0000
0010
0000
1010
0000
1000
0010
1000
0010
0100
0000
0010
1000
0010
1000
,
0001
0000
1000
0000
1100
0000
1000
0100
1000
0100
0010
0000
0100
1000
0100
1000
,
0001
0000
0100
0000
0110
0000
0010
1000
0010
1000
0100
0000
0010
0001
0010
0001
,
0100
0000
0010
0000
1010
0000
1000
0010
1000
0010
0100
0000
0010
1000
0010
1000
,
0001
0000
1000
0000
1100
0000
0100
0010
0100
0010
0001
0000
0010
0100
0010
0100
,
1000
0000
0001
0000
0011
0000
0001
0010
0001
0010
0100
0000
1000
0010
1000
0010
,
0100
0000
0001
0000
0101
0000
0100
0001
1000
0001
0100
0000
0010
1000
0001
1000
,
0100
0000
1000
0000
1001
0000
1000
0100
1000
0100
0010
0000
0001
1000
0001
1000
,
0100
0000
0010
0000
0011
0000
0001
0010
0001
0010
0100
0000
0010
0001
0010
0001
,
1000
0000
0001
0000
0101
0000
0001
0100
0001
0100
0010
0000
0100
0001
0100
0001
,
1000
0000
0100
0000
0110
0000
0010
0001
0010
0001
0100
0000
0010
1000
0010
1000
,
0100
0000
0010
0000
0011
0000
0001
0010
0001
0010
0100
0000
0010
0001
0010
0001
,
1000
0000
0001
0000
0101
0000
0100
0010
0100
0010
1000
0000
0010
0100
0010
0100
,
0001
0000
1000
0000
1010
0000
1000
0010
1000
0010
0100
0000
0001
0010
0001
0010
,
0100
0000
1000
0000
0011
0000
0100
1000
0001
0100
0010
0000
0100
0001
1000
0001
,
0010
0100
1000
0001
1000
0001
0010
0100
1000
0001
1000
0001
0010
0100
1000
0001
,
1000
0001
0100
0010
1000
0001
1000
0001
0100
0010
1000
0001
1000
0001
0100
0010
,
1000
0001
1000
0001
0100
0010
1000
0010
1000
0001
0100
0010
1000
0010
1000
0001
,
0010
0100
1000
0100
1000
0001
0010
0100
1000
0100
1000
0001
0010
0100
0010
0001
,
0100
0010
1000
0001
1000
0001
0100
0010
1000
0001
1000
0001
0100
0010
1000
0001
,
1000
0001
0010
0100
1000
0001
1000
0001
0010
0100
1000
0001
1000
0001
0010
0100
,
1000
0001
1000
0001
0010
0100
1000
0100
1000
0001
0010
0100
1000
0100
1000
0001
,
0100
0010
1000
0010
1000
0001
0100
0010
1000
0010
1000
0001
0100
0010
0100
0001
,
0010
0100
1000
0001
1000
0001
0010
0100
1000
0001
1000
0001
0010
0100
1000
0001
,
1000
0001
0100
0010
1000
0001
1000
0001
0100
0010
1000
0001
1000
0001
0100
0010
,
1000
0001
1000
0001
0100
0010
1000
0010
1000
0001
0100
0010
1000
0010
1000
0001
,
0010
0100
1000
0100
1000
0001
0010
0100
1000
0100
1000
0001
0010
0100
0010
0001
,
0100
0010
1000
0001
1000
0001
0100
0010
1000
0001
1000
0001
0100
0010
1000
0001
,
1000
0001
0010
0100
1000
0001
1000
0001
0010
0100
1000
0001
1000
0001
0010
0100
,
1000
0001
1000
0001
0010
0100
1000
0100
1000
0001
0010
0100
1000
0100
1000
0001
,
0100
0000
0010
0000
1001
0000
1000
0100
0010
0001
1000
0010
0100
0001
1000
0001
,
0100
0000
0010
0000
1001
0000
1000
0010
1000
0010
0100
0000
0001
1000
0001
1000
,
0010
0000
0100
0000
0101
0000
0001
0100
0001
0100
0010
0000
0100
0001
0100
0001
,
1000
0000
0001
0000
0011
0000
0001
0010
0001
0010
0100
0000
0010
0001
0010
0001
,
1000
0000
0010
0000
0110
0000
0100
0001
0100
0001
0010
0000
0100
1000
0100
1000
,
0010
0000
0100
0000
0101
0000
0001
0100
0001
0100
0010
0000
0100
0001
0100
0001
,
1000
0000
0001
0000
0011
0000
0010
0100
0010
0100
1000
0000
0100
0010
0100
0010
,
0001
0000
1000
0000
1100
0000
1000
0100
1000
0100
0010
0000
0001
0100
0001
0100
,
0010
0000
1000
0000
1010
0000
0010
1000
0001
1000
0010
0000
0100
0001
1000
0001
,
0010
0000
0001
0000
1001
0000
0001
0010
0001
0010
0100
0000
1000
0001
1000
0001
,
0010
0000
0100
0000
1100
0000
1000
0100
1000
0100
0010
0000
0100
1000
0100
1000
,
0001
0000
1000
0000
1010
0000
1000
0010
1000
0010
0100
0000
0010
1000
0010
1000
,
0001
0000
0010
0000
0110
0000
0100
1000
0100
1000
0010
0000
0100
0001
0100
0001
,
0010
0000
0100
0000
1100
0000
1000
0100
1000
0100
0010
0000
0100
1000
0100
1000
,
0001
0000
1000
0000
1010
0000
0010
0100
0010
0100
0001
0000
0100
0010
0100
0010
,
1000
0000
0001
0000
0101
0000
0001
0100
0001
0100
0010
0000
1000
0100
1000
0100
,
0010
0000
0001
0000
1100
0000
0010
0001
1000
0010
0100
0000
0010
1000
0001
1000
,
0100
0010
0001
1000
0001
1000
0100
0010
0001
1000
0001
1000
0100
0010
0001
1000
,
0001
1000
0010
0100
0001
1000
0001
1000
0010
0100
0001
1000
0001
1000
0010
0100
,
0001
1000
0001
1000
0010
0100
0001
0100
0001
1000
0010
0100
0001
0100
0001
1000
,
0100
0010
0001
0010
0001
1000
0100
0010
0001
0010
0001
1000
0100
0010
0100
1000
,
0010
0100
0001
1000
0001
1000
0010
0100
0001
1000
0001
1000
0010
0100
0001
1000
,
0001
1000
0100
0010
0001
1000
0001
1000
0100
0010
0001
1000
0001
1000
0100
0010
,
0001
1000
0001
1000
0100
0010
0001
0010
0001
1000
0100
0010
0001
0010
0001
1000
,
0010
0100
0001
0100
0001
1000
0010
0100
0001
0100
0001
1000
0010
0100
0010
1000
,
0100
0010
0001
1000
0001
1000
0100
0010
0001
1000
0001
1000
0100
0010
0001
1000
,
0001
1000
0010
0100
0001
1000
0001
1000
0010
0100
0001
1000
0001
1000
0010
0100
,
0001
1000
0001
1000
0010
0100
0001
0100
0001
1000
0010
0100
0001
0100
0001
1000
,
0100
0010
0001
0010
0001
1000
0100
0010
0001
0010
0001
1000
0100
0010
0100
1000
,
0010
0100
0001
1000
0001
1000
0010
0100
0001
1000
0001
1000
0010
0100
0001
1000
,
0001
1000
0100
0010
0001
1000
0001
1000
0100
0010
0001
1000
0001
1000
0100
0010
,
0001
1000
0001
1000
0100
0010
0001
0010
0001
1000
0100
0010
0001
0010
0001
1000
,
0010
0000
0000
0000
0000
0000
0100
0000
0000
0000
0000
0000
1001
0000
0000
0000
0000
0000
0001
0000
0000
1000
0000
0000
0001
0000
0010
0000
0100
0000
1000
0000
0001
0000
0010
0000
0100
0000
1000
0000
0001
0000
0010
0000
0100
0000
1000
0000
,
0001
0100
0010
1000
0100
1000
0001
0100
0010
1000
0100
1000
0001
0100
0010
1000
,
0100
1000
0001
0100
0010
1000
0100
1000
0001
0100
0010
1000
0100
1000
0001
0100
,
0010
1000
0100
1000
0001
0100
0010
1000
0100
1000
0001
0100
0010
1000
0100
1000
,
0001
0100
0010
1000
0100
1000
0001
0100
0010
1000
0100
1000
0001
0100
0010
1000
,
0100
1000
0001
0100
0010
1000
0100
1000
0001
0100
0010
1000
0100
1000
0001
0100
,
0010
1000
0100
1000
0001
0100
0010
1000
0100
1000
0001
0100
0010
1000
0100
1000
,
0001
0100
0010
1000
0100
1000
0001
0100
0010
1000
0100
1000
0001
0100
0010
1000
,
0100
1000
0001
0100
0010
1000
0100
1000
0001
0100
0010
1000
0100
1000
0001
0100
,
0001
0010
0100
1000
0010
1000
0001
0010
0100
1000
0010
1000
0001
0010
0100
1000
,
0010
1000
0001
0010
0100
1000
0010
1000
0001
0010
0100
1000
0010
1000
0001
0010
,
0100
1000
0010
1000
0001
0010
0100
1000
0010
1000
0001
0010
0100
1000
0010
1000
,
0001
0010
0100
1000
0010
1000
0001
0010
0100
1000
0010
1000
0001
0010
0100
1000
,
0010
1000
0001
0010
0100
1000
0010
1000
0001
0010
0100
1000
0010
1000
0001
0010
,
0100
1000
0010
1000
0001
0010
0100
1000
0010
1000
0001
0010
0100
1000
0010
1000
,
0001
0010
0100
1000
0010
1000
0001
0010
0100
1000
0010
1000
0001
0010
0100
1000
,
0010
1000
0001
0010
0100
1000
0010
1000
0001
0010
0100
1000
0010
1000
0001
0010
,
0001
1000
0010
1000
0100
0010
0001
1000
0010
1000
0100
0010
0001
1000
0010
1000
,
0100
0010
0001
1000
0010
1000
0100
0010
0001
1000
0010
1000
0100
0010
0001
1000
,
0010
1000
0100
0010
0001
1000
0010
1000
0100
0010
0001
1000
0010
1000
0100
0010
,
0001
1000
0010
1000
0100
0010
0001
1000
0010
1000
0100
0010
0001
1000
0010
1000
,
0100
0010
0001
1000
0010
1000
0100
0010
0001
1000
0010
1000
0100
0010
0001
1000
,
0010
1000
0100
0010
0001
1000
0010
1000
0100
0010
0001
1000
0010
1000
0100
0010
,
0001
1000
0010
1000
0100
0010
0001
1000
0010
1000
0100
0010
0001
1000
0010
1000
,
0100
0010
0001
1000
0010
1000
0100
0010
0001
1000
0010
1000
0100
0010
0001
1000
,
0001
1000
0100
1000
0010
0100
0001
1000
0100
1000
0010
0100
0001
1000
0100
1000
,
0010
0100
0001
1000
0100
1000
0010
0100
0001
1000
0100
1000
0010
0100
0001
1000
,
0100
1000
0010
0100
0001
1000
0100
1000
0010
0100
0001
1000
0100
1000
0010
0100
,
0001
1000
0100
1000
0010
0100
0001
1000
0100
1000
0010
0100
0001
1000
0100
1000
,
001M
000M
000M
000M
000M
000M
000M
000M
,
000M
000M
0M00
0M00
0M00
00M0
00M0
00M0
,
M000
M000
M000
M000
M000
M000
M000
M000
,
000M
M000
00M0
0M00
00M0
0M00
000M
M000
0M00
00M0
000M
0000
,
1010
0000
1000
0000
1001
0000
1000
0010
1000
0010
0100
0000
0001
1000
0001
1000
,
0010
0000
0100
0000
0101
0000
0001
0100
0001
0100
0010
0000
0100
0001
0100
0001
,
1000
0000
0001
0000
0011
0000
0001
0010
0001
0010
0100
0000
0010
0001
0010
0001
,
1000
0000
0010
0000
0110
0000
0100
0001
0100
0001
0010
0000
0100
1000
0100
1000
,
0010
0000
0100
0000
0101
0000
0001
0100
0001
0100
0010
0000
0100
0001
0100
0001
,
1000
0000
0001
0000
0011
0000
0010
0100
0010
0100
1000
0000
0100
0010
0100
0010
,
0001
0000
1000
0000
1100
0000
1000
0100
1000
0100
0010
0000
0001
0100
0001
0100
,
0010
0000
1000
0000
1010
0000
0010
1000
0001
1000
0010
0000
0100
0001
1000
0001
,
0010
0000
0001
0000
1001
0000
0001
0010
0001
0010
0100
0000
1000
0001
1000
0001
,
0010
0000
0100
0000
1100
0000
1000
0100
1000
0100
0010
0000
0100
1000
0100
1000
,
0001
0000
1000
0000
1010
0000
1000
0010
1000
0010
0100
0000
0010
1000
0010
1000
,
0001
0000
0010
0000
0110
0000
0100
1000
0100
1000
0010
0000
0100
0001
0100
0001
,
0010
0000
0100
0000
1100
0000
1000
0100
1000
0100
0010
0000
0100
1000
0100
1000
,
0001
0000
1000
0000
1010
0000
0010
0100
0010
0100
0001
0000
0100
0010
0100
0010
,
1000
0000
0001
0000
0101
0000
0001
0100
0001
0100
0010
0000
1000
0100
1000
0100
,
0010
0000
0001
0000
1100
0000
0010
0001
1000
0010
0100
0000
0010
1000
0001
1000
,
0100
0010
0001
1000
0001
1000
0100
0010
0001
1000
0001
1000
0100
0010
0001
1000
,
0001
1000
0010
0100
0001
1000
0001
1000
0010
0100
0001
1000
0001
1000
0010
0100
,
0001
1000
0001
1000
0010
0100
0001
0100
0001
1000
0010
0100
0001
0100
0001
1000
,
0100
0010
0001
0010
0001
1000
0100
0010
0001
0010
0001
1000
0100
0010
0100
1000
,
0010
0100
0001
1000
0001
1000
0010
0100
0001
1000
0001
1000
0010
0100
0001
1000
,
0001
1000
0100
0010
0001
1000
0001
1000
0100
0010
0001
1000
0001
1000
0100
0010
,
0001
1000
0001
1000
0100
0010
0001
0010
0001
1000
0100
0010
0001
0010
0001
1000
,
0010
0100
0001
0100
0001
1000
0010
0100
0001
0100
0001
1000
0010
0100
0010
1000
,
0100
0010
0001
1000
0001
1000
0100
0010
0001
1000
0001
1000
0100
0010
0001
1000
,
0001
1000
0010
0100
0001
1000
0001
1000
0010
0100
0001
1000
0001
1000
0010
0100
,
0001
1000
0001
1000
0010
0100
0001
0100
0001
1000
0010
0100
0001
0100
0001
1000
,
0100
0010
0001
0010
0001
1000
0100
0010
0001
0010
0001
1000
0100
0010
0100
1000
,
0010
0100
0001
1000
0001
1000
0010
0100
0001
1000
0001
1000
0010
0100
0001
1000
,
0001
1000
0100
0010
0001
1000
0001
1000
0100
0010
0001
1000
0001
1000
0100
0010
,
0001
1000
0001
1000
0100
0010
0001
0010
0001
1000
0100
0010
0001
0010
0001
1000
,
0010
0000
0100
0000
1001
0000
0001
0010
0100
1000
0001
0100
0010
1000
0001
1000
,
0010
0000
0100
0000
1001
0000
0001
0100
0001
0100
0010
0000
1000
0001
1000
0001
,
0100
0000
0010
0000
1010
0000
1000
0010
1000
0010
0100
0000
0010
1000
0010
1000
,
0001
0000
1000
0000
1100
0000
1000
0100
1000
0100
0010
0000
0100
1000
0100
1000
,
0001
0000
0100
0000
0110
0000
0010
1000
0010
1000
0100
0000
0010
0001
0010
0001
,
0100
0000
0010
0000
1010
0000
1000
0010
1000
0010
0100
0000
0010
1000
0010
1000
,
0001
0000
1000
0000
1100
0000
0100
0010
0100
0010
0001
0000
0010
0100
0010
0100
,
1000
0000
0001
0000
0011
0000
0001
0010
0001
0010
0100
0000
1000
0010
1000
0010
,
0100
0000
0001
0000
0101
0000
0100
0001
1000
0001
0100
0000
0010
1000
0001
1000
,
0100
0000
1000
0000
1001
0000
1000
0100
1000
0100
0010
0000
0001
1000
0001
1000
,
0100
0000
0010
0000
0011
0000
0001
0010
0001
0010
0100
0000
0010
0001
0010
0001
,
1000
0000
0001
0000
0101
0000
0001
0100
0001
0100
0010
0000
0100
0001
0100
0001
,
1000
0000
0100
0000
0110
0000
0010
0001
0010
0001
0100
0000
0010
1000
0010
1000
,
0100
0000
0010
0000
0011
0000
0001
0010
0001
0010
0100
0000
0010
0001
0010
0001
,
1000
0000
0001
0000
0101
0000
0100
0010
0100
0010
1000
0000
0010
0100
0010
0100
,
0001
0000
1000
0000
1010
0000
1000
0010
1000
0010
0100
0000
0001
0010
0001
0010
,
0100
0000
1000
0000
0011
0000
0100
1000
0001
0100
0010
0000
0100
0001
1000
0001
,
0010
0100
1000
0001
1000
0001
0010
0100
1000
0001
1000
0001
0010
0100
1000
0001
,
1000
0001
0100
0010
1000
0001
1000
0001
0100
0010
1000
0001
1000
0001
0100
0010
,
1000
0001
1000
0001
0100
0010
1000
0010
1000
0001
0100
0010
1000
0010
1000
0001
,
0010
0100
1000
0100
1000
0001
0010
0100
1000
0100
1000
0001
0010
0100
0010
0001
,
0100
0010
1000
0001
1000
0001
0100
0010
1000
0001
1000
0001
0100
0010
1000
0001
,
1000
0001
0010
0100
1000
0001
1000
0001
0010
0100
1000
0001
1000
0001
0010
0100
,
1000
0001
1000
0001
0010
0100
1000
0100
1000
0001
0010
0100
1000
0100
1000
0001
,
0100
0010
1000
0010
1000
0001
0100
0010
1000
0010
1000
0001
0100
0010
0100
0001
,
0010
0100
1000
0001
1000
0001
0010
0100
1000
0001
1000
0001
0010
0100
1000
0001
,
1000
0001
0100
0010
1000
0001
1000
0001
0100
0010
1000
0001
1000
0001
0100
0010
,
1000
0001
1000
0001
0100
0010
1000
0010
1000
0001
0100
0010
1000
0010
1000
0001
,
0010
0100
1000
0100
1000
0001
0010
0100
1000
0100
1000
0001
0010
0100
0010
0001
,
0100
0010
1000
0001
1000
0001
0100
0010
1000
0001
1000
0001
0100
0010
1000
0001
,
1000
0001
0010
0100
1000
0001
1000
0001
0010
0100
1000
0001
1000
0001
0010
0100
,
1000
0001
1000
0001
0010
0100
1000
0100
1000
0001
0010
0100
1000
0100
1000
0001
,
0100
0000
0000
0000
0000
0000
0010
0000
0000
0000
0000
0000
1001
0000
0000
0000
0000
0000
1000
0000
0000
0001
0000
0000
1000
0000
0010
0000
0100
0000
0001
0000
1000
0000
0010
0000
0100
0000
0001
0000
1000
0000
0010
0000
0100
0000
0001
0000
,
1000
0010
0100
0001
0010
0001
1000
0010
0100
0001
0010
0001
1000
0010
0100
0001
,
0010
0001
1000
0010
0100
0001
0010
0001
1000
0010
0100
0001
0010
0001
1000
0010
,
0100
0001
0010
0001
1000
0010
0100
0001
0010
0001
1000
0010
0100
0001
0010
0001
,
1000
0010
0100
0001
0010
0001
1000
0010
0100
0001
0010
0001
1000
0010
0100
0001
,
0010
0001
1000
0010
0100
0001
0010
0001
1000
0010
0100
0001
0010
0001
1000
0010
,
0100
0001
0010
0001
1000
0010
0100
0001
0010
0001
1000
0010
0100
0001
0010
0001
,
1000
0010
0100
0001
0010
0001
1000
0010
0100
0001
0010
0001
1000
0010
0100
0001
,
0010
0001
1000
0010
0100
0001
0010
0001
1000
0010
0100
0001
0010
0001
1000
0010
,
1000
0100
0010
0001
0100
0001
1000
0100
0010
0001
0100
0001
1000
0100
0010
0001
,
0100
0001
1000
0100
0010
0001
0100
0001
1000
0100
0010
0001
0100
0001
1000
0100
,
0010
0001
0100
0001
1000
0100
0010
0001
0100
0001
1000
0100
0010
0001
0100
0001
,
1000
0100
0010
0001
0100
0001
1000
0100
0010
0001
0100
0001
1000
0100
0010
0001
,
0100
0001
1000
0100
0010
0001
0100
0001
1000
0100
0010
0001
0100
0001
1000
0100
,
0010
0001
0100
0001
1000
0100
0010
0001
0100
0001
1000
0100
0010
0001
0100
0001
,
1000
0100
0010
0001
0100
0001
1000
0100
0010
0001
0100
0001
1000
0100
0010
0001
,
0100
0001
1000
0100
0010
0001
0100
0001
1000
0100
0010
0001
0100
0001
1000
0100
,
1000
0001
0100
0001
0010
0100
1000
0001
0100
0001
0010
0100
1000
0001
0100
0001
,
0010
0100
1000
0001
0100
0001
0010
0100
1000
0001
0100
0001
0010
0100
1000
0001
,
0100
0001
0010
0100
1000
0001
0100
0001
0010
0100
1000
0001
0100
0001
0010
0100
,
1000
0001
0100
0001
0010
0100
1000
0001
0100
0001
0010
0100
1000
0001
0100
0001
,
0010
0100
1000
0001
0100
0001
0010
0100
1000
0001
0100
0001
0010
0100
1000
0001
,
0100
0001
0010
0100
1000
0001
0100
0001
0010
0100
1000
0001
0100
0001
0010
0100
,
1000
0001
0100
0001
0010
0100
1000
0001
0100
0001
0010
0100
1000
0001
0100
0001
,
0010
0100
1000
0001
0100
0001
0010
0100
1000
0001
0100
0001
0010
0100
1000
0001
,
0200
0000
0000
0000
,
0000
0000
0000
0000
,
0000
0000
0000
0000
0000
0000
0000
0300
;
