#TITLE:Boys & Girls;
#SUBTITLE:Oh Henry!;
#ARTIST:LM.C;
#TITLETRANSLIT:;
#SUBTITLETRANSLIT:;
#ARTISTTRANSLIT:;
#CREDIT:;
#BANNER:../Fallback-Ban.png;
#BACKGROUND:../Fallback-BG.png;
#LYRICSPATH:;
#CDTITLE:../~CDTitle-@@.png;
#MUSIC:LMC - Boys & Girls.ogg;
#OFFSET:-2.441;
#SAMPLESTART:62.441;
#SAMPLELENGTH:26.809;
#SELECTABLE:YES;
#BPMS:0.000=188.000;
#STOPS:;
#BGCHANGES:;
// cache tags:
#FIRSTBEAT:0.000;
#LASTBEAT:759.000;
#SONGFILENAME:Songs/Oh Henry! Mad Stamina/Boys & Girls (16-)/Boys & Girls.sm;
#HASMUSIC:1;
#HASBANNER:1;
#MUSICLENGTH:246.000;
// end cache tags

//---------------dance-single - @@----------------
#NOTES:
     dance-single:
     @@:
     Challenge:
     16:
     1.000,1.000,0.171,0.346,1.000,2546.000,42.000,85.000,1.000,0.000:
0001
0010
0001
0100
0001
0000
0010
0100
,
1000
0010
1000
0001
1000
0100
0000
0010
,
0100
1000
0010
1000
0001
0000
0100
0010
,
1000
0001
0010
0010
0001
0001
0100
0100
,
0001
1000
0001
1000
0100
0010
0001
0100
0010
1000
0010
1000
0100
0010
0001
1000
,
0010
0100
0010
0100
0001
0010
0100
1000
0001
0100
0010
1000
0001
0010
0100
1000
,
0001
0010
0001
0010
0001
0100
0010
0100
0001
1000
0001
1000
0010
0100
0001
0010
,
0100
1000
0100
1000
0010
0100
0001
1000
0001
0010
0100
1000
0001
0100
0010
1000
,
0001
0100
0001
0100
0010
1000
0100
0010
0001
1000
0001
1000
0100
0010
0001
0100
,
0010
1000
0010
1000
0100
0010
0001
1000
0010
0100
0001
1000
0100
0010
0001
1000
,
0100
0010
0100
0010
0001
0100
0010
1000
0001
0010
0001
0010
0100
1000
0010
0100
,
0001
1000
0001
1000
0010
0100
0001
1000
0001
0010
0100
1000
0001
1000
0010
0100
,
0001
1000
0001
1000
0001
0010
0100
1000
0010
0100
0010
0100
0001
0010
0100
1000
,
0001
0100
0001
0100
0001
0010
0100
1000
0001
0100
0010
1000
0001
0010
0100
1000
,
0001
0010
0001
0010
0100
1000
0010
0100
0001
1000
0001
1000
0010
0100
0001
0010
,
0100
1000
0100
1000
0010
0100
0001
1000
0100
0010
0001
1000
0010
0100
0001
1000
,
0010
0100
0010
0100
0001
0010
0100
1000
0001
0100
0001
0100
0010
1000
0100
0010
,
0001
1000
0001
1000
0100
0010
0001
1000
0001
0100
0010
1000
0001
1000
0100
0010
,
0100
1000
0100
1000
0010
0100
0001
1000
0100
0010
0100
0010
0001
0100
0010
1000
,
0001
0010
0100
1000
0100
1000
0010
0100
0010
0100
0001
0010
0001
0010
0100
1000
,
0010
0100
0001
0010
0001
0100
0001
1000
0001
0100
0001
0010
0001
0100
0001
1000
,
0001
0100
0001
0010
0001
0100
0001
1000
0010
0100
0001
0010
0001
0100
0010
1000
,
0100
0010
0100
1000
0010
1000
0001
1000
0010
1000
0100
1000
0010
1000
0001
1000
,
0010
1000
0100
1000
0010
1000
0001
1000
0010
0100
0010
0100
0001
1000
0001
1000
,
0002
0000
0003
0000
0001
0000
0001
0000
1000
0000
1000
0000
0100
0000
0010
0001
,
0020
0030
0010
0010
0001
0001
1000
1000
,
0020
0000
0030
0000
0010
0000
0010
0000
1000
0000
1000
0000
0001
0000
1000
0010
,
2000
3000
0001
0001
0010
0010
0001
0001
,
0100
0010
0100
0010
1000
0100
0010
0001
1000
0010
1000
0010
0100
0001
0010
0100
,
1000
0001
1000
0001
0010
0100
1000
0010
0100
0001
0100
0001
0010
0100
1000
0001
,
0100
0010
0100
0010
1000
0100
0010
0100
1000
0001
1000
0001
1000
0100
0010
0001
,
1000
0010
1000
0010
1000
0100
0010
0001
0100
0010
0100
0010
1000
0100
1000
0100
,
0020
0030
0001
0000
0100
0000
0010
0000
1000
0000
0100
0000
1000
0000
0001
1000
,
0002
0003
0100
0000
0010
0000
1000
0000
0010
0000
0100
0000
0001
0000
0010
0000
,
0020
0030
0001
0000
1000
0000
0010
0000
1000
0000
0001
0000
0100
0000
0010
1000
,
0020
0030
0100
0000
0001
0000
0010
0000
0100
0000
0010
0001
0100
0000
0001
0000
,
0010
0100
0010
0100
1000
0010
0100
0001
1000
0100
1000
0100
0010
0001
0100
0010
,
1000
0001
1000
0001
0100
0010
1000
0100
0010
0001
0010
0001
0100
0010
1000
0001
,
0010
0100
0010
0100
1000
0010
0100
0010
1000
0001
1000
0001
1000
0010
0100
0001
,
1000
0100
1000
0100
0010
0001
0010
0001
0100
0010
1000
0010
0100
0001
0010
0100
,
2000
3000
0001
0000
0100
0000
0100
0000
0010
0000
0010
0000
1000
0000
0001
0000
,
2002
3003
1000
0000
0100
0000
0220
0330
0010
0000
0001
0000
2002
3003
1000
0010
,
0200
0300
0001
0000
1000
0000
1000
0000
0010
0000
0010
0000
0100
0000
0100
0000
,
0202
0303
0001
0000
1000
0000
2002
3003
0001
0000
1000
0000
2200
3300
0100
0000
,
2200
3300
1000
0000
0010
0000
0010
0000
0100
0000
0100
0000
0001
0000
1000
0000
,
2002
3003
0001
0000
0010
0000
0220
0330
0100
0000
1000
0000
2002
3003
0001
0100
,
0020
0030
1000
0000
0100
0000
0220
0330
0010
0000
0001
0000
0100
0010
1000
0001
,
2000
0000
0020
3000
0200
0030
0002
0300
,
1003
0100
0010
0100
1000
0100
0010
0100
1000
0100
0010
0100
1000
0010
0100
0001
,
0010
0100
0010
0001
0100
0010
1000
0010
0100
0001
0010
0100
1000
0010
0100
0010
,
1000
0001
0010
0001
1000
0001
0010
0001
1000
0001
0010
0001
0100
0010
1000
0010
,
0100
0001
0010
0100
1000
0010
0100
0010
1000
0100
0010
0001
0100
0010
0100
0001
,
0010
0100
0010
0001
0010
0100
1000
0010
1000
0001
1000
0010
1000
0001
1000
0010
,
0100
0001
0010
0100
0010
0001
0100
0010
1000
0010
0100
0001
0010
0100
0010
0001
,
0100
0010
0100
0001
0100
0010
0100
0001
0010
0001
0010
0100
1000
0100
0010
0001
,
0100
0010
0100
0010
1000
0100
0010
0001
0100
0010
0100
0010
1000
0100
0010
0001
,
1000
0010
0100
0010
1000
0010
0100
0010
1000
0010
0100
0010
1000
0100
0010
0001
,
0100
0010
0100
0001
0010
0100
1000
0100
0010
0001
0100
0010
1000
0100
0010
0100
,
1000
0001
0100
0001
1000
0001
0100
0001
1000
0001
0100
0001
0010
0100
1000
0100
,
0010
0001
0100
0010
1000
0100
0010
0100
1000
0010
0100
0001
0010
0100
0010
0001
,
0100
0010
0100
0001
0100
0010
0100
0001
0010
0100
0010
0100
1000
0010
1000
0010
,
0100
0001
0100
0010
0100
0001
0010
0100
1000
0100
0010
0001
0100
0010
0100
0001
,
0010
0100
0010
0001
0010
0100
0010
0001
0100
0001
1000
0010
0100
0001
0010
0100
,
1000
0100
0010
0001
0010
0001
0100
0010
0100
0010
1000
0100
1000
0100
0010
0001
,
0100
0010
1000
0100
1000
0010
1000
0001
1000
0010
1000
0100
1000
0010
1000
0001
,
1000
0010
1000
0100
1000
0010
1000
0001
0100
0010
1000
0100
1000
0010
0100
0001
,
0010
0100
0010
0001
0100
0001
1000
0001
0100
0001
0010
0001
0100
0001
1000
0001
,
0100
0001
0010
0001
0100
0001
1000
0001
0100
0010
0100
0010
1000
0001
1000
0001
,
0020
0030
0100
0000
1000
0000
1000
0000
0001
0000
0001
0000
0010
0000
0100
1000
,
0200
0300
0010
0000
0100
0000
0100
0000
1000
0000
1000
0000
0001
0000
0001
0000
,
0202
0303
0100
0000
0010
0000
0010
0000
1000
0000
1000
0000
0001
0000
1000
0010
,
2000
3000
0010
0000
1000
0000
1000
0000
0100
0000
0100
0000
1000
0000
1000
0000
,
0010
0100
0010
0100
0001
0010
0100
1000
0001
0100
0001
0100
0010
1000
0100
0010
,
0001
1000
0001
1000
0100
0010
0001
0100
0010
1000
0010
1000
0100
0010
0001
1000
,
0010
0100
0010
0100
0001
0010
0100
0010
0001
1000
0001
1000
0001
0010
0100
1000
,
0001
0100
0001
0100
0001
0010
0100
1000
0010
0100
0001
0010
0001
0100
0010
1000
,
0200
0300
1000
0000
0010
0000
0100
0000
0001
0000
0010
0000
0001
0000
1000
0001
,
2000
3000
0010
0000
0100
0000
0001
0000
0100
0000
0010
0000
1000
0000
0100
0000
,
2200
3300
1000
0000
0001
0000
0100
0000
0001
0000
1000
0000
0010
0000
0100
0001
,
0200
0300
0010
0000
1000
0000
0100
0000
0010
0000
0100
0000
1100
0000
1000
0000
,
0100
0010
0100
0010
0001
0100
0010
1000
0001
0010
0001
0010
0100
1000
0010
0100
,
0001
1000
0001
1000
0010
0100
0001
0010
0100
1000
0100
1000
0010
0100
0001
1000
,
0100
0010
0100
0010
0001
0100
0010
0100
0001
1000
0001
1000
0001
0100
0010
1000
,
0001
0010
0001
0010
0100
1000
0100
1000
0010
0100
0010
0100
0001
1000
0001
1000
,
0002
0003
0100
0000
0010
0000
0010
0100
0001
0000
0100
0000
0010
0000
1000
0000
,
2002
3003
0001
0000
0010
0000
0220
0330
0100
0000
1000
0000
2002
3003
0001
0000
,
0202
0303
0100
0000
0010
0000
0010
0100
0001
0000
1000
0000
0001
0000
1000
0000
,
2002
3003
0001
0000
1000
0000
2002
3003
0001
0000
0100
0000
0202
0303
0001
0000
,
2002
3003
1000
0000
0001
0000
0001
1000
0010
0000
0010
0000
1000
0000
0001
0000
,
2002
3003
1000
0000
0010
0000
0220
0330
0100
0000
0001
0000
2002
3003
1000
0100
,
0020
0030
0001
0001
1000
1000
0001
0001
,
0002
0000
0020
0003
0200
0030
2000
0300
,
3001
0010
0100
0010
0001
0010
0100
0010
0001
0010
0100
0010
0001
0100
0010
1000
,
0100
0010
0100
1000
0010
0100
0001
0100
0010
1000
0100
0010
0001
0100
0010
0100
,
0001
1000
0100
1000
0001
1000
0100
1000
0001
1000
0100
1000
0010
0100
0001
0100
,
0010
1000
0100
0010
0001
0100
0010
0100
0001
0010
0100
1000
0010
0100
0010
1000
,
0100
0010
0100
1000
0100
0010
0001
0100
0001
1000
0001
0100
0001
1000
0001
0100
,
0010
1000
0100
0010
0100
1000
0010
0100
0001
0100
0010
1000
0100
0010
0100
1000
,
0010
0100
0010
1000
0010
0100
0010
1000
0100
1000
0100
0010
0001
0010
0100
1000
,
0010
0100
0010
0100
0001
0010
0100
1000
0010
0100
0010
0100
0001
0010
0100
1000
,
0001
0100
0010
0100
0001
0100
0010
0100
0001
0100
0010
0100
0001
0010
0100
1000
,
0010
0100
0010
1000
0100
0010
0001
0010
0100
1000
0010
0100
0001
0010
0100
0010
,
0001
1000
0010
1000
0001
1000
0010
1000
0001
1000
0010
1000
0100
0010
0001
0010
,
0100
1000
0010
0100
0001
0010
0100
0010
0001
0100
0010
1000
0100
0010
0100
1000
,
0010
0100
0010
1000
0010
0100
0010
1000
0100
0010
0100
0010
0001
0100
0001
0100
,
0010
1000
0010
0100
0010
1000
0100
0010
0001
0010
0100
1000
0010
0100
0010
1000
,
0100
0010
0001
0100
0001
1000
0100
0010
0001
0100
0001
1000
0100
0010
0100
0010
,
0001
1000
0001
1000
0001
0010
0100
1000
0001
1000
0001
1000
0010
0100
0010
1000
,
0010
0100
0001
0010
0001
1000
0010
0100
0001
0010
0001
1000
0010
0100
0010
0100
,
0001
0010
0100
1000
0010
0100
0010
1000
0100
0010
0001
0100
0001
0010
0100
1000
,
0010
0100
0001
1000
0100
1000
0010
0100
0001
1000
0100
1000
0001
0100
0001
0100
,
0020
0000
2000
0030
0200
3000
0310
0010
,
0001
0010
0100
1000
0010
1000
0001
0010
0100
1000
0010
1000
0001
0100
0001
0100
,
0010
0010
0000
0100
0100
0000
0001
0010
,
0220
0330
0010
0000
0001
0000
0010
0000
0100
0000
1000
0000
0010
0000
0010
0000
,
0100
0001
1000
0100
0010
0100
1000
1000
,
0010
0100
0001
0010
0100
0010
0001
0001
,
0100
0010
1000
0100
1000
0001
0100
0100
,
0010
1000
0100
1000
0001
0100
0010
0010
,
0100
0001
1000
0100
0010
0001
0100
0100
,
0010
0100
0001
0010
0100
1000
0001
0001
,
1000
0100
0010
0001
0100
0010
0100
0001
0010
0100
1000
0010
0100
0010
1000
0100
,
0010
0001
0010
0001
0100
0010
0100
0001
0010
0100
0010
0100
1000
0010
0100
0001
,
1000
0100
0010
0001
1000
0100
1000
0001
0100
0001
1000
0010
0100
0001
0010
0100
,
1000
0010
1000
0010
0100
0001
0010
0001
0100
0010
0100
0010
1000
0100
0010
0001
,
1000
0100
1000
0001
0100
0001
1000
0010
1000
0001
0010
0100
1000
0001
0100
0001
,
0010
0100
0010
0100
1000
0001
0100
0010
1000
0100
1000
0100
0010
0001
0100
0010
,
1000
0001
0100
0001
1000
0100
0010
0001
1000
0100
1000
0001
0100
0001
1000
0100
,
1000
0010
1000
0010
0100
0001
1000
0100
1000
0001
1000
0001
0100
0001
1000
0100
,
0010
0001
0100
0010
1000
0100
1000
0010
0100
0001
0010
0001
0100
0010
0100
0001
,
1000
1000
0100
0100
0010
0010
0001
0001
,
0100
0100
0010
0010
1000
1000
0001
0001
,
0010
0010
0100
0100
1000
1000
0001
0001
,
0100
0100
0001
0001
1000
1000
0010
0010
,
1000
0010
0100
0001
0100
0010
1000
0001
0010
0100
1000
0001
0010
0001
1000
0100
,
1000
0001
0100
0010
1000
0001
0100
0001
1000
0100
0010
0001
1000
0100
1000
0001
,
0100
0010
1000
0001
0100
0010
0100
0001
1000
0100
0010
0001
0010
0100
1000
0001
,
0100
0010
0100
0001
1000
0001
0100
0010
1000
0001
1000
0001
0010
0100
0010
0001
,
1000
0000
1000
0000
1001
0000
0001
0010
0100
0000
0100
0000
0110
0000
0010
0000
,
0001
0000
0001
0000
1001
0000
1000
0010
0100
0000
0100
0000
0110
0000
0010
0000
,
1000
0000
1000
0000
1001
0000
0001
1000
0100
0000
0100
0000
1100
0000
1000
0000
,
0001
0000
0001
0000
1001
0000
1000
0010
0100
0000
0100
0000
0110
0000
0010
0000
,
1010
0000
1000
0000
1001
0000
0001
0010
0100
0000
0100
0000
1100
0000
1000
0000
,
0001
0000
0001
0000
1001
0000
1000
0001
0100
0000
0100
0000
0110
0000
0010
0000
,
1010
1000
0010
0110
0100
0001
1001
1000
,
0100
0010
0001
0100
0001
1000
0100
0010
0001
0100
0001
0010
0100
1000
0010
0100
,
0001
0100
0010
1000
0100
1000
0001
0100
0010
1000
0100
1000
0001
0010
0100
1000
,
0002
0000
0000
0000
2003
0000
0000
0000
3200
0000
1300
0001
0020
0000
0000
0000
,
0031
0100
0010
0100
0001
0100
0010
0100
0001
0100
0010
0100
0001
0010
0100
1000
,
0010
0100
0010
1000
0100
0010
0001
0010
0100
1000
0010
0100
0001
0010
0100
0010
,
0001
1000
0010
1000
0001
1000
0010
1000
0001
1000
0010
1000
0100
0010
0001
0010
,
0100
1000
0010
0100
0001
0010
0100
0010
0001
0100
0010
1000
0100
0010
0100
1000
,
0010
0100
0010
1000
0010
0100
0001
0010
0001
1000
0001
0010
0001
1000
0001
0010
,
0100
1000
0010
0100
0010
1000
0100
0010
0001
0010
0100
1000
0010
0100
0010
1000
,
0100
0010
0100
1000
0100
0010
0100
1000
0010
1000
0010
0100
0001
0100
0010
1000
,
0100
0010
0100
0010
0001
0100
0010
1000
0100
0010
0100
0010
0001
0100
0010
1000
,
0001
0010
0100
0010
0001
0010
0100
0010
0001
0010
0100
0010
0001
0100
0010
1000
,
0100
0010
0100
1000
0010
0100
0001
0100
0010
1000
0100
0010
0001
0100
0010
0100
,
0001
1000
0100
1000
0001
1000
0100
1000
0001
1000
0100
1000
0010
0100
0001
0100
,
0010
1000
0100
0010
0001
0100
0010
0100
0001
0010
0100
1000
0010
0100
0010
1000
,
0100
0010
0100
1000
0100
0010
0100
1000
0010
0100
0010
0100
0001
0010
0001
0010
,
0100
1000
0100
0010
0100
1000
0010
0100
0001
0100
0010
1000
0100
0010
0100
1000
,
0010
0100
0010
1000
0010
0100
0010
1000
0100
1000
0001
0010
0100
1000
0010
0100
,
0001
0100
0010
1000
0100
0010
0100
1000
0010
0100
0001
0010
0100
0010
0001
1000
,
0100
0010
0100
0010
0001
0100
0010
1000
0100
0010
0100
0010
0001
1000
0100
0010
,
0001
0100
0001
0100
0010
1000
0100
0010
0001
0100
0001
0100
0010
1000
0001
0100
,
0001
0010
0001
0010
0100
1000
0010
0100
0001
0010
0001
0010
0100
1000
0001
1000
,
0010
0100
0010
0100
0001
0010
0100
1000
0010
0100
0010
0100
0001
0010
0100
1000
,
0010
1000
0010
1000
0100
0010
0001
0100
0010
1000
0010
1000
0001
0100
0010
1000
,
0100
0010
0100
0010
0001
0100
0010
1000
0100
0010
0100
0010
0001
1000
0100
1000
,
0010
0100
0010
0100
0001
0100
0010
1000
0001
0010
0001
0010
0100
1000
0001
1000
,
0100
0010
0001
0100
0010
1000
0010
0100
0001
0010
0100
1000
0001
0100
0001
1000
,
0100
0010
0001
0010
0100
0010
0001
0010
0100
0010
0001
0010
0100
1000
0010
1000
,
0100
0010
0100
1000
0010
0100
0001
0100
0010
1000
0100
0010
0001
1000
0010
0100
,
0001
1000
0100
1000
0001
1000
0100
1000
0001
1000
0100
1000
0010
0100
0001
0100
,
0010
1000
0100
0010
0001
0100
0010
0100
0001
0010
0100
1000
0010
0100
0010
1000
,
0100
0010
0100
1000
0100
0010
0100
1000
0010
0100
0010
0100
0001
0010
0001
0010
,
0100
1000
0100
0010
0100
1000
0010
0100
0001
0100
0010
1000
0100
0010
0100
1000
,
0010
0100
0010
1000
0010
0100
0010
1000
0100
1000
0001
0010
0100
1000
0010
0100
,
0001
0100
0010
1000
0010
1000
0100
0010
0100
0010
0001
0100
0001
0100
0010
1000
,
0010
0100
0001
0010
0001
0100
0001
1000
0001
0100
0001
0010
0001
0100
0001
1000
,
0001
0100
0001
0010
0001
0100
0001
1000
0010
0100
0001
0010
0001
0100
0010
1000
,
0100
0010
0100
1000
0010
1000
0001
1000
0010
1000
0100
1000
0010
1000
0001
1000
,
0010
1000
0100
1000
0010
1000
0001
1000
0010
0100
0001
0010
0100
1000
0010
1000
,
0100
0010
0001
0100
0001
0010
0001
1000
0001
0010
0001
0100
0001
0010
0001
1000
,
0001
0010
0001
0100
0001
0010
0001
1000
0100
0010
0001
0100
0001
0010
0100
1000
,
0010
0100
0010
1000
0100
1000
0001
1000
0100
1000
0010
1000
0100
1000
0001
1000
,
0100
1000
0010
1000
0100
1000
0001
1000
0010
0000
0020
0000
0000
0000
0000
0000
,
0000
0000
0000
0000
0000
0030
0000
0000
,
0000
0000
0000
000M
;
