#TITLE:Useless Chatting;
#SUBTITLE:- .hack/Sign;
#ARTIST:Kajiura Yuki;
#TITLETRANSLIT:;
#SUBTITLETRANSLIT:;
#ARTISTTRANSLIT:;
#CREDIT:;
#BANNER:uselesschatting-bn.png;
#BACKGROUND:uselesschatting-bg.png;
#LYRICSPATH:;
#CDTITLE:!cdtitle.png;
#MUSIC:uselesschatting.mp3;
#OFFSET:-0.501;
#SAMPLESTART:46.154;
#SAMPLELENGTH:13.000;
#SELECTABLE:YES;
#BPMS:0.000=120.050;
#STOPS:;
#BGCHANGES:;
// cache tags:
#FIRSTBEAT:15.500;
#LASTBEAT:166.000;
#SONGFILENAME:Songs/Otaku's Dream 1st Anime Mix/PlatinumHawke - Useless Chatting/uselesschatting.sm;
#HASMUSIC:1;
#HASBANNER:1;
#MUSICLENGTH:86.543;
// end cache tags

//---------------dance-single - ----------------
#NOTES:
     dance-single:
     :
     Easy:
     3:
     0.206,0.264,0.104,0.220,0.000,97.000,9.000,19.000,0.000,0.000:
0000
0000
0000
0000
,
0000
0000
0000
0000
,
0000
0000
0000
0000
,
0000
0000
0000
0000
,
1000
0000
1000
0000
,
0100
0000
0100
0000
,
0010
0000
0010
0000
,
0001
0000
0001
0000
,
0100
0000
0100
0000
,
1000
0000
1000
0000
,
0100
0000
0100
0000
,
0001
0000
0001
0000
,
0010
0000
0100
1000
,
0010
0000
0100
0001
,
1000
0000
0100
0010
,
0001
0000
0100
0010
,
1000
0000
0001
0010
,
0100
0000
1000
0001
,
0100
0000
0010
1000
,
0100
0000
0010
0001
,
0101
0000
1100
0000
,
0011
0000
1010
0000
,
1001
0000
1001
0000
,
0100
0000
0100
0000
,
0010
0000
2000
3100
,
0010
0000
0010
0000
,
0001
0000
0200
0310
,
1000
0000
1000
0000
,
0100
0000
0020
0031
,
0100
0000
0100
0000
,
0010
0000
2000
3100
,
0010
0001
0100
0001
,
0100
0010
2002
3003
,
0100
0010
1000
0100
,
0010
0001
0202
0303
,
1000
0100
0010
0001
,
0100
0010
0220
0330
,
2000
0000
3200
0000
,
0320
0000
0032
0000
,
0203
0000
0320
0000
,
2030
0000
3200
0000
,
0320
0000
0031
0000
;

//---------------dance-single - ----------------
#NOTES:
     dance-single:
     :
     Medium:
     6:
     0.366,0.432,0.220,0.393,0.000,169.000,19.000,34.000,0.000,0.000:
0000
0000
0000
0000
,
0000
0000
0000
0000
,
0000
0000
0000
0000
,
0000
0000
0000
0000
,
1001
0000
0010
0000
0001
0100
0001
0000
,
1000
0000
1000
0000
0100
0010
0001
0000
,
1000
0000
1000
0000
0001
0100
0001
0000
,
0010
0000
0010
0000
0100
1000
0001
0000
,
1001
0000
0100
0000
1000
0010
1000
0000
,
0100
0000
0100
0000
0001
0010
0100
0000
,
1000
0000
1000
0000
0001
0100
1000
0000
,
0100
0000
0100
0000
0001
1000
0100
0000
,
0020
0000
0000
0001
0000
0001
0030
0000
,
0002
0000
0000
0100
0000
0100
0003
0000
,
0200
0000
0000
0010
0000
0010
0300
0000
,
0020
0000
0000
1000
0000
1000
0030
0000
,
2000
0000
0000
0100
0000
0100
3000
0000
,
0200
0000
0000
0010
0000
0010
0300
0000
,
0020
0000
0000
0001
0000
0001
0030
0000
,
0002
0000
0000
1000
0000
1000
0003
0000
,
2000
3010
0200
0301
,
0020
0130
2000
3001
,
0002
1003
0220
0330
,
2000
0000
3100
0000
0001
0100
0001
0000
,
0010
0000
1010
0000
0100
0010
0001
0000
,
0002
0000
0103
0000
1000
0100
1000
0000
,
0010
0000
0011
0000
0100
0010
1000
0000
,
0200
0000
0310
0000
0001
0100
1000
0000
,
0100
0000
1001
0000
0100
0010
0001
0000
,
0200
0000
0310
0000
1000
0100
0001
0000
,
0100
0000
1001
0000
0100
0010
1000
0000
,
1100
0000
0012
0000
0103
0010
1000
0000
,
1001
0000
0201
0000
0310
1000
0001
0000
,
0011
0000
0210
0000
0310
0001
0100
0000
,
1010
0000
1200
0000
0310
0001
1000
0000
,
0101
0000
2100
0000
3001
0100
0010
0000
,
1001
0000
0012
0000
1003
0100
0010
0000
,
0002
0000
0103
0010
2000
0000
3001
0000
,
0002
0000
0013
0100
2000
0000
3010
0000
,
0020
0000
0130
0001
2000
0000
3100
0000
,
0200
0000
0310
0001
0200
0000
0310
0000
,
0020
0000
1030
0100
0001
0000
0000
0000
;

//---------------dance-single - ----------------
#NOTES:
     dance-single:
     :
     Hard:
     8:
     0.444,0.408,0.023,0.000,0.352,267.000,2.000,0.000,0.000,0.000:
0000
0000
0000
0000
,
0000
0000
0000
0000
,
0000
0000
0000
0000
,
0000
0000
0000
0000
0000
0000
0000
0000
0000
0000
0000
0000
0000
0000
1000
0010
,
1000
0000
0000
0001
0000
0000
0100
0000
0010
0000
1000
0000
0100
0000
0010
0000
,
0001
0000
0000
0100
0000
0000
0010
0000
1000
0000
0001
0000
1000
0000
0000
0000
,
0010
0000
0000
0100
0000
0000
0001
0000
0010
0000
0100
0000
1000
0000
0001
0000
,
0100
0000
0000
0100
0000
0000
0100
0000
0010
0000
0000
0010
0000
0000
1000
0100
,
1000
0000
0000
0001
0000
0000
0100
0000
1000
0000
0100
0000
0001
0000
0010
0000
,
0100
0000
0000
1000
0000
0000
0001
0000
0100
0000
0010
0000
0100
0000
0000
0000
,
0001
0000
0000
1000
0000
0000
0100
0000
0010
0000
0001
0000
1000
0000
0010
0000
,
0100
0000
0000
0100
0000
0000
0100
0000
0001
0000
0000
0001
0000
1000
0100
0000
,
0010
0000
0000
0001
0100
0000
0000
0000
0010
0000
0010
0000
0010
0000
0000
0000
,
0001
0000
0000
1000
0100
0000
0000
0000
0010
0000
0010
0000
0010
0000
0000
0000
,
0001
0000
0000
0100
0000
0000
0001
0000
1000
0000
0100
0000
1000
0000
0010
0000
,
0100
0000
0000
0100
0000
0000
0100
0000
0001
0000
0000
0001
0000
0010
0100
0000
,
1000
0000
0000
0001
0100
0000
0000
0000
1000
0000
1000
0000
1000
0000
0000
0000
,
0100
0000
0000
0001
1000
0000
0000
0000
0100
0000
0100
0000
0100
0000
0000
0000
,
0010
0000
0000
0001
0000
0000
0100
0000
0010
0000
0100
0000
1000
0000
0100
0000
,
0001
0000
0000
0001
0000
0000
0001
0000
0010
0000
0000
0010
0000
0100
1000
0000
,
0001
0000
0100
0000
0001
0100
0000
0000
0100
0000
1000
0000
0100
1000
0000
0000
,
1000
0000
0010
0000
1000
0010
0000
0000
0010
0000
0001
0000
0010
0001
0000
0000
,
0001
0000
0100
0000
0001
0100
0000
0000
1001
0000
0000
0000
0000
0000
1000
0100
,
1000
0000
0000
0010
0000
0000
0100
0000
0010
0000
1000
0000
0100
0000
0001
0000
,
0100
1000
0000
0001
0000
0000
0100
0000
0010
0000
0100
0000
0001
0000
0000
0000
,
0010
0100
0000
1000
0000
0000
0001
0000
0100
0000
0010
0000
1000
0000
0001
0000
,
1000
0100
0000
0010
0000
0000
0001
0000
0100
0000
0000
0010
0000
0000
1000
0001
,
1000
0000
0000
0100
0000
0000
0010
0000
0001
0000
1000
0000
0001
0000
0010
0000
,
0100
1000
0000
0001
0000
0000
0100
0000
0010
0000
1000
0000
0100
0000
0000
0000
,
0001
0100
0000
0001
0000
0000
1000
0000
0100
0000
0010
0000
0001
0000
0100
0000
,
1000
0001
0000
0100
0000
0000
0010
0000
1000
0000
0000
0100
0000
0000
0100
0000
,
0010
0000
0000
0010
0000
0000
0001
0000
0100
0000
1000
0000
0100
0000
0001
0000
,
0010
0000
0000
0010
0000
0000
0100
0000
1000
0000
0001
0000
0100
0000
1000
0000
,
0100
0000
0000
0100
0000
0000
0001
0000
0010
0000
0100
0000
1000
0000
0010
0000
,
0100
0000
0000
0100
0000
0000
0001
0000
0010
0000
0100
0000
0010
0000
0000
0000
,
0001
0000
0000
1000
0000
0000
0010
0000
0100
0000
0001
0000
0100
0000
0010
0000
,
1000
0000
0000
0100
0000
0000
0010
0000
0001
0000
0100
0000
1000
0000
0100
0000
,
0001
0001
0010
0010
0100
0100
1000
1000
,
0000
0001
0000
0000
1000
0000
0100
0000
1000
0100
0000
0000
0010
0000
0001
0000
,
0010
0001
0000
0000
1000
0000
0100
0000
0010
0001
0000
0000
0001
0000
0100
0000
,
0010
1000
0000
0000
0100
0000
0010
0000
1000
0001
0000
0000
0100
0000
1000
0000
,
0001
0100
0000
0000
0100
0000
0010
0000
1001
0000
0000
0000
0000
0000
0000
0000
;
