#TITLE:Tell (MC F-40 Remix);
#SUBTITLE:;
#ARTIST:MC F-40;
#TITLETRANSLIT:;
#SUBTITLETRANSLIT:;
#ARTISTTRANSLIT:;
#CREDIT:;
#BANNER:tell.png;
#BACKGROUND:tell-bg.png;
#LYRICSPATH:;
#CDTITLE:;
#MUSIC:Guillaume Tell - MC F 40 (Rossini).ogg;
#OFFSET:-3.596;
#SAMPLESTART:28.800;
#SAMPLELENGTH:18.000;
#SELECTABLE:YES;
#BPMS:0.000=180.000;
#STOPS:281.250=0.666
;
#BGCHANGES:;
// cache tags:
#FIRSTBEAT:16.000;
#LASTBEAT:328.000;
#SONGFILENAME:Songs/Rodd's Revival/Tell (MC F-40 Remix) (Rodd Steps)/Guillaume Tell - MC F 40 (Rossini).sm;
#HASMUSIC:1;
#HASBANNER:1;
#MUSICLENGTH:114.892;
// end cache tags

//---------------dance-single - RODD----------------
#NOTES:
     dance-single:
     RODD:
     Challenge:
     12:
     1.000,1.000,0.435,0.226,1.000,806.000,50.000,26.000,0.000,0.000:

0000
0000
0000
0000
,
0000
0000
0000
0000
,
0000
0000
0000
0000
,
0000
0000
0000
0000
,
2000
0000
0000
0000
3000
0000
0100
0010
0002
0000
0000
0000
0003
0000
0100
0010
,
1000
0100
0010
0001
0100
0010
1000
0100
,
2000
0000
0000
0000
3000
0000
0100
0010
0002
0000
0000
0000
0003
0000
0100
0010
,
0100
0010
1000
0100
1000
0001
0100
0010
,
1000
0000
0100
0000
0010
0000
0001
0000
0100
0010
1000
0100
1000
0001
0100
0010
,
1000
0100
0010
0001
1000
0100
0010
0001
0100
0010
1000
0100
0010
0100
1000
0010
,
0200
0000
0000
0000
0300
0000
0010
1000
0020
0000
0000
0000
0030
0000
1000
0100
,
1000
0100
0010
0001
0100
0001
0100
0010
,
0100
0001
1000
0100
0010
0001
0100
0001
,
2000
0000
0000
0000
3000
0000
0100
0010
0200
0000
0000
0000
0300
0000
0010
0001
,
0010
0000
0001
0000
0100
0000
0010
1000
0010
0000
1000
0000
0100
0000
0010
0001
,
0100
0000
0010
1000
0100
0000
0010
0001
0100
0000
0010
0100
0010
0000
1000
0010
,
1000
0000
0100
1000
0100
0000
1000
0001
1000
0000
0100
0000
0010
0000
0001
0000
,
0100
0010
0100
0001
1000
0100
0010
0001
,
0200
0000
0000
0000
0000
0000
0000
0000
0000
0000
0000
0000
0300
0000
0010
1000
,
0010
0000
1000
0100
1000
0000
0001
0010
0001
0000
0011
0000
0101
0000
0010
1000
,
0010
0000
1000
0100
1000
0000
0001
1000
0001
0000
0101
0000
1010
0000
0100
0010
,
0001
0000
0100
0010
1000
0000
0100
0010
0100
0000
0110
0000
0011
0000
0100
0010
,
2000
0000
0000
0000
3000
0100
0010
0001
0010
0000
0011
0000
0011
0000
0100
0010
,
1000
0000
0100
0010
0001
0000
0010
0001
0010
0000
0011
0000
0101
0000
1000
0001
,
1000
0000
0100
0010
0001
0000
0100
0001
0100
0000
1010
0000
1100
0000
0010
0001
,
0100
0000
0010
1000
0100
0000
0010
0001
0100
0000
0110
0000
1010
0000
0100
0010
,
0001
0000
0000
0000
0000
0100
0010
1000
0100
0000
1100
0000
1100
0000
0010
0001
,
0010
0000
0010
0100
0010
0000
0010
0001
0010
0000
0001
0000
0100
0000
0010
0000
,
1000
0000
0100
0000
1000
0000
0001
0000
0101
0000
1010
0000
1100
0000
1000
0001
,
1000
0000
1000
0100
1000
0000
1000
0001
1000
0000
0100
0000
0010
0000
0001
0000
,
0100
0000
0001
0000
1000
0000
0100
0000
0011
0000
0101
0000
1001
0000
0100
0010
,
0001
0000
0100
0010
1000
0000
0100
0010
0001
0000
0100
0000
0010
0000
0100
0000
,
0001
0000
0010
0000
0100
0000
1000
0000
1100
0000
1010
0000
1100
0000
0010
0001
,
0010
0000
0001
0100
0001
0000
0010
1000
0010
0000
1000
0000
0100
0000
0010
0000
,
0001
0000
0010
0000
0100
0000
0010
0000
0001
0100
0010
1000
0100
1000
0001
0100
,
0010
1000
0100
0010
0001
0010
0100
1000
0010
0100
0001
1000
0010
0100
0001
0010
,
0100
1000
0100
0010
0001
0010
0100
1000
0001
0100
0010
1000
0001
0100
0010
0000
,
1000
0100
1000
0001
0100
0010
1000
0100
,
1000
0000
0001
0000
0100
0000
0010
0000
0100
0000
0001
0000
0011
0000
0100
0010
,
1000
0000
0100
0010
0001
0000
0010
0001
0010
0000
0011
0000
0101
0000
0010
1000
,
0100
0000
0010
0001
0100
0000
0010
1000
0010
0000
1010
0000
1100
0000
0010
0001
,
0100
0000
0010
0100
0010
0000
1000
0100
0010
0000
0011
0000
1001
0000
0100
0010
,
0002
0000
0000
0000
0003
0100
0010
1000
0100
0000
0110
0000
0110
0000
0010
0001
,
0100
0000
0010
1000
0100
0000
0010
0001
0100
0000
0010
0000
0010
0000
1000
0100
,
0010
0000
0001
0100
0010
0000
1000
0100
1000
0000
0001
0000
0001
0000
0100
0010
,
1000
0000
0100
0010
0100
0000
0010
0001
0100
0000
0001
0000
0001
0000
0010
0100
,
2000
0000
0000
0000
3000
0100
0010
0001
0010
0000
0100
0000
1000
0000
0001
0100
,
0001
0100
0001
0100
0001
0000
0100
0000
0010
0000
0000
0000
0000
0000
1000
0000
,
0100
0000
0010
0000
0001
0000
0010
0000
0100
1000
0010
1000
0100
1000
0001
0100
,
0010
1000
0100
1000
0001
0100
0010
1000
0001
0100
0010
1000
0100
1000
0001
0100
,
0010
1000
0100
1000
0010
0100
0001
1000
0010
0100
0001
0010
0100
0000
1000
0100
,
1000
0100
1000
0100
1000
0000
0100
0000
0020
0000
0000
0000
0000
0030
0001
0000
,
1000
0000
0100
0000
0010
0000
0001
0000
0010
0100
1000
0001
0010
0100
1000
0100
,
0010
0001
1000
0100
0010
0001
0100
0010
1000
0100
1000
0010
0100
0001
1000
0010
,
0100
0001
1000
0100
0010
0100
1000
0001
0100
0000
0110
0000
1010
0000
0000
0000
,
0100
0010
0001
0010
0100
1000
0100
0010
0001
0010
0001
0100
0010
1000
0100
0010
,
0400
4000
0000
0000
0000
0000
0000
0000
0000
0000
0000
0000
0000
0000
3300
0000
,
0010
0001
0100
0010
1000
0100
1000
0001
0100
0010
1000
0100
0010
0001
0010
0100
,
0040
0004
0000
0000
0000
0000
0000
0000
0000
0000
0000
0000
0000
0000
0033
0000
,
0200
0320
2030
3200
,
0320
0032
0203
0320
,
1030
0100
0010
0001
0010
0100
1000
0100
0010
0000
0001
0000
0100
0000
0010
0000
,
1000
0001
0100
0010
1000
0001
0100
0010
1000
0000
0100
0000
0010
0000
0100
0000
,
1000
0010
0100
0001
1000
0010
0100
0001
1000
0000
0100
0000
0010
0000
0001
0000
,
0100
0010
1000
0100
0010
0100
1000
0001
0100
0000
0010
0000
1000
0000
0100
0000
,
0010
0001
0100
0010
1000
0100
1000
0001
0100
0010
1000
0100
0010
0001
0010
0100
,
1000
0100
0010
0001
0100
0010
1000
0100
0010
0100
1000
0001
0100
0010
1000
0100
,
0010
0001
0010
0100
1000
0000
0100
1000
0100
0000
0010
0001
0010
0000
0001
0100
,
0001
0000
0101
0000
0101
0000
0010
1000
0010
0000
1000
0100
1000
0000
0001
1000
,
0001
1001
0110
0000
0011
0101
1010
0000
,
1100
1001
0022
0033
0200
0000
0000
0000
,
0000
0000
0000
0000
0000
0000
0000
0300
0010
1000
0100
0010
0001
0010
0100
1000
,
0001
0100
0010
1000
0100
1000
0001
0100
0010
1000
0001
0100
0010
1000
0100
0010
,
0001
1000
0100
0010
0001
0010
0100
1000
0001
0000
0100
0001
0100
0001
0100
0001
,
0100
0000
0010
1000
0010
1000
0010
1000
0010
0000
1000
0100
1000
0100
1000
0100
,
1000
0000
0001
1000
0001
1000
0001
1000
0001
0000
0100
0010
1000
0100
0010
0001
,
0010
0000
0100
1000
0001
0100
0010
1000
0100
0000
0010
0001
0100
0010
0100
0001
,
0010
0000
0100
1000
0001
0100
0010
1000
0100
0010
0001
0010
0100
1000
0001
0100
,
0010
1000
0001
0100
0010
1000
0100
0010
0001
0010
0100
1000
0100
0010
0001
0100
,
0010
1000
0100
1000
0010
0100
0001
1000
0010
0000
0000
0000
0000
0000
0100
0001
,
0010
0000
0000
0100
0000
0000
0010
0000
0000
0001
0000
0000
0101
0000
0000
0000
0000
0000
0000
0000
0000
0000
0010
0000
,
0010
0000
0000
0000
0000
1000
2200
0000
0000
0000
0000
0000
,
3300
0000
0000
0000
;
