#TITLE:Cross Time;
#SUBTITLE:;
#ARTIST:Brandy;
#TITLETRANSLIT:;
#SUBTITLETRANSLIT:;
#ARTISTTRANSLIT:;
#CREDIT:Chodasaibaka;
#BANNER:../Zeppelin_bn.png;
#BACKGROUND:../bg_Zeppelin.png;
#LYRICSPATH:;
#CDTITLE:../cdtitle_ZAiA.png;
#MUSIC:Brandy - Cross Time.ogg;
#OFFSET:1.245;
#SAMPLESTART:45.193;
#SAMPLELENGTH:24.080;
#SELECTABLE:YES;
#BPMS:0.000=160.000;
#STOPS:;
#BGCHANGES:;
// cache tags:
#FIRSTBEAT:4.000;
#LASTBEAT:399.000;
#SONGFILENAME:Songs/Cirque du Zeppelin/Cross Time - [Zaia]/Cross Time.sm;
#HASMUSIC:1;
#HASBANNER:1;
#MUSICLENGTH:148.401;
// end cache tags

//---------------dance-single - 8-6/11----------------
#NOTES:
     dance-single:
     8-6/11:
     Challenge:
     13:
     1.000,1.000,0.283,0.485,1.000,1052.000,42.000,72.000,0.000,4.000:
0000
0000
0000
0000
,
1000
1000
1000
0010
1000
0001
0010
0100
,
0000
0000
1000
0010
0100
0001
0100
0010
,
1000
1000
0001
0010
0001
0100
0010
1000
,
0000
0000
0001
0010
0001
0100
0001
1000
,
1001
0000
0001
0000
0010
0100
0010
0100
1000
0000
0010
0000
0100
0000
0001
0000
,
1000
0010
1000
0001
1000
0100
0000
0010
,
0001
0001
1000
0010
0100
0100
0001
1000
,
0100
0100
1000
0001
0001
0100
0001
1000
,
1002
0000
0000
0000
0000
0000
0003
0000
0100
0000
0001
0000
0100
0000
0001
0000
2000
3000
0000
0000
0100
0000
0000
0000
1000
0000
0000
0000
1000
0000
0000
0000
,
0010
0000
0000
0000
1000
0000
0000
0000
0200
0300
0000
0000
0020
0030
0000
0000
0200
0300
0000
0000
1000
0000
0001
0000
0000
0000
1000
0000
0010
0000
0000
0000
,
0100
0000
0000
0000
0100
0000
0000
0000
0001
0000
1000
0000
0002
0003
2000
3000
0200
0300
0000
0000
0010
0000
0000
0000
0001
0000
0000
0000
1000
0000
0000
0000
,
0010
0100
0000
0001
0000
1000
0100
0000
0010
0000
0001
0100
0000
0001
1000
0000
,
0100
0010
0000
0001
0000
1000
0010
0000
0100
0000
0001
1000
0000
0001
0010
0000
,
0100
1000
0001
0000
0100
0000
0100
0000
1001
0000
0010
0000
1001
0000
0100
0000
,
0001
0000
1000
0100
1000
0001
0100
0010
0000
0100
0001
0010
0001
1000
0010
1000
,
0100
0010
0000
0001
0000
1000
0010
0000
0100
0000
0001
0010
0000
0001
1000
0000
,
0010
0100
0000
0001
0000
1000
0100
0000
0010
0000
0001
1000
0000
0001
0100
0000
,
0010
1000
0001
0000
0010
0000
0010
0000
1001
0000
0100
0000
1001
0000
0010
0000
,
0001
0000
1000
0010
1000
0001
0010
0100
0000
0010
0001
0100
0001
1000
0010
1000
,
0100
0000
0010
0000
0100
0000
0010
0000
0011
0000
0000
1001
0000
0000
0101
0000
,
0200
0000
0320
0000
2030
3002
0023
0032
,
0000
0203
0000
0320
2030
3200
2300
3002
,
0203
0000
0320
0000
2030
3002
0023
0032
,
0000
2003
0000
3020
0030
0000
0000
0000
,
0200
0000
0302
0000
0023
0230
2300
3002
,
0000
0203
0000
0320
2030
3200
2300
3020
,
0130
0000
0001
1000
0001
0010
0100
1000
0000
0001
0100
0001
0010
0001
1000
0100
,
1000
0000
0001
0000
0100
0000
0010
0000
1010
0000
0000
1010
0000
0000
1010
0000
,
0201
0000
0000
0302
0000
0000
0013
0000
1200
0000
0000
2300
0000
0000
3010
0000
,
0201
0000
0000
0302
0000
0000
0013
0000
0110
0000
0000
0110
0000
0000
0110
0000
,
1000
0001
0010
0001
0100
0001
1000
0010
1000
0001
0100
0001
1000
0100
0010
0100
,
1000
0001
0100
0001
0010
0001
1000
0100
1000
0001
0100
0010
1000
0001
1000
0100
,
0010
0001
1000
0010
1000
0100
1000
0001
0010
0001
1000
0100
1000
0001
0100
0010
,
0100
0001
0010
0100
1000
0001
0100
0010
1000
0100
1000
0001
0010
0100
1000
0010
,
1000
0001
0100
0001
0010
0001
1000
0100
1000
0001
0010
0001
1000
0010
0100
0010
,
1000
0001
0010
0001
0100
0001
1000
0010
1000
0001
0010
0100
1000
0001
1000
0010
,
0100
0000
0010
0000
1001
0000
0000
0100
0010
0000
1001
0000
1000
0000
0100
0000
,
0010
0100
1000
0001
1000
0010
1000
0001
0010
0000
0110
0000
1000
0000
0110
0000
,
0001
1000
0001
1000
0100
0010
0001
1000
0010
0100
0001
0100
0010
1000
0001
0010
,
0100
1000
0001
0100
0001
1000
0001
1000
0100
1000
0001
1000
0100
0010
0001
1000
,
0010
0100
0001
0010
0100
1000
0001
0010
0001
1000
0010
0100
0001
1000
0100
1000
,
0001
0010
0001
0100
0001
1000
0100
0010
0001
0100
0001
1000
0100
1000
0001
0100
,
0001
1000
0001
1000
0010
0100
0001
1000
0100
0010
0001
0010
0100
1000
0001
0100
,
0010
1000
0001
0010
0001
1000
0001
1000
0010
1000
0001
1000
0010
0100
0001
1000
,
0200
0000
0320
0000
0032
0000
1003
0010
0100
0000
0001
0000
0010
0100
1000
0000
,
1001
0100
1001
0001
0100
0010
0100
0010
,
1000
0000
0001
0010
0100
1000
0010
0100
0000
0001
0100
0010
1000
0100
1000
0001
,
0200
0300
0000
0000
0220
0330
0000
0000
2002
3003
0000
0000
0002
1003
0100
0000
,
0010
0000
0100
1000
0001
0100
0010
1000
0000
0100
1000
0001
0100
0001
0010
0001
,
1000
0100
0000
1000
0000
0001
0100
0000
0010
0000
1000
0001
0000
0010
0100
0000
,
1000
0100
0000
0010
0000
0001
1000
0000
0010
0000
0100
0001
0000
0010
0001
0000
,
1000
0010
0000
1000
0100
1000
0001
0000
0100
0000
0010
1000
0000
0001
1000
0000
,
0100
0000
0010
0100
1000
0010
1000
0001
0000
0100
0001
0010
0001
1000
0010
0100
,
0001
0000
1000
0000
0001
0000
1000
0000
1001
0000
0000
0101
0000
0000
0100
0010
,
1000
0000
0000
0000
0000
0000
1000
0000
0000
0000
0000
0000
0010
0000
0000
1000
0000
0000
0100
0000
0000
1000
0000
0000
0001
0000
0000
0000
0000
0000
0010
0000
0000
0000
0000
0000
0002
0003
0000
2000
3000
0000
0002
0003
0000
2000
3000
0000
,
0010
0000
0100
0000
0101
0000
0001
0000
1000
0000
0100
0000
0010
0001
1000
0001
,
0100
0100
0010
1000
0001
0001
0010
0100
,
1000
0000
1000
0000
0010
0000
0100
0000
0000
0000
0001
0000
1000
0000
0010
0100
,
0001
0000
0000
0000
0000
0000
1000
0000
0100
0000
0000
0000
1000
0000
0001
0000
0100
0000
0000
0000
0000
0000
0002
0003
2000
3000
0000
0000
0100
0000
0000
0000
,
0010
0000
0010
0000
0001
0000
0100
0000
0001
0000
1000
0010
1000
0100
1000
0001
,
0100
0000
0010
1000
0001
0010
0001
0100
0001
0000
1000
0000
0100
1000
0100
1000
,
0001
0000
0100
0010
0100
0010
1000
0001
1000
0100
0010
0100
1000
0001
1000
0001
,
0010
0000
0000
0000
0200
0300
0000
0000
1000
0000
0000
0000
0010
0000
0000
0000
0200
0300
0000
0000
0001
0000
0000
0000
0010
0000
0000
0000
0200
0300
0000
0000
1000
0000
0000
0000
0010
0000
0000
0000
0200
0300
0000
0000
0001
0000
0000
0000
1000
0000
0000
0000
0200
0300
0000
0000
0020
0030
0000
0000
0000
0000
0000
0000
,
0004
0000
0043
0000
,
0430
0000
4300
0000
,
3001
0100
0010
0100
0001
0010
0100
1000
,
0001
0100
0010
1000
0100
1000
0001
0010
,
0001
0100
0010
1000
0001
0010
0100
1000
,
0000
0010
0100
0001
0000
0010
0100
1000
,
0010
0100
0001
0010
0001
0100
0010
1000
,
0001
0010
0100
1000
0010
1000
0001
0100
,
0001
0010
0100
1000
0001
0100
0010
1000
,
0000
0100
0010
0001
0000
0100
0010
1000
,
0001
0000
1000
0100
1000
0000
0001
0100
0001
0000
1000
0100
1000
0000
0001
0100
,
0010
0000
1000
0010
1000
0000
0001
0010
0001
0000
1000
0001
0100
0000
0110
0000
,
1001
0000
1000
0001
0100
0000
0001
1000
0001
0000
0010
0100
1000
0000
0001
1000
,
0001
0100
0010
1000
0100
0010
0001
1000
0001
0100
0001
1000
0100
1000
0010
1000
,
0001
0010
0100
1000
0001
1000
0010
0100
0010
1000
0001
0100
0001
1000
0100
1000
,
0001
0010
0001
0010
0100
1000
0001
0100
0001
1000
0001
0010
0100
1000
0001
0010
,
0001
1000
0010
1000
0010
0100
0001
1000
0100
1000
0001
0010
0001
1000
0010
0100
,
0001
1000
0001
0010
0100
1000
0001
1000
0010
0100
0010
1000
0001
1000
0001
0010
,
0100
1000
0100
1000
0010
0100
0001
1000
0001
0010
0001
0100
0010
0100
0001
1000
,
0010
0100
0001
0100
0001
0010
0100
1000
0001
1000
0010
1000
0100
0010
0001
0100
,
0010
1000
0010
1000
0100
0010
0001
1000
0001
0100
0001
0010
0100
1000
0010
1000
,
0001
0100
0001
0010
0001
1000
0010
1000
0001
0010
0100
1000
0010
0100
0001
0100
,
0010
1000
0010
1000
0100
0010
0001
1000
0001
0100
0001
0010
0100
0010
0001
1000
,
0100
0010
0001
0010
0001
0100
0010
1000
0001
1000
0100
1000
0010
0100
0001
0010
,
0100
0000
1000
0000
0001
0000
0100
0010
0000
1000
0001
0010
0001
0100
0010
1000
,
0002
0113
2000
3110
0002
0113
2000
3110
,
0001
0000
0000
1000
0000
0000
0100
0000
0010
0001
1000
0001
0010
0000
0100
0000
,
1000
0010
1000
0001
0100
0000
0001
0000
0010
0000
0000
0110
0000
0000
1100
0000
,
1000
0000
0000
0001
0000
0000
0100
0000
0010
1000
0001
1000
0010
0000
0100
0000
,
0001
0010
0001
1000
0100
0000
1000
0000
0010
0000
0000
0110
0000
0000
0101
0000
,
0001
1000
0010
1000
0001
0000
0010
0000
0100
1000
0001
1000
0100
0000
0010
0000
,
0001
0000
0000
1000
0000
0000
0010
0000
0100
0000
0001
0100
0000
0010
1000
0000
,
0001
0000
0000
0011
0000
0000
1100
0000
1000
0001
1000
0001
0100
0000
0010
0000
,
1000
0100
1000
0100
0010
0100
1000
0010
0100
0001
0100
0001
0010
0001
1000
0100
,
0010
0001
0010
0001
0100
0001
1000
0010
1000
0010
1000
0100
0010
0100
2000
0000
,
0000
0000
0000
3000
;

//---------------dance-single - 5----------------
#NOTES:
     dance-single:
     5:
     Hard:
     12:
     0.985,1.000,0.283,0.472,0.802,908.000,42.000,70.000,0.000,4.000:
0000
0000
0000
0000
,
1000
1000
1000
0010
1000
0001
0010
0100
,
0000
0000
1000
0010
0100
0001
0100
0010
,
1000
1000
0001
0010
0001
0100
0010
1000
,
0000
0000
0001
0010
0001
0100
0001
1000
,
1001
0000
0001
0000
0010
0100
0010
0100
1000
0000
0010
0000
0100
0000
0001
0000
,
1000
0010
1000
0001
1000
0100
0000
0010
,
0001
0001
1000
0010
0100
0100
0001
1000
,
0100
0100
1000
0001
0001
0100
0001
1000
,
1002
0000
0000
0000
0000
0000
0003
0000
0100
0000
0001
0000
0100
0000
0001
0000
2000
3000
0000
0000
0100
0000
0000
0000
1000
0000
0000
0000
1000
0000
0000
0000
,
0010
0000
0000
0000
1000
0000
0000
0000
0200
0300
0000
0000
0020
0030
0000
0000
0200
0300
0000
0000
1000
0000
0001
0000
0000
0000
1000
0000
0010
0000
0000
0000
,
0100
0000
0000
0000
0100
0000
0000
0000
0001
0000
1000
0000
0002
0003
2000
3000
0200
0300
0000
0000
0010
0000
0000
0000
0001
0000
0000
0000
1000
0000
0000
0000
,
0010
0100
0000
0001
0000
1000
0100
0000
0010
0000
0001
0100
0000
0001
1000
0000
,
0100
0010
0000
0001
0000
1000
0010
0000
0100
0000
0001
1000
0000
0001
0010
0000
,
0100
1000
0001
0000
0100
0000
0100
0000
1001
0000
0010
0000
1001
0000
0100
0000
,
0001
0000
1000
0100
1000
0001
0100
0010
0000
0100
0001
0010
0001
1000
0010
1000
,
0100
0010
0000
0001
0000
1000
0010
0000
0100
0000
0001
0010
0000
0001
1000
0000
,
0010
0100
0000
0001
0000
1000
0100
0000
0010
0000
0001
1000
0000
0001
0100
0000
,
0010
1000
0001
0000
0010
0000
0010
0000
1001
0000
0100
0000
1001
0000
0010
0000
,
0001
0000
1000
0010
1000
0001
0010
0100
0000
0010
0001
0100
0001
1000
0010
1000
,
0100
0000
0010
0000
0100
0000
0010
0000
0011
0000
0000
1001
0000
0000
0101
0000
,
0200
0000
0320
0000
2030
3002
0023
0032
,
0000
0203
0000
0320
2030
3200
2300
3002
,
0203
0000
0320
0000
2030
3002
0023
0032
,
0000
2003
0000
3020
0030
0000
0000
0000
,
0200
0000
0302
0000
0023
0230
2300
3002
,
0000
0203
0000
0320
2030
3200
2300
3020
,
0130
0000
0001
1000
0001
0010
0100
1000
0000
0001
0100
0001
0010
0001
1000
0100
,
1000
0000
0001
0000
0100
0000
0010
0000
1010
0000
0000
1010
0000
0000
1010
0000
,
0201
0000
0000
0302
0000
0000
0013
0000
1200
0000
0000
2300
0000
0000
3010
0000
,
0201
0000
0000
0302
0000
0000
0013
0000
0110
0000
0000
0110
0000
0000
0110
0000
,
1000
1000
0001
0100
0010
1000
0100
0010
,
0001
0001
0100
0001
0010
0100
1000
0010
,
0100
0100
0001
1000
0010
0100
0001
1000
,
0100
1000
0010
0100
0001
1000
0100
0010
0001
0100
0001
1000
0010
0100
0001
0010
,
0001
0001
1000
0010
0100
0001
0010
0100
,
1000
1000
0010
1000
0100
0010
0001
0100
,
0010
0000
0100
0000
1001
0000
0000
0010
0100
0000
1001
0000
1000
0000
0100
0000
,
0010
0100
1000
0001
1000
0010
1000
0001
0010
0000
0110
0000
1000
0000
0110
0000
,
0001
1000
0001
1000
0100
0000
0010
0000
0100
0000
1000
0000
0010
0000
0100
0000
,
0001
1000
0100
1000
0001
0000
0010
0000
0001
0000
0100
0000
0010
0000
1000
0000
,
0100
1000
0010
1000
0001
0000
0100
0000
0001
0000
0010
0000
0100
0000
2000
0000
,
0000
3010
0100
0002
0000
0013
0100
0100
,
1000
0001
1000
0001
0100
0000
0010
0000
0100
0000
0001
0000
0010
0000
0100
0000
,
1000
0001
0100
0001
1000
0000
0010
0000
1000
0000
0100
0000
0010
0000
0001
0000
,
0200
0000
0320
0000
2030
0000
3001
0100
0010
0000
1000
0000
0100
0010
0001
0000
,
1001
0010
1001
1000
0010
0100
0010
0100
,
0001
0000
1000
0100
0010
0001
0100
0010
0000
1000
0010
0100
0001
0010
0001
1000
,
0020
0030
0000
0000
0220
0330
0000
0000
2002
3003
0000
0000
2000
3001
0010
0000
,
0100
0000
0010
0001
1000
0010
0100
0001
0000
0010
0001
1000
0010
1000
0100
1000
,
0001
0010
0000
0001
0000
1000
0010
0000
0100
0000
0001
1000
0000
0100
0010
0000
,
0001
0010
0000
0100
0000
1000
0001
0000
0100
0000
0010
1000
0000
0100
1000
0000
,
0001
0100
0000
0001
0010
0001
1000
0000
0010
0000
0100
0001
0000
1000
0001
0000
,
0010
0000
0100
0010
0001
0100
0001
1000
0000
0010
1000
0100
1000
0001
0100
0010
,
1000
0000
0001
0000
1000
0000
0001
0000
1001
0000
0000
1010
0000
0000
0010
0100
,
0001
0000
0000
0000
0000
0000
0001
0000
0000
0000
0000
0000
0100
0000
0000
0001
0000
0000
0010
0000
0000
0001
0000
0000
1000
0000
0000
0000
0000
0000
0100
0000
0000
0000
0000
0000
2000
3000
0000
0002
0003
0000
2000
3000
0000
0002
0003
0000
,
0100
0000
0010
0000
1010
0000
1000
0000
0001
0000
0010
0000
0100
1000
0001
1000
,
0010
0010
0100
0001
1000
1000
0100
0010
,
0001
0000
0001
0000
0100
0000
0010
0000
0000
0000
1000
0000
0001
0000
0100
0010
,
1000
0000
0000
0000
0000
0000
0001
0000
0010
0000
0000
0000
0001
0000
1000
0000
0010
0000
0000
0000
0000
0000
2000
3000
0002
0003
0000
0000
0010
0000
0000
0000
,
0100
0000
0100
0000
1000
0000
0010
0000
1000
0000
0001
0100
0001
0010
0001
1000
,
0010
0000
0100
0001
1000
0100
1000
0010
1000
0000
0001
0000
0010
0001
0010
0001
,
1000
0000
0000
0010
0000
0000
0100
0000
0001
0000
0000
0010
0000
0000
0100
0000
,
1000
0000
0001
0100
0000
0001
1000
0000
0100
0000
0010
0001
0000
1000
0001
0000
,
4000
0000
3400
0000
,
0340
0000
0034
0000
,
1003
0010
0100
0010
1000
0100
0010
0001
,
1000
0010
0100
0001
0010
0001
1000
0100
,
1000
0010
0100
0001
1000
0100
0010
0001
,
0000
0100
0010
1000
0000
0100
0010
0001
,
0100
0010
1000
0100
1000
0010
0100
0001
,
1000
0100
0010
0001
0100
0001
1000
0010
,
1000
0100
0010
0001
1000
0010
0100
0001
,
0000
0010
0100
1000
0000
0010
0100
0001
,
1000
0000
0001
0010
0001
0000
1000
0010
1000
0000
0001
0010
0001
0000
1000
0010
,
0100
0000
0001
0100
0001
0000
1000
0100
1000
0000
0001
1000
0100
0000
0110
0000
,
1001
0000
0001
1000
0010
0000
1000
0001
1000
0000
0100
0010
0001
0000
1000
0001
,
1000
0010
0100
0001
0010
0100
1000
0001
1000
0010
1000
0001
0010
0001
0100
0001
,
1000
0100
0010
0001
1000
0001
0100
0010
0100
0001
1000
0010
1000
0001
0010
0001
,
1000
0100
1000
0100
0010
0001
1000
0010
1000
0001
1000
0100
0010
0001
1000
0100
,
1000
0001
0100
0001
0100
0010
1000
0001
0010
0001
1000
0100
1000
0001
0100
0010
,
1000
0001
1000
0100
0010
0001
1000
0001
0100
0010
0100
0001
1000
0001
0010
0100
,
1000
0001
1000
0010
0100
0001
0010
0100
,
1000
1000
0010
1000
0100
0010
0001
0100
,
0010
0010
1000
0001
0100
0010
1000
0002
,
0000
0013
0001
0200
0000
0310
1000
0001
,
0010
0010
0001
0100
0010
1000
0100
0010
,
0001
0001
0100
0001
0010
0100
1000
0010
,
0100
0000
0001
0000
1000
0000
0010
0100
0000
0001
1000
0100
1000
0010
0100
0001
,
2000
3110
0002
0113
2000
3110
0002
0113
,
1000
0000
0000
0001
0000
0000
0010
0000
0100
1000
0001
1000
0100
0000
0010
0000
,
0001
0100
0001
1000
0010
0000
1000
0000
0100
0000
0000
0110
0000
0000
0011
0000
,
0001
0000
0000
1000
0000
0000
0010
0000
0100
0001
1000
0001
0100
0000
0010
0000
,
1000
0100
1000
0001
0010
0000
0001
0000
0100
0000
0000
0110
0000
0000
1010
0000
,
1000
0001
0100
0001
1000
0000
0100
0000
0010
0001
1000
0001
0010
0000
0100
0000
,
1000
0000
0000
0001
0000
0000
0100
0000
0010
0000
1000
0010
0000
0100
0001
0000
,
1000
0000
0000
1100
0000
0000
0011
0000
0001
1000
0001
1000
0010
0000
0100
0000
,
0001
0010
0001
0010
0100
0010
0001
0100
0010
1000
0010
1000
0100
1000
0001
0010
,
0100
1000
0100
1000
0010
1000
0001
0100
0001
0100
0001
0010
0100
0010
0002
0000
,
0000
0000
0000
0003
;

//---------------dance-single - ----------------
#NOTES:
     dance-single:
     :
     Medium:
     9:
     0.748,0.975,0.276,0.499,0.071,659.000,41.000,74.000,0.000,0.000:
0000
0000
0000
0000
,
1000
1000
1000
0010
1000
0001
0010
0100
,
0000
0000
1000
0010
0100
0001
0100
0010
,
1000
1000
0001
0010
0001
0100
0010
1000
,
0000
0000
0001
0010
0001
0100
0001
1000
,
1001
0001
0020
0230
1300
0010
0100
0001
,
1000
0010
1000
0001
1000
0100
0000
0010
,
0001
0001
1000
0010
0100
0100
0001
1000
,
0100
0100
1000
0001
0001
0100
0001
1000
,
1002
0000
0000
0000
0000
0000
0003
0000
0200
0000
0000
0000
0302
0000
0000
0000
2003
3000
0000
0000
0100
0000
0000
0000
1000
0000
0000
0000
1000
0000
0000
0000
,
0010
0000
0000
0000
1000
0000
0000
0000
0200
0300
0000
0000
0020
0030
0000
0000
0200
0300
0000
0000
1000
0000
0000
0000
0000
0000
0000
0000
0010
0000
0000
0000
,
0100
0000
0000
0000
0100
0000
0000
0000
0001
0000
0000
0000
2000
3000
0002
0003
2000
3000
0000
0000
0010
0000
0000
0000
1000
0000
0000
0000
0001
0000
0000
0000
,
0010
0110
0000
1001
0000
0110
0000
1001
,
1000
0001
0100
0001
1000
0100
1000
0010
,
0200
0301
0100
0100
1001
0000
1001
0000
,
0001
1000
0010
1000
0100
0010
0001
1000
,
0100
0010
0001
1000
1001
0000
0110
0000
,
1001
1000
0001
0100
0100
0001
1000
0100
,
0020
0031
0010
0010
1001
0000
1001
0000
,
0001
0100
0010
1000
0010
0100
0001
0010
,
0100
0000
1000
0000
0100
0000
1000
0000
1001
0000
0000
1001
0000
0000
0101
0000
,
0200
0000
0320
0000
2030
3002
0023
0032
,
0000
0203
0000
0320
2030
3200
2300
3002
,
0203
0000
0320
0000
2030
3002
0023
0032
,
0000
2003
0000
3020
0030
0000
0000
0000
,
0200
0000
0302
0000
0023
0230
2300
3002
,
0000
0203
0000
0320
2030
3200
2300
3020
,
0230
0302
0023
0032
0203
0320
2030
3200
,
2300
0000
3002
0000
0203
0000
0320
0000
1030
0000
0000
1001
0000
0000
1001
0000
,
0110
0000
0000
1000
0000
0000
0001
0000
0110
0000
0000
0001
0000
0000
1000
0000
,
0110
0000
0000
1000
0000
0000
0001
0000
1001
0000
0000
1001
0000
0000
1001
0000
,
1000
1000
0001
0100
0010
1000
0100
0010
,
0001
0001
0100
0001
0010
0100
1000
0010
,
0100
0100
0001
1000
0010
0100
0001
1000
,
0100
0100
0010
0001
1000
1000
0010
0100
,
0001
0001
1000
0010
0100
0001
0010
0100
,
1000
1000
0010
1000
0100
0010
0001
0100
,
0010
0100
1001
0000
0100
1001
0000
0001
,
0010
0100
1000
0001
0100
0000
0110
0000
,
0001
0001
0010
0100
0010
0001
0100
0010
,
1000
1000
0001
0010
0001
0100
0010
1000
,
0100
0100
1000
0010
1000
0100
0010
0002
,
0000
0103
0010
2000
0000
3100
0010
0010
,
0001
0001
0100
0010
0100
0001
0010
0100
,
1000
1000
0001
0100
0001
0010
0100
1000
,
0020
0230
0302
2003
0000
3002
0000
0203
,
0000
0000
0000
0302
0000
0000
0000
0000
,
1003
0010
1000
0010
1000
0001
1000
0001
,
0010
0110
1100
1100
,
1001
0001
0100
0001
1000
0100
1000
0010
,
0100
0001
1000
1000
0001
0001
1000
1000
,
0010
0100
0000
0001
1000
0100
0000
0010
,
0001
1000
0000
0010
0100
0001
1000
0001
,
0010
0100
1000
0010
1000
0001
0100
0001
,
0010
0000
0100
0000
0010
0000
0100
0000
1000
0000
0000
0001
0000
0000
1000
0000
,
0020
0030
0100
0000
,
0002
0000
0003
1000
0000
0001
0100
0100
,
0010
1000
0000
0001
0010
0100
0000
1000
,
0001
0100
0000
0010
0000
1000
0000
0001
,
0010
0100
1000
0001
1000
0010
0100
0001
,
2000
0000
0000
0000
3002
0000
0000
0000
0013
0000
0000
0100
0000
0000
1000
0000
,
0001
0001
1000
0010
0100
0100
0001
1000
,
0001
0000
0000
1000
0000
0000
0100
0000
1000
0000
0000
0010
0000
0000
0100
0000
,
0001
0000
0000
1000
0000
0000
0100
0000
0010
0000
0000
0001
0000
0000
1000
0000
,
0004
0000
0043
0000
,
0430
0000
4300
0000
,
3001
0100
0010
0100
0001
0010
0100
1000
,
0001
0100
0010
1000
0100
1000
0001
0010
,
0001
0100
0010
1000
0001
0010
0100
1000
,
0000
0010
0100
0001
0000
0010
0100
1000
,
0010
0100
0001
0010
0001
0100
0010
1000
,
0001
0010
0100
1000
0010
1000
0001
0100
,
0001
0010
0100
1000
0001
0100
0010
1000
,
0000
0100
0010
0001
0000
0100
0010
1000
,
0001
0010
0100
1000
0001
0010
0100
1000
,
0010
0100
0001
1000
0010
0100
0001
0010
,
0001
1000
0100
1000
0001
0100
0001
0010
,
0100
1000
0010
0100
0001
0010
0001
0100
,
0101
0000
0000
1000
1001
0000
0000
0000
,
0101
0000
0000
1010
0000
1001
0000
0000
,
0001
0010
0001
1000
0001
0010
0100
1000
,
0010
0100
0010
0100
0001
1000
0100
0010
,
0001
0001
1000
0010
0100
0001
0010
0100
,
1000
1000
0010
1000
0100
0010
0001
0100
,
0010
0010
1000
0001
0100
0010
1000
0002
,
0000
0013
0001
0200
0000
0310
1000
0001
,
0010
0010
0001
0100
0010
1000
0100
0010
,
0001
0001
0100
0001
0010
0100
1000
0010
,
0100
0001
1000
0100
0010
0001
0100
0010
,
1001
1001
1001
1001
,
1000
0000
0000
0001
0000
0000
0010
0000
0100
0000
0000
1000
0000
0000
0001
0000
,
0100
0000
0000
0010
0000
0000
1000
0000
0001
0000
0000
0010
0000
0000
0001
0000
,
1000
0000
0000
0001
0000
0000
0100
0000
0010
0000
0000
1000
0000
0000
0001
0000
,
0010
0000
0000
0100
0000
0000
1000
0000
0001
0000
0000
0100
0000
0000
0001
0000
,
1000
1000
0010
0100
0001
0010
0100
1000
,
0010
0010
0100
0001
0100
0010
1000
0001
,
0100
0100
0001
1000
0100
0010
0100
1000
,
0001
0001
0100
0010
1000
1000
0100
0010
,
0001
0001
0100
0010
1000
1000
0100
0020
,
0000
0000
0000
0030
;
