#TITLE:Unhappy Refrain;
#SUBTITLE:;
#ARTIST:wowaka;
#TITLETRANSLIT:;
#SUBTITLETRANSLIT:;
#ARTISTTRANSLIT:;
#CREDIT:M.L-INS;
#BANNER:../Tachyon DIVA.png;
#BACKGROUND:../Tachyon DIVA-bg.png;
#LYRICSPATH:;
#CDTITLE:;
#MUSIC:Unhappy Refrain.ogg;
#OFFSET:-0.180;
#SAMPLESTART:100.000;
#SAMPLELENGTH:12.000;
#SELECTABLE:YES;
#BPMS:0.000=205.003;
#STOPS:;
#BGCHANGES:;
// cache tags:
#FIRSTBEAT:35.500;
#LASTBEAT:421.000;
#SONGFILENAME:Songs/Tachyon DIVA/Anbs[tC[M.L-INS]/Unhappy Refrain.sm;
#HASMUSIC:1;
#HASBANNER:1;
#MUSICLENGTH:125.875;
// end cache tags

//---------------dance-single - Blank----------------
#NOTES:
     dance-single:
     Blank:
     Challenge:
     13:
     1.000,1.000,0.421,0.937,0.759,873.000,53.000,118.000,31.000,0.000:
0000
0000
0000
0000
,
0000
0000
0000
0000
,
0000
0000
0000
0000
,
0000
0000
0000
0000
,
0000
0000
0000
0000
,
0000
0000
0000
0000
,
0000
0000
0000
0000
,
0000
0000
0000
0000
,
0000
0000
0000
0000
0000
0000
0000
0110
,
0000
0001
0101
0000
1000
1010
0000
1100
,
0000
0100
0110
0000
0001
0101
0000
0011
,
0000
0001
0101
0000
0100
0110
0000
1010
,
0000
1000
1001
0000
0010
1010
0000
1100
,
0100
0010
0011
0001
0101
2001
300M
0011
,
0001
0100
0110
0100
1010
1002
M003
1010
,
0010
0100
1010
0100
0011
0210
03M0
1100
,
0001
0100
1010
0100
0001
0210
0000
0300
,
0M01
0000
0000
1000
0100
0000
0010
0000
0001
0000
0100
0000
0010
0000
1000
0000
,
0001
0000
0000
0100
0010
0000
1000
0000
0001
0000
0010
0000
0100
0000
1000
0000
,
0010
0000
0000
0100
0001
0000
1000
0000
0010
0000
0100
0000
0001
0000
0010
0000
,
0100
0000
0000
1000
0001
0000
0100
0000
0010
0000
1000
0000
0010
0000
0100
0000
,
0001
0000
0010
0100
0000
0M00
0000
1000
0100
0000
0010
0000
0001
0000
0100
0000
,
0010
0000
0000
1000
0100
0000
0010
0000
0100
0000
1000
0000
0001
0000
0100
0000
,
0001
0000
0000
1000
0010
0000
0100
0000
0001
0000
0100
0000
0010
0000
1000
0000
,
0100
0000
0000
0010
0001
0000
0100
0000
0010
0000
1000
0001
0100
0010
0100
0001
,
0010
0000
0000
0100
1000
0000
0001
0000
1000
0100
1000
0000
0001
0100
0001
0000
,
1000
0000
0000
0100
0010
0000
0001
0000
1000
0010
1000
0000
0001
0100
0001
0000
,
0010
0000
0000
0001
1000
0000
0100
0000
0010
0001
0010
0000
0100
1000
0100
0000
,
0010
0000
0000
0100
1000
0000
0001
0000
0100
0010
0100
0000
0001
1000
0001
0000
,
1000
0000
0000
0100
0010
0000
0001
0000
1000
0010
0100
0000
0001
0010
0100
0000
,
1000
0000
0000
0010
0100
0000
0001
0000
1000
0100
0010
0000
0001
0100
0010
0000
,
0100
0000
0000
0010
0100
0000
0001
0000
1000
0001
0100
0000
0001
0100
0010
0000
,
1000
0000
0101
0000
0101
0000
0010
0000
0110
0000
0002
2003
3020
0230
0302
0023
,
0130
1000
0100
0000
0010
0000
0001
0100
0001
0000
0010
0000
0100
1000
0100
0000
,
0010
0000
0001
0100
0001
0000
1000
0000
0010
0100
0010
0000
1000
0001
1000
0000
,
0001
0100
0001
0000
0010
0100
0010
0000
1000
0000
0010
0100
0010
0000
0001
0000
,
0010
0100
1000
0000
0001
0100
0010
0000
1000
0010
0100
0000
0002
0000
0000
0003
,
1000
0100
1000
0000
0001
0000
0010
0100
0010
0000
0001
0000
1000
0100
1000
0000
,
0001
0100
0001
0000
1000
0000
0001
0100
0010
0000
1000
0000
0001
0010
0100
0000
,
1000
0100
0010
0000
0001
0100
0001
0000
0010
0100
1000
0000
0001
0000
0100
0010
,
1000
0000
0001
0000
0100
0000
0010
1000
0010
0000
1000
0000
0200
0000
0000
0000
,
0320
0032
2003
3020
2030
3002
0203
0320
,
2030
3200
0320
0230
2300
0000
3001
M00M
,
0020
2030
3002
0203
0320
2030
3002
0203
,
0302
0023
0230
2300
3002
0000
1003
M00M
,
1000
0000
0000
0100
0010
0100
0010
0000
0000
0001
0100
0001
0100
0000
0000
0010
0000
0000
1000
0000
0000
0200
0000
0000
,
0000
0301
0200
0000
1300
000M
1010
1000
,
0200
0320
0032
0203
0320
2030
3002
0203
,
0000
0000
0310
0000
1000
0000
0001
0000
0100
0000
0001
0010
0001
1000
0010
0100
,
0010
1000
0100
0000
0010
0000
0001
0100
0010
0000
1000
0000
0001
0100
0010
0000
,
1000
0100
0010
0000
0001
0000
0100
0000
0010
1000
0001
0000
0100
0010
1000
0000
,
0001
0100
0010
0000
1000
0000
0100
0000
0010
0001
0100
0000
0010
1000
0100
0000
,
1000
0000
0010
0000
0100
0000
0001
0010
0100
0000
1000
0000
1001
0000
1000
0000
,
0001
1000
0100
0000
0010
0000
0001
0000
1000
0100
0010
0000
0001
0000
0100
0000
,
001M
1000
0100
000M
1000
0010
0100
0000
M001
0100
0010
M000
0100
0001
0010
0000
,
0100
0000
1000
0001
1000
0000
0100
0000
1000
0100
0010
0000
0001
0010
0100
0000
,
1000
0000
0001
0010
0100
0000
1000
0000
0001
0100
0001
0000
1001
0000
0001
0000
,
2000
0000
0000
3000
10M0
0000
0001
0000
1000
0000
0100
0000
0001
0000
1000
0000
,
0010
0000
0001
0000
1000
0000
0100
0000
0010
0000
0001
0000
0020
0000
0000
0030
,
001M
0000
0M01
1000
0001
0010
1000
0001
,
0100
1000
0001
0100
0010
1000
0020
000M
,
0130
0000
0000
0001
0100
0001
0100
0000
0000
0010
1000
0010
1000
0000
0000
0001
0000
0000
1000
0000
0000
0200
0000
0000
,
0000
1300
0010
0100
0001
0000
0101
0001
,
2000
3020
0230
0302
0023
0032
2003
3200
,
2300
0000
3002
0000
0023
0000
0230
0000
1300
0001
1000
0001
1000
0001
1000
0001
,
1000
0100
1000
0000
0110
0000
0001
0100
0001
0000
0101
0000
0010
0000
1000
0000
,
0001
0100
0001
0000
0110
0000
1000
0010
1000
0000
0100
0000
0010
0000
0001
0000
,
1000
0100
0010
0001
0200
0000
0310
0000
1000
0010
0100
0001
0020
0000
0130
0000
,
1000
0001
0010
0100
2000
0000
3010
0000
0100
0001
1000
0100
0020
0000
M030
0000
,
0001
0100
0001
0000
0110
0000
1000
0100
1000
0000
1010
0000
0010
0000
1000
0000
,
0100
0010
0100
0000
1001
0000
0010
0100
0010
0000
1000
0000
0001
0000
0100
0000
,
0010
1000
0100
0010
0002
0000
0103
0000
0010
1000
0001
0010
0200
0000
1300
0000
,
0001
0100
0010
1000
0002
0000
0103
0000
0010
1000
0100
0010
0002
0000
M003
0000
,
0100
0010
1000
0000
0101
0000
0010
1000
0100
0000
0011
0000
0001
0000
0100
0000
,
0010
0001
0100
0000
1010
0000
0100
0001
0010
0000
0101
0000
1000
0000
0010
0000
,
0100
0001
1000
0100
0020
0000
0031
0000
0100
0010
1000
0001
2000
0000
3100
0000
,
0010
0001
0100
0010
2000
0000
3001
0000
0010
0100
1000
0001
0200
0000
M300
0000
,
0001
1000
0010
0100
0002
0000
0103
0000
0010
0000
1000
0100
0010
0001
0100
0010
,
1000
0100
0010
0001
0020
0000
0130
0000
1000
0000
0001
0010
0100
1000
0020
0000
,
0130
0000
0101
0000
0110
M110
0000
1010
,
0000
0000
1001
0000
1100
0000
0011
0000
1002
0000
0000
0000
2M03
0000
0000
3000
,
0001
0000
1000
0100
0010
0000
0001
0000
0100
0000
0010
1000
0100
0000
0010
0000
,
0001
0100
0010
0000
1000
0000
0001
0010
0200
0000
0000
0000
1300
0000
0010
0000
,
0100
0000
0000
0001
0010
0100
1000
0000
0000
0001
0100
0010
1000
0000
0000
0002
0000
0000
0000
0000
0000
2003
0000
0000
,
0000
3100
1000
0001
01M0
1000
0002
0000
,
1003
0000
0100
0010
0001
0000
1000
0000
0100
0000
0010
0001
0100
0000
0010
0000
,
1000
0100
0010
0000
0001
0000
0100
0000
0020
0000
0000
0000
0130
0000
0100
0000
,
0001
0000
0000
1000
0100
0010
0001
0000
0000
1000
0010
0100
0001
0000
0000
1000
0000
0000
0010
0000
0000
0200
0000
0000
,
0000
0000
0301
0000
0010
0000
0100
0000
2000
0000
3001
0100
0001
0100
0001
0100
,
0010
0000
1000
0001
0100
0000
0010
0000
1000
0000
0001
0010
0100
0000
1000
0000
,
0100
0010
0001
0000
1000
0100
0010
0000
0001
0000
0100
0000
0010
0000
1000
0000
,
0001
0000
0000
0100
0010
1000
0100
0000
0000
0010
0001
0100
0010
0000
0000
2000
0000
0000
0000
0000
0000
3001
0000
0000
,
001M
1000
0001
0010
0100
1000
0001
0001
,
1000
0000
0001
0100
0010
0000
1000
0000
0010
0100
0001
0000
1000
0100
0010
0000
,
0001
0000
0100
0000
0010
0000
0100
0000
2002
0000
0000
0M00
0000
0000
3003
0000
,
0001
0000
0000
0010
0100
0010
0100
0000
0000
1000
0001
1000
0001
0000
0000
0200
0000
0000
0000
0000
0000
0320
0000
0000
,
0000
0000
1030
0100
1000
0001
0100
0001
0010
0100
1000
0100
0010
0001
1000
0001
,
2000
3200
0320
0032
0203
0300
00M0
0002
,
0203
0320
2030
3200
2300
3000
0M00
0002
,
0203
0320
2030
3002
0203
03M0
0000
0002
,
0023
0230
2300
3002
0203
03M0
0000
0000
,
0001
0000
0010
0000
0100
0000
1000
0001
0000
0000
0100
0000
0100
0000
0010
1000
,
0010
0100
0100
0002
0000
0013
0100
1000
,
0001
0000
0100
0000
0010
0000
1000
0100
0000
0000
0010
0000
0010
0000
0001
0000
,
1000
0000
0100
0000
1000
0000
0001
0100
0000
0000
0010
0100
0010
0100
0020
0100
,
0000
0M30
0000
0000
;
