#TITLE:Y Yo Sigo Aqui;
#SUBTITLE:;
#ARTIST:Tropi-Gollo14;
#TITLETRANSLIT:;
#SUBTITLETRANSLIT:;
#ARTISTTRANSLIT:;
#CREDIT:;
#BANNER:sigo.png;
#BACKGROUND:sigoBG.png;
#LYRICSPATH:;
#CDTITLE:;
#MUSIC:Y Yo Sigo Aqui.ogg;
#OFFSET:0.040;
#SAMPLESTART:45.420;
#SAMPLELENGTH:15.000;
#SELECTABLE:YES;
#BPMS:0.000=125.310;
#STOPS:;
#BGCHANGES:;
// cache tags:
#FIRSTBEAT:8.000;
#LASTBEAT:190.750;
#SONGFILENAME:Songs/Rodd's Revival/Y Yo Sigo Aqui (Rodd Steps)/Y Yo Sigo Aqui (Rodd Steps).sm;
#HASMUSIC:1;
#HASBANNER:1;
#MUSICLENGTH:91.899;
// end cache tags

//---------------dance-single - R. Farias----------------
#NOTES:
     dance-single:
     R. Farias:
     Challenge:
     10:
     0.902,0.960,0.000,0.892,1.000,498.000,0.000,82.000,0.000,0.000:

0000
0000
0000
0000
,
0000
0000
0000
0000
,
1000
0000
0100
0010
0000
0010
0001
0000
0100
0000
0010
1000
0000
0100
1000
0100
,
1000
0000
0100
0010
0000
0001
0100
0000
0010
0000
1000
0100
0000
0010
0100
0010
,
0100
0000
0010
0001
0000
0100
0010
0000
0100
0000
0001
1000
0000
0100
0010
0001
,
0010
0000
0100
1000
0000
0001
0100
0000
0010
0000
0100
0001
0000
1000
0100
0010
,
0200
0000
0000
0320
0000
0000
0032
0000
2003
0000
0000
3002
0000
0000
0000
0000
,
0203
0000
0000
0320
0000
0000
0130
0000
0010
1000
0000
0010
2000
0000
0000
0000
,
3100
0010
0001
0010
0100
1000
0001
0100
0010
1000
0001
0100
0010
0100
0001
1000
,
0100
1000
0001
0100
0001
1000
0100
1000
0010
1000
0001
0010
0001
0010
0001
0100
,
0010
1000
0100
1000
0010
0100
0001
0010
0001
0100
0010
0100
0001
1000
0100
0010
,
0100
0010
0000
0001
0200
0000
0320
0000
2030
0000
0000
3200
0000
0000
0000
0310
,
0001
0100
0000
0010
1000
0000
0100
0000
0020
0000
0000
0000
0000
0000
0000
0031
,
0010
0001
0000
0100
0020
0000
2030
0000
3002
0000
0000
0000
0203
0000
0300
0010
,
1000
0010
0000
1000
0001
0000
0100
0000
0020
0000
0000
0000
0000
0000
0000
1030
,
0100
0010
0000
0010
0200
0000
2300
0000
3002
0000
0000
0000
0203
0000
0300
0010
,
1000
0100
0010
0001
0020
0130
1000
0001
0100
0010
1000
0001
0200
0310
0100
0001
,
1000
0100
0010
0100
2000
3001
0100
0010
1000
0100
1000
0010
2000
3100
1000
0001
,
1000
0100
0010
0001
0020
0031
0100
0001
1000
0001
0100
0001
0020
0031
0100
0010
,
1000
0100
0010
0001
0020
0130
2000
0000
0000
0000
3002
0000
0000
0000
0000
0103
,
0010
1000
0000
0100
0020
0000
0032
0000
0203
0000
0000
0000
0000
0000
0000
0320
,
0000
2030
0000
3001
0100
0000
0020
0000
0000
0000
2030
0000
0000
0000
3000
0100
,
0010
0001
0000
0100
0020
0000
0230
0000
0302
0000
0000
0000
0000
0000
2003
0000
,
3200
0302
0203
0320
0000
0032
0100
0103
,
0100
0010
1000
0100
0010
0001
0010
0100
1000
0001
0100
0010
1000
0001
0100
0010
,
0100
0001
1000
0100
0010
0100
1000
0001
0100
0010
0100
0010
1000
0010
1000
0100
,
1000
0001
1000
0010
1000
0100
0010
0001
0010
0100
1000
0001
0100
0001
0010
0001
,
1000
0001
0100
0010
1000
0100
0010
0001
1000
0100
0010
0001
0010
0100
1000
0001
,
0010
0100
1000
0100
0010
0001
0010
0100
1000
0001
0100
0010
1000
0001
0100
0010
,
0100
0001
1000
0100
0010
0100
1000
0001
0100
0010
1000
0001
0100
0001
1000
0100
,
1000
0010
1000
0001
0010
0001
0100
0010
1000
0000
0100
0000
0010
0000
0100
0000
,
2000
0000
3002
0003
0200
0000
0310
1000
,
0100
0010
0001
0010
0100
1000
0001
0100
0010
0100
0001
1000
0100
0010
0001
0010
,
0100
1000
0001
0100
0010
1000
0100
1000
0010
0100
0001
0010
0001
0100
0010
1000
,
0100
0010
0001
0010
0100
1000
0001
0100
0010
0000
1000
0000
0100
0000
0001
0000
,
0200
0000
0320
0000
0032
0000
0103
0010
,
1000
0100
1000
0010
1000
0100
1000
0001
1000
0100
1000
0010
0100
0001
0010
0001
,
1000
0001
0100
0001
0010
0001
0100
0001
1000
0001
0100
0010
1000
0100
0010
0001
,
0010
0100
1000
0001
0100
0010
1000
0100
0010
0100
1000
0001
0100
0010
0100
0001
,
1000
0100
0010
0100
1000
0001
0100
0000
0010
0000
1000
0010
1000
0010
1000
0010
,
2000
0000
0000
0000
0000
3000
0200
0000
0320
0000
0000
0000
0000
0000
0030
0001
,
0100
0010
0000
0010
2000
0000
3002
0000
0203
0000
0000
0000
0320
0000
0000
0000
,
2030
0000
0000
0000
0000
0000
3200
0000
0320
0000
0000
0000
0030
0000
0000
0001
,
1000
0001
0000
0100
0020
0000
2030
0000
3200
0000
0000
0000
2300
0000
3000
0001
,
0100
0010
0000
0010
1000
0000
0200
0000
0302
0000
0000
0000
0000
0000
0203
0000
,
0320
0000
0032
0000
0203
0000
0320
0000
0000
0000
2030
0000
0000
0000
0000
3100
,
0010
0001
0000
0001
0100
0000
0010
0000
0200
0000
0000
0000
0000
0000
0302
0000
,
2003
0000
3200
0000
0320
0000
0032
0000
0000
0000
0203
0300
0000
0000
0000
0000
;
