#TITLE:Motteke! Serafuku;
#SUBTITLE:;
#ARTIST:Aya Hirano;
#TITLETRANSLIT:;
#SUBTITLETRANSLIT:;
#ARTISTTRANSLIT:;
#CREDIT:Darkmage;
#BANNER:mottekeserafuku-bn.png;
#BACKGROUND:mottekeserafuku-bg.png;
#LYRICSPATH:;
#CDTITLE:!darkmagetitle2.png;
#MUSIC:Motteke! Serafuku.ogg;
#OFFSET:0.900;
#SAMPLESTART:58.330;
#SAMPLELENGTH:12.340;
#SELECTABLE:YES;
#BPMS:0.000=150.000,258.500=75.000,259.000=150.000,387.000=75.000,391.000=150.000;
#STOPS:258.500=0.160
;
#BGCHANGES:0.000=mottekeserafuku-bg.png=1.000=0=0=1,
2.875=mottekeserafuku.avi=1.000=0=0=1,
624.000=mottekeserafuku-bg.png=1.000=0=0=1,
99999=-nosongbg-=1.000=0=0=0 // don't automatically add -songbackground-
;
// cache tags:
#FIRSTBEAT:4.000;
#LASTBEAT:624.000;
#SONGFILENAME:Songs/Archmage and Dark0wl Hammer of Thor UltraHyperMegaPack/Motteke! Serafuku/Motteke! Serafuku.sm;
#HASMUSIC:1;
#HASBANNER:1;
#MUSICLENGTH:105.000;
// end cache tags

//---------------dance-single - Darkmage----------------
#NOTES:
     dance-single:
     Darkmage:
     Hard:
     12:
     1.000,1.000,1.000,0.010,1.000,1960.000,243.000,1.000,0.000,0.000:
0000
0000
0000
0000
,
0101
0000
0000
0000
1010
0000
0000
0000
1100
0000
0011
0000
0000
1000
0010
0100
,
0001
0000
0010
0100
1000
0001
0000
0000
0000
0000
0110
0000
0000
0000
0110
0000
,
1001
0000
0000
0000
1100
0000
0001
0100
0000
0000
0101
0000
0000
0000
1010
0000
,
0001
0010
0000
0100
1000
0010
0100
0000
0000
0000
0101
0000
0000
0000
1010
0000
,
0110
0101
0000
0011
0110
1100
0000
1001
,
0110
0000
1001
0000
0000
0000
0101
0000
1000
0010
0000
0000
0110
0000
1100
0000
,
0011
0000
0000
0000
0000
0000
0101
0000
1010
0000
0000
0000
1100
0000
0010
0001
,
1000
0010
0100
0000
0001
0000
0010
0000
0100
0000
1000
0000
0011
0000
0000
0000
,
1000
0100
1000
0010
0100
0001
0010
0001
0100
0010
1000
0100
0010
0001
1000
0010
,
0100
0001
0010
0001
0100
0010
1000
0100
1000
0010
0100
0001
0010
0001
0100
0010
,
1000
0100
1000
0010
0100
0010
1000
0100
0010
0001
0100
0010
1000
0100
0010
0001
,
1000
0000
0100
0000
1000
0000
0010
0000
0100
0000
0001
0000
0010
0000
0001
0000
0100
0000
0010
0000
1000
0000
0100
0000
1000
0000
0001
0000
0100
0010
0100
0010
,
1000
0100
1000
0010
0100
0001
0010
0001
0100
0010
1000
0100
1000
0010
0100
0001
,
0010
0100
0010
0001
1000
0100
1000
0010
0100
0001
0010
0001
1000
0100
0010
0001
,
1000
0100
1000
0010
0100
0001
0010
0001
0100
0010
1000
0001
0100
0010
1000
0001
,
0101
0000
0000
0000
0110
0000
0000
0000
1000
0000
0100
0000
0010
0000
0001
0000
1000
0000
0010
0000
0100
0001
0100
0001
0100
0000
0010
0000
1000
0000
0001
0000
,
1001
0000
0100
0010
1000
0000
1100
0000
0010
0001
0100
0000
0010
1000
0001
0010
,
0100
0000
0000
0000
0000
0000
1000
0000
0000
0100
0000
0000
0010
0000
0000
0000
0000
0000
0001
0000
0000
0000
0010
0000
0000
0000
0100
0000
0000
0000
1000
0000
0000
0100
0000
0000
0000
0000
0000
0000
0000
0000
0110
0000
0000
0000
0000
0000
,
0001
0010
0100
0000
1010
0000
0100
0001
0010
0100
1000
0000
0100
0010
0001
1000
,
0010
0000
0000
0101
0000
0110
0000
1010
0000
1100
0000
0110
0000
0011
0000
0101
0000
0000
0000
0000
0000
0110
0000
0000
,
1001
0000
1100
0000
0011
0000
1000
0100
1000
0010
0100
0001
0010
0100
1000
0001
,
0100
0010
1000
0000
0000
0000
0001
0010
0100
0000
1100
0000
0011
0000
1001
0000
,
0100
0010
1000
0001
0010
0000
0100
1000
0000
0001
0010
0000
1100
0000
0010
0001
,
1000
0010
0100
0001
0010
0100
0010
0001
0100
0010
0100
0010
0100
0000
0000
0000
,
0010
1000
0001
0010
0001
0100
0010
1000
0100
1000
0010
0100
0001
0010
0001
0100
,
0010
1000
0010
0100
0001
0010
0001
0100
0010
1000
0100
1000
0001
0010
0001
0100
,
0010
1000
0100
1000
0010
0100
0001
0010
0001
0100
0010
1000
0100
1000
0010
0100
,
0001
0000
0010
0000
0100
0000
0010
0000
0001
0000
1000
0000
0100
0000
1000
0000
0010
0000
0100
0000
0001
0000
0010
0000
0001
0000
0100
0000
0001
1000
0001
1000
,
0001
0000
0101
0000
0101
0000
0000
0000
0110
0000
0000
1010
0000
0000
1100
0000
,
0000
0000
1010
0000
0101
0000
0000
0000
0011
0000
0000
0110
0000
0000
1100
0000
,
0000
0000
1010
0000
0101
0000
0000
0000
1100
0000
0000
0110
0000
0000
0011
0000
,
0000
0000
0101
0000
0110
0000
0000
0000
1010
0000
0000
0110
0000
0000
0101
0000
,
0000
0000
1001
0000
0000
0000
0000
0000
0101
0000
0000
0110
0000
0000
1010
0000
,
0000
0000
1100
0000
0110
0000
0000
0000
0011
0000
0000
0110
0000
0000
1100
0000
,
0011
0000
0101
0000
1010
0000
0100
0001
0100
0010
1000
0000
0101
0000
1010
0000
,
1100
0110
0011
0101
0110
1010
1100
0011
0101
0000
0000
0000
,
1000
0100
1000
0010
0100
0001
0010
0001
0100
0010
1000
0100
1000
0010
0100
0001
,
1000
0100
1000
0010
0100
0010
1000
0100
0010
0001
1000
0010
0100
0010
1000
0100
,
1000
0010
0100
0001
0010
0001
0100
0010
1000
0100
1000
0010
0100
0001
0010
0001
,
0100
0010
1000
0100
1000
0100
0010
0001
0100
0010
1000
0001
0010
0001
0100
0010
,
1000
0100
1000
0010
0100
0001
0010
0001
0100
0010
1000
0100
1000
0010
0100
0001
,
0010
0001
0100
0010
1000
0100
1000
0010
0100
0001
0010
0001
0100
0010
1000
0001
,
1000
0100
0010
0001
0010
0100
1000
0100
0010
0001
0010
0100
1000
0100
0010
0001
,
1000
0000
0100
0000
0010
0000
0001
0000
1000
0000
0100
0000
0010
0000
0001
0000
1000
0000
0100
0000
0010
0000
0001
0000
1000
0100
0010
0001
1000
0100
0010
0001
,
1000
0100
1000
0010
0100
0001
0010
0001
0100
0010
1000
0100
0010
0100
1000
0010
,
0100
0001
0010
0001
0100
0010
1000
0001
0100
0010
0100
0010
1000
0001
0010
0001
,
1000
0100
1000
0010
0100
0001
0010
0001
0100
0010
1000
0001
0010
0001
0100
0010
,
1000
0100
1000
0010
0100
0010
1000
0100
0010
0100
1000
0010
0100
0001
0010
0001
,
1000
0100
1000
0010
0100
0010
1000
0001
0010
0100
0010
0001
1000
0100
0010
0001
,
1000
0100
1000
0010
0100
0010
1000
0100
0010
0100
0010
0001
0100
0010
0100
0001
,
1000
0100
1000
0010
0100
0001
0010
0001
0100
0010
1000
0100
0010
0001
1000
0001
,
1000
0000
0100
0000
0010
0000
0001
0000
1000
0000
0010
0000
0100
0000
0001
0000
1000
0000
0100
0000
0010
0000
0001
0000
1000
0000
0010
0000
0100
0001
0100
0001
,
1000
0000
0000
0000
1100
0000
0000
0000
0011
0000
0101
0000
0000
0000
0100
0010
,
1000
0000
0000
0000
0100
0000
0000
0000
0010
0000
0000
0000
0001
0000
0000
1000
0000
0000
0010
0000
0000
0000
0000
0000
0000
0000
0000
0000
0000
0000
1001
0000
0000
0000
0000
0000
0000
0000
0000
0000
0000
0000
0101
0000
0000
0000
0000
0000
,
0110
0000
1010
0000
0000
0000
1000
0010
0100
0000
1001
0000
0000
0000
0101
0000
,
1010
0110
0101
0110
1010
0000
0000
0000
,
0001
0010
0100
0010
0001
1000
0010
0100
0010
1000
0001
0010
0100
0010
0001
1000
,
0100
1000
0010
0100
0001
0010
0100
1000
0010
0100
0001
1000
0100
0010
0001
1000
,
0010
0100
0010
1000
0001
0010
0100
0010
0001
1000
0010
0100
0010
1000
0001
0010
,
1100
0000
0000
0000
0011
0000
0000
0000
1000
0000
0100
0000
0010
0000
0001
0000
1000
0000
0001
0000
0100
0010
0100
0010
0100
0000
0010
0000
1000
0000
0001
0000
,
0101
0000
1000
0010
1000
0000
0001
0010
0100
0001
0100
0000
1000
0010
0001
0010
,
0100
0000
0000
0000
0000
0000
0010
0000
0000
1000
0000
0000
0001
0000
0000
0000
0010
0000
0000
0000
0100
0000
0000
0000
0001
0000
0000
0000
0100
0000
0000
0000
1000
0000
0000
0000
0010
0000
0000
0000
0000
0000
0110
0000
0000
0000
0000
0000
,
0001
0100
0010
0100
1000
0000
0100
0010
1000
0100
0001
0000
0100
0000
1000
0000
,
0010
0000
0101
0000
1010
0010
0000
1000
1100
0000
0011
0100
1001
0000
0110
0000
,
1010
0000
0001
0010
1000
0010
0001
0000
1000
0000
0000
0010
0100
0000
0010
1000
,
0100
0001
0100
1000
0010
0001
0010
0000
0100
0000
0000
0000
0101
0000
0110
0000
,
1010
0000
1100
0000
0010
0001
1000
0010
0100
0001
0010
0000
0100
1000
0001
0010
,
0001
0100
0010
1000
0001
0010
0100
1000
0010
0000
0000
0000
0000
0000
0101
0000
,
1010
0000
0000
0000
1100
0000
0000
0011
0000
0000
1100
0000
0000
0000
1010
0000
,
0101
0000
0000
0000
0110
0000
0000
1010
0000
0000
1100
0000
0000
0000
0011
0000
,
0101
0000
0000
0000
0110
0000
0000
0101
0000
0000
0011
0000
0000
0000
0011
0000
,
1100
0000
0000
0000
0110
0000
0000
0101
0000
0000
1010
0000
0000
0000
1001
0000
,
0000
0000
0000
0000
0101
0000
0000
0110
0000
0000
1010
0000
0000
0000
1100
0000
,
0011
0000
0000
0000
1010
0000
0000
0110
0000
0000
0101
0000
1000
0010
0100
0001
,
1000
0000
0001
0010
0100
1000
0010
0000
0101
0000
1010
0000
1100
0000
0011
0000
,
1100
0000
0000
0000
0011
0000
0000
0000
0101
0000
0000
0000
1010
0000
0000
0000
0110
0000
0000
0000
0101
0000
0000
0000
0000
0000
0000
0000
0000
0000
0000
0000
0000
0000
0000
0000
1000
0000
0000
0100
0000
0000
1000
0000
0000
0010
0000
0000
,
0100
0001
0010
0001
0100
0010
1000
0100
1000
0010
0100
0001
1000
0100
1000
0010
,
0100
0010
1000
0001
0010
0100
0010
0100
0010
0001
1000
0010
0100
0001
1000
0100
,
1000
0010
0100
0001
0010
0100
0010
0001
1000
0100
0010
0001
0100
0010
1000
0001
,
0010
0001
0100
0010
1000
0001
0100
0010
1000
0100
0010
0001
1000
0010
0100
0010
,
1000
0001
0100
0001
1000
0100
0010
0100
1000
0010
0100
0010
1000
0001
0010
0100
,
0010
0001
1000
0100
1000
0010
0100
0001
0010
0001
0100
0010
1000
0100
1000
0010
,
0100
0010
1000
0001
0010
0100
0010
0001
0010
0100
1000
0001
0100
0010
1000
0001
,
0100
0000
0010
0000
1000
0000
0001
0000
0100
0000
0010
0000
1000
0000
0001
0000
0100
0010
1000
0001
0100
0010
1000
0001
0100
0000
0010
0000
1000
0000
0100
0000
,
0010
0100
1000
0001
0100
0010
0100
0001
1000
0010
0100
0010
1000
0001
0010
0100
,
0010
0001
1000
0001
0100
0001
1000
0010
0100
0001
0010
0001
0100
0001
1000
0010
,
0100
0001
0010
0001
0100
0010
1000
0100
1000
0010
0100
0001
0010
0100
1000
0010
,
0100
0001
0010
0001
0100
0010
1000
0001
0010
0100
0010
0001
1000
0100
0010
0100
,
1000
0010
0100
0010
1000
0001
0100
0010
0100
0001
1000
0100
1000
0010
0100
0001
,
0010
0100
0010
0001
1000
0010
0100
0001
0100
0010
1000
0001
0010
0100
0010
0001
,
1000
0100
1000
0010
0100
0001
0010
0001
0100
0010
1000
0100
1000
0010
0100
0001
,
0010
0000
0001
0000
0100
0000
0010
0000
1000
0000
0100
0000
1000
0000
0010
0000
0100
0000
0001
0000
0010
0100
0010
0100
1000
0000
0000
0000
0000
0000
0000
0000
,
1100
0000
0000
0000
0011
0000
0101
0000
0000
0000
0001
0100
0010
1000
0000
0100
,
0010
0001
1000
0000
0000
0000
1001
0000
0000
0000
0100
0010
1000
0000
1100
0000
,
0000
0000
0010
0001
0100
0000
0101
0000
0000
0000
0001
0100
0010
0000
1000
0000
,
0001
0000
0000
0000
0010
0000
0000
0000
0100
0000
0000
0000
0000
0000
0000
0000
0000
0000
0000
0000
0000
0000
0000
0000
1000
0000
0000
0010
0000
0000
0100
0000
,
0000
0000
0000
0000
0000
0000
0000
0000
0000
0000
0000
0000
0000
0000
0000
0000
0000
0000
0000
0000
0000
0000
0000
0000
0001
0000
0000
0000
0000
0000
0000
0000
0000
0000
0000
0000
0000
0000
0000
0000
0000
0000
0100
0000
0000
0000
0000
0000
0000
0000
0000
0000
0000
0000
0000
0000
0000
0000
0000
0000
0010
0000
0000
0000
0000
0000
0000
0000
0000
0000
0000
0000
0000
0000
0000
0000
0000
0000
1000
0000
0000
0000
0000
0000
0000
0000
0000
0000
0000
0000
0000
0000
0000
0000
0000
0000
0100
0000
0000
0000
0000
0000
0000
0000
0000
0000
0000
0000
0000
0000
0000
0000
0000
0000
0010
0000
0000
0000
0000
0000
0000
0000
0000
0000
0000
0000
0000
0000
0000
0000
0000
0000
0001
0000
0000
0000
0000
0000
0000
0000
0000
0000
0000
0000
1001
0000
0000
0000
0000
0000
0000
0000
0000
0000
0000
0000
0000
0000
0000
0000
0000
0000
0000
0000
0000
0000
0000
0000
0100
0000
0000
0000
0000
0000
0000
0000
0010
0000
0000
0000
0000
0000
0000
0000
1000
0000
0000
0000
0000
0000
0000
0000
,
0001
0000
0000
0110
0000
0000
0001
0100
0010
1000
0000
0000
1100
0000
0000
0010
0001
1000
0100
0000
0000
0011
0000
0000
,
0100
0000
0000
0000
0000
0000
0000
0000
1000
0000
0000
0000
0000
0000
0000
0000
0001
0000
0000
0000
0000
0000
0000
0000
0010
0000
0000
0000
0000
0000
0100
0000
0000
0000
0000
0000
0010
0000
0000
0000
0000
0000
0100
0000
0000
0000
0000
0000
1000
0000
0000
0000
0000
0000
0000
0000
0000
0000
0000
0000
0000
0000
0000
0000
0000
0000
0000
0000
0000
0000
0000
0000
0000
0000
0000
0000
0000
0000
0000
0000
0000
0000
0000
0000
0000
0000
0000
0000
0000
0000
0000
0000
0000
0000
0000
0000
1100
0000
0000
0000
0000
0000
0000
0000
0000
0000
0000
0000
0000
0000
0000
0000
0000
0000
0000
0000
0000
0000
0000
0000
0000
0000
0000
0000
0000
0000
0000
0000
0000
0000
0000
0000
0000
0000
0000
0000
0000
0000
0000
0000
0000
0000
0000
0000
0011
0000
0000
0000
0000
0000
0000
0000
0000
0000
0000
0000
0100
0000
0000
0000
0000
0000
0000
0000
0000
0000
0000
0000
1000
0000
0000
0000
0000
0000
0000
0000
0000
0000
0000
0000
0010
0000
0000
0000
0000
0000
0000
0000
0000
0000
0000
0000
,
0100
0001
0010
0001
0100
0010
1000
0100
1000
0010
0100
0001
0010
0001
0100
0010
,
1000
0100
0010
0100
1000
0001
0010
0100
0010
0001
1000
0100
0010
0100
1000
0001
,
0010
0100
0010
0001
1000
0010
0100
0010
1000
0001
0100
0010
1000
0100
1000
0010
,
0100
0001
0010
0100
0010
0001
1000
0010
0100
0001
0010
0001
1000
0100
1000
0010
,
0100
0010
1000
0001
0010
0001
0100
0010
0100
0001
0010
0100
0010
0001
1000
0010
,
0100
0010
1000
0010
0100
0001
0010
0001
0100
0010
1000
0001
0100
0010
1000
0100
,
0010
0100
1000
0010
0100
0010
1000
0001
0100
0010
1000
0100
0010
0001
1000
0010
,
0100
0001
0010
0001
0100
0010
1000
0001
0010
0001
0100
0010
1000
0100
1000
0010
,
0100
0001
0010
0001
0100
0010
1000
0100
1000
0010
0100
0001
1000
0100
0010
0100
,
1000
0001
0100
0010
0100
0001
1000
0010
0100
0010
1000
0001
0010
0100
0010
0001
,
1000
0010
0100
0010
1000
0001
0010
0100
1000
0100
0010
0001
1000
0100
0010
0100
,
1000
0001
0010
0100
1000
0100
0010
0001
1000
0100
0010
0001
0010
0100
1000
0001
,
0010
0100
0010
0001
1000
0100
0010
0100
1000
0001
0100
0010
1000
0100
0010
0001
,
1000
0010
0100
0010
1000
0001
0010
0100
0010
0001
1000
0010
1001
0100
0010
1000
,
0001
0010
1100
0010
0001
1000
0010
0100
0101
0010
1000
0001
0010
0100
1001
0010
,
0001
0000
0100
0000
0010
0000
1000
0000
0101
0000
0010
0000
1000
0000
0100
0000
0110
0000
0010
0000
0001
0100
0001
0100
0010
0000
0000
0000
1010
0000
0000
0000
,
1010
0000
0000
0000
1100
0000
0000
0011
0000
0000
0101
0000
0000
0000
0110
0000
,
1010
0000
0000
0000
0101
0000
0000
0110
0000
0000
1100
0000
0000
0000
1100
0000
,
0011
0000
0000
0000
1010
0000
0000
0110
0000
0000
0101
0000
0000
0000
0011
0000
,
0110
0000
0000
0000
1100
0000
0000
0110
0000
0000
1010
0000
0000
0000
1001
0000
,
0000
0000
0000
0000
0101
0000
0000
0110
0000
0000
0101
0000
0000
0000
1100
0000
,
0110
0000
0000
0000
1010
0000
0000
0110
0000
0000
1010
0000
0101
0000
0010
1000
,
0100
0000
0000
0000
0000
0000
0011
0000
0000
0000
0000
0000
0100
0000
0000
1000
0000
0000
0001
0000
0000
0000
0000
0000
1000
0000
0000
0001
0000
0000
0010
0000
0000
0100
0000
0000
1100
0000
0000
0000
0110
0000
0000
0000
0011
0000
0000
0000
,
0101
0000
0000
0000
0110
0000
0000
0000
1010
0000
0000
0000
0110
0000
0000
0000
0101
0000
0000
0000
1001
0000
0000
0000
0000
0000
0000
0000
0000
0000
0000
0000
0000
0000
0000
0000
1000
0000
0000
0100
0000
0000
1000
0000
0000
0010
0000
0000
,
0100
0001
0010
0001
0100
0010
1000
0100
1000
0010
0100
0001
1000
0100
1000
0010
,
0100
0010
1000
0001
0100
0010
0100
0001
0010
0001
0100
0010
1000
0100
0010
0100
,
1000
0001
0100
0010
0100
0001
1000
0010
0100
0010
1000
0001
0100
0010
0100
0001
,
0010
0100
0010
0001
1000
0100
0010
0100
1000
0001
0100
0010
1000
0100
0010
0100
,
1000
0001
0100
0010
0100
0001
1000
0010
0100
0010
1000
0001
0100
0010
1000
0001
,
0010
0001
0100
0010
1000
0100
1000
0010
0100
0001
0010
0001
1000
0100
1000
0010
,
0100
0010
1000
0001
0100
0010
0100
0001
0010
0001
0100
0010
1000
0100
0010
0001
,
1000
0100
0010
0001
1000
0100
0010
0001
1000
0100
0010
0001
1000
0100
1000
0010
,
0100
0010
1000
0001
0100
0010
0100
0001
0010
0100
0010
0001
1000
0100
1000
0010
,
0100
0010
1000
0001
0100
0010
1000
0100
0010
0100
1000
0001
0100
0010
1000
0001
,
0010
0100
0010
0001
1000
0100
0010
0001
1000
0100
1000
0001
0010
0100
0010
0001
,
1000
0010
0100
0010
1000
0100
0010
0001
0010
0100
0010
0001
1000
0010
0100
0001
,
0010
0001
0100
0010
1000
0100
0010
0001
1000
0010
0100
0010
1000
0001
0100
0010
,
1000
0001
0010
0001
0100
0010
1000
0100
1000
0010
0100
0001
0010
0100
0010
0001
,
1000
0100
1000
0100
1000
0010
0100
0001
0010
0001
0010
0001
1000
0100
0010
0100
,
1000
0000
0010
0000
0100
0000
0001
0000
0010
0000
0001
0000
0100
0000
0010
0000
1000
0000
0001
0000
0010
0100
1000
0001
0010
0000
0100
0000
0001
0000
0100
0000
,
1000
0010
0100
0010
0001
0010
0100
0010
1000
0001
0010
0100
0001
0100
1000
0010
,
0100
0010
1000
0100
0010
0100
0001
0100
1000
0001
0100
1000
0100
0010
0100
0010
,
0001
0010
0100
0010
1000
0010
0100
0001
0100
0010
0100
1000
0100
0010
1000
0100
,
0010
0100
0001
0100
0010
1000
0010
0100
0010
0001
1000
0010
0100
0001
0010
1000
,
0010
0001
1000
0010
0001
0010
1000
0100
1000
0010
0100
0001
1000
0100
0001
0100
,
1000
0010
0100
0010
0001
0010
0100
0010
1000
0001
0010
0100
0010
0100
0001
0100
,
1000
0010
0100
0001
0010
0100
0010
0001
1000
0010
0001
1000
0100
0010
1000
0100
,
0001
0000
1000
0000
0010
0000
0001
0000
1000
0000
0010
0000
0100
0000
0001
0000
0100
0000
0010
0000
1000
0001
1000
0001
1000
0000
0000
0000
0000
0000
0000
0000
,
0110
0000
0000
0000
1100
0000
0011
0000
0000
0000
0100
0010
1000
0001
0000
1000
,
0001
0010
0100
0000
0000
0000
0110
0000
0000
0000
1010
0000
0101
0000
0000
0000
,
0011
0000
1000
0100
0000
0000
1010
0000
0000
0000
0101
0000
0010
1000
0000
0001
,
0010
0100
1000
0000
0000
0000
1001
0000
0000
0000
0110
0000
0101
0000
1010
0000
,
0000
1100
0110
0011
0000
1010
0110
0101
,
0000
0000
0101
0000
0010
1000
0100
0010
0001
0000
1100
0000
0011
0000
0000
0000
,
0000
0000
0101
0000
1010
0000
0000
0000
1100
0000
0001
0010
0001
1000
0010
0000
,
0100
0001
0010
0100
2000
0000
0000
0000
,
3000
0000
0000
0000
;

//---------------dance-single - Darkmage----------------
#NOTES:
     dance-single:
     Darkmage:
     Challenge:
     19:
     1.000,1.000,1.000,0.038,1.000,2247.000,732.000,4.000,0.000,2.000:
0000
0000
0000
0000
,
1100
1000
0001
0100
0101
0001
1000
0010
1010
0000
0101
0000
0000
0000
1000
0100
,
0011
0000
0000
0011
0110
1100
0110
0000
0000
0000
1010
0000
0000
0000
0101
0000
,
1010
1000
0010
0100
0110
0010
0100
0001
0101
0000
1010
0000
0000
0000
0011
0000
,
1000
0000
0001
0000
0000
0000
1100
0000
0110
0000
0011
0000
1100
0000
0000
0000
0000
0000
0000
0000
1000
0010
0100
0001
0100
0010
1000
0010
0100
0001
0100
0010
,
1010
1100
0001
0101
0011
0101
1000
1010
,
1100
0000
1010
0000
0010
0000
1010
0000
1000
0001
0000
0000
1100
0000
1010
0000
,
0101
0000
0000
0000
1100
0000
0011
0000
0110
0000
0000
0000
1100
0000
0011
0001
,
1010
0110
1010
0110
0101
0110
1010
0000
,
1010
0001
0101
0100
0010
1010
1000
0001
0011
0010
0110
0100
1000
0001
0100
0010
,
0100
0001
1100
0010
0100
0011
0100
1000
0001
0100
1010
0100
1001
0001
0110
1000
,
0100
0010
0011
0001
0100
0110
0010
1000
1100
0100
0110
0010
0001
1000
0001
0100
,
1010
0000
0100
0000
0011
0000
0100
0000
0010
0000
1100
0000
0010
0000
0101
0000
1100
0000
0100
0000
0010
0000
0001
0000
1000
0100
0010
0001
1000
0100
0010
0001
,
1100
0100
0011
0001
0100
0101
0001
1000
1010
0010
0110
0100
0001
1000
0001
0100
,
0010
1000
0011
0100
1000
0110
1000
0001
0110
0001
1010
0100
0011
0100
1010
0001
,
1010
0001
0100
0001
1010
0001
1100
0110
0011
1000
0101
0010
1000
1000
0100
0001
,
0101
0000
0000
0000
0110
0000
0000
0000
1000
0000
0100
0000
0010
0000
0001
0000
1000
0000
0001
0000
1000
0001
0100
0010
1000
0000
0001
0000
0010
0000
0100
0000
,
1001
0001
1000
0000
0010
0000
1000
0001
0010
0100
1000
0000
0010
0001
1000
0010
,
0100
0000
0000
0000
0000
0000
0010
0000
0000
1000
0000
0000
0001
0000
0000
0000
0000
0000
0110
0000
0000
0000
1010
0000
0000
0000
1100
0000
0000
0000
0011
0000
0000
1100
0000
0000
0000
0000
0000
0000
0000
0000
1100
0000
0000
0000
0000
0000
,
0010
1000
0001
0000
1100
0000
0010
0000
0001
0100
0010
0000
1100
0001
1010
0001
,
0110
0000
0000
1010
0000
0110
0000
0101
0000
0011
0000
0110
0000
1010
0000
1001
0000
0000
0000
0000
0000
0110
0000
0000
,
1010
0000
0110
0000
0101
0000
1000
0100
0001
0100
1000
0010
1000
0001
0010
0100
,
1000
0001
0100
0000
0010
0010
1000
0000
1010
0000
1001
0000
0101
0000
0011
0000
,
1100
1000
0001
0100
0110
0000
1010
0110
0000
0110
1010
0000
0101
0000
0011
1000
,
0100
0010
0110
1000
0001
0100
0101
0001
0011
0011
0011
0011
0011
0000
0000
0000
,
1100
0100
0010
0001
0010
0100
0001
0100
1100
1000
0100
0010
0100
1000
0100
0010
,
0011
0010
0100
1000
1100
1000
0001
0010
0011
0010
0100
1000
1100
0100
0010
0001
,
0011
0010
0001
0010
0100
0010
0001
0010
0110
0100
1000
0100
0010
0100
1000
0100
,
1100
0000
0100
0000
0010
0000
0100
0000
0110
0000
0010
0000
0100
0000
0010
0000
0011
0000
0001
0000
0010
0000
0001
0000
0011
0000
0001
0000
0010
0100
0010
0100
,
0110
0001
0110
1000
0110
0100
1000
0100
1100
1000
0010
0110
0100
0001
0011
0010
,
0001
1000
0011
0010
0110
0100
1000
0010
0011
1000
0100
0110
0010
0001
1100
0100
,
1000
0001
1010
1000
1010
0010
0100
0001
0101
0100
0010
0110
0100
0010
1010
1000
,
0001
0010
1100
0100
1010
1000
0010
0100
1100
0010
1000
0110
0010
0100
0011
0000
,
0000
0000
0101
0010
0001
0100
0010
1000
0101
0001
0010
0110
0100
1000
1010
0010
,
1000
0100
1100
1000
1100
0100
1000
0010
0110
0100
0001
0011
0010
0001
1100
0100
,
1100
0000
1010
0000
1001
0000
0001
0100
0011
0000
1100
0000
1010
0000
0101
0000
,
1000
0010
0100
0001
0010
0001
0100
0010
1000
0100
1000
0010
0100
0001
0010
0001
0100
0010
1000
0010
0001
0010
0100
0001
0010
0100
0001
0100
1000
0010
0100
0001
,
1000
0100
0011
0100
1000
0001
1010
0001
1100
0001
0100
0010
1010
0001
1100
0010
,
0100
1000
1100
0001
1010
0100
0101
0010
1010
0100
0001
1000
0011
0100
1010
0100
,
1000
0001
0110
1000
0101
0010
1100
0001
1010
0100
0011
0100
1010
0001
1100
0001
,
0100
0010
1100
0001
0010
0100
0010
0001
1000
0001
1100
0010
1000
0100
0011
0100
,
0010
0001
1000
0001
1010
0100
0011
0100
1000
0001
0100
0001
0101
1000
1100
0010
,
0100
0010
1100
0010
0001
0100
0101
0010
1000
0100
1000
0010
1010
0100
0001
1000
,
1100
0010
0100
0010
1100
1000
0011
0001
0100
0010
0100
0001
1000
0100
0010
0100
,
1000
0000
0001
0000
0100
0000
0010
0000
1010
0000
1010
0000
1010
0000
1010
0000
1010
0000
1010
0000
1010
0000
1010
0000
1000
0010
1000
0010
1000
0010
1000
0010
,
1010
1000
1001
0001
0101
0100
0110
0010
1010
1000
0001
1000
1100
0001
0101
0100
,
0001
0010
0011
0001
0101
0010
1010
0100
0101
0010
0100
0001
1010
0010
1100
1000
,
0001
1000
1010
0100
0101
0010
1010
0100
0101
0001
0010
0001
0011
0001
1010
0100
,
0010
1000
1100
0100
1000
0001
0100
0010
0100
0001
1010
1000
1100
0100
0110
0010
,
0001
0100
0010
0100
0101
0001
1010
0001
0100
0010
0100
0001
0110
0100
0110
0010
,
1000
0100
1100
0100
1000
0001
1100
0010
0100
0001
0010
0100
0011
0100
0010
0001
,
1010
0100
0001
1000
1100
0100
1100
1000
0001
0100
0010
0100
0001
1000
0100
1000
,
1010
0000
0010
0000
0110
0000
0100
0000
0101
0000
0110
0000
1010
0000
1100
0000
1010
0000
0110
0000
1010
0000
0101
0000
0100
0001
0100
0001
0100
0001
0100
0001
,
1010
0000
1100
0000
0011
0101
0000
0101
,
1100
0000
0000
0000
0110
0000
0000
0000
0011
0000
0000
0000
1000
0000
0000
0001
0000
0000
0100
0000
0000
0000
0000
0000
0000
0000
0000
0000
0000
0000
1001
0000
0000
0000
0000
0000
0000
0000
0000
0000
0000
0000
0101
0000
0000
0000
0000
0000
,
0110
0000
1010
0000
0012
0000
1013
0110
0101
0000
0011
0000
1200
0000
0311
0000
,
1100
0110
1100
0110
0101
0000
1001
0000
,
1100
0100
0011
0010
0001
0101
0100
0010
1010
1000
0101
0001
0101
0110
0010
1000
,
0100
1000
1100
0100
1000
1010
0001
0100
0101
0010
1010
1000
1100
0100
0110
0010
,
0001
0010
0100
0010
0001
1000
0110
1010
0101
0001
1100
0100
0010
0100
0000
0010
,
0011
0000
0000
0000
0011
0000
0000
0000
1000
0000
0010
0000
0100
0000
0001
0000
1000
0100
0010
0001
1000
0010
0100
0001
1000
0000
0010
0000
0000
0000
0100
0000
,
0101
0100
0010
1000
0010
0000
0100
0001
0010
0001
0100
0000
0010
1000
0001
0010
,
0100
0000
0000
0000
0000
0000
1000
0000
0000
0100
0000
0000
0011
0000
0000
0000
0101
0000
0000
0000
1010
0000
0000
0000
1100
0000
0000
0000
0110
0000
0000
0000
0101
0000
0000
0000
0011
0000
0000
0000
0000
0000
1100
0000
0000
0000
0000
0000
,
0001
0100
1000
0100
0010
0000
0100
0010
1000
0001
0010
0000
1100
0000
0011
0000
,
1100
0000
1010
0000
0101
0110
0000
1010
0110
0000
1001
0100
0101
0000
0110
0000
,
1010
0000
1000
0010
0100
0010
0001
0000
0010
0000
0100
0010
0000
1000
0100
0010
,
0001
0010
0100
0001
0110
0000
0001
0000
1010
0000
0000
0000
0101
0000
0110
0000
,
0101
0000
0110
0000
0100
0010
1000
0010
0100
0001
0000
1000
0100
0010
0001
0010
,
0100
1000
0001
1000
0101
0101
0101
0101
0101
0000
0000
0000
1010
0010
1010
1000
,
1010
0010
0100
0001
0101
0010
1000
1010
0001
0100
0110
0001
1000
0100
0110
0010
,
0110
0100
1000
0001
1010
0100
0010
1010
0100
0001
1100
0100
1000
0010
1010
1000
,
1100
0100
0010
0100
0110
0010
0001
0101
0100
0010
1010
1000
0001
0100
0110
0010
,
1010
1000
0100
1000
0110
1000
0010
1010
0100
0001
0011
0000
0000
0000
0110
0010
,
0100
0001
0010
0001
0101
0100
0010
1100
0010
0100
0101
0001
0010
0001
0101
0100
,
0110
0010
1000
0001
1010
1000
0100
1100
1000
0010
1010
0100
0101
0110
1010
0110
,
0101
0000
0000
0000
0011
0000
0110
0000
0011
0000
0110
0000
1100
0000
0000
0000
1010
0000
0000
0000
0101
0000
0000
0000
1000
0010
0100
0001
0100
0010
1000
0010
,
1000
0100
0010
0001
0010
0100
0010
0001
1000
0010
0100
0001
0100
0010
1000
0010
0100
0001
0010
0100
0010
0001
1000
0010
0110
0000
0100
0000
1100
0000
1000
0000
,
0001
0100
0101
0001
0011
0010
0001
0100
0101
0010
0110
0100
0010
1000
1010
0010
,
0110
0100
0101
0001
1001
0100
0001
0100
1010
1000
0101
0001
0010
0100
0011
0001
,
1100
1000
1010
0010
0110
0100
0110
0010
1010
1000
1001
0001
0010
0001
1100
0100
,
1000
0100
0010
0100
0001
0100
1100
1000
0001
0100
0110
0010
1000
0001
0010
0100
,
0011
1000
0011
1000
0001
0010
0001
0100
0101
0001
0110
0100
0010
1000
1010
0010
,
1000
0100
1100
1000
0010
0100
0010
1000
0011
0100
0010
0001
1100
1000
0100
0010
,
0011
0001
1100
0100
1000
0010
0100
0001
0010
0001
0100
0010
1000
0100
0010
0001
,
1100
0000
1100
0000
1100
0000
1100
0000
1100
0000
1100
0000
1100
0000
1100
0000
1000
0100
1000
0100
1000
0100
1000
0100
0011
0000
0100
0000
0011
0000
0100
0000
,
0010
0001
1010
0001
0101
0100
0010
1000
1100
0100
0110
0010
0001
0100
0110
0010
,
1000
0001
0101
0100
0110
0010
1010
1000
1100
0100
0101
0001
0100
1000
1010
0010
,
0100
0001
1100
0010
0110
1000
0001
0010
0011
1000
1100
0100
0010
0100
1100
1000
,
0001
0100
0010
0100
0001
1000
1010
0010
1100
0100
0011
0001
1000
0010
1000
0001
,
0101
0100
0011
0100
0010
0100
0010
0001
1100
0010
1010
0100
0010
1000
0110
1000
,
0100
1000
0011
0100
1000
0001
0100
0010
0101
0001
0100
0010
1010
1000
0100
1000
,
1010
0100
0101
0001
0100
0010
1000
0100
0010
0100
1000
0010
0100
0001
0010
0100
,
1100
0000
0110
0000
0011
0000
0110
0000
1010
0000
0110
0000
0101
0000
0110
0000
1000
0010
1000
0010
1000
0010
1000
0010
0101
0000
0000
0000
0000
0000
0000
0000
,
1100
0000
0000
0000
0000
0000
0000
0000
0000
0000
0000
0000
1010
0000
0000
0000
0000
0000
0011
0000
0000
0000
0000
0000
0000
0000
0000
0000
0000
0000
1100
0000
0000
0110
0000
0000
0011
0000
0000
0000
0000
0000
1010
0000
0000
0000
1100
0000
,
0000
0000
0110
0000
0000
0000
0011
0000
0000
0000
0000
0000
0000
0000
0000
0000
0000
0000
1100
0000
0000
0000
0000
0000
0000
0000
0000
0000
0000
0000
1100
0000
0000
1100
0000
0000
1010
0000
0000
0000
0000
0000
0001
0000
0000
0000
0000
0000
,
0101
0000
0011
0011
0101
0000
1000
0000
1100
0000
1010
0110
0101
0000
0110
0000
,
1010
0000
0000
0000
0110
0000
0000
0000
0101
0000
0000
0000
0000
0000
0000
0000
0101
0000
0000
0000
0000
0000
0000
0000
1100
0000
0000
0110
0000
0000
0011
0000
,
0000
0000
0000
0000
0000
0000
0000
0000
0000
0000
0000
0000
1000
0000
0000
0000
0000
0000
0010
0000
0000
0000
0000
0000
0101
0000
0000
0000
0000
0000
0000
0000
0000
0000
0000
0000
0000
0000
0000
0000
0000
0000
0110
0000
0000
0000
0000
0000
0000
0000
0000
0000
0000
0000
0000
0000
0000
0000
0000
0000
1010
0000
0000
0000
0000
0000
0000
0000
0000
0000
0000
0000
0000
0000
0000
0000
0000
0000
1100
0000
0000
0000
0000
0000
0000
0000
0000
0000
0000
0000
0000
0000
0000
0000
0000
0000
0011
0000
0000
0000
0000
0000
0000
0000
0000
0000
0000
0000
0000
0000
0000
0000
0000
0000
0101
0000
0000
0000
0000
0000
0000
0000
0000
0000
0000
0000
0000
0000
0000
0000
0000
0000
1001
0000
0000
0000
0000
0000
0000
0000
0000
0000
0000
0000
1010
0000
0000
0000
0000
0000
0000
0000
0000
0000
0000
0000
0000
0000
0000
0000
0000
0000
0000
0000
0000
0000
0000
0000
1000
0000
0000
0000
0000
0000
0000
0000
0100
0000
0000
0000
0000
0000
0000
0000
0010
0000
0000
0000
0000
0000
0000
0000
,
0001
0000
0000
0011
0000
0000
0001
0010
0100
1000
0000
0000
1010
0000
0000
1000
0010
0100
0001
0000
0000
0011
0000
0000
,
0001
0000
0000
0000
0000
0000
0000
0000
0010
0000
0000
0000
0000
0000
0000
0000
0100
0000
0000
0000
0000
0000
0000
0000
1000
0000
0000
0000
0000
0000
0100
0000
0000
0000
0000
0000
0010
0000
0000
0000
0000
0000
0001
0000
0000
0000
0000
0000
1100
0000
0000
0000
0000
0000
0000
0000
0000
0000
0000
0000
0000
0000
0000
0000
0000
0000
0000
0000
0000
0000
0000
0000
0000
0000
0000
0000
0000
0000
0000
0000
0000
0000
0000
0000
0000
0000
0000
0000
0000
0000
0000
0000
0000
0000
0000
0000
0011
0000
0000
0000
0000
0000
0000
0000
0000
0000
0000
0000
0000
0000
0000
0000
0000
0000
0000
0000
0000
0000
0000
0000
0000
0000
0000
0000
0000
0000
0000
0000
0000
0000
0000
0000
0000
0000
0000
0000
0000
0000
0000
0000
0000
0000
0000
0000
1001
0000
0000
0000
0000
0000
0000
0000
0000
0000
0000
0000
0100
0000
0000
0000
0000
0000
0000
0000
0000
0000
0000
0000
1000
0000
0000
0000
0000
0000
0000
0000
0000
0000
0000
0000
0010
0000
0000
0000
0000
0000
0000
0000
0000
0000
0000
0000
,
0100
0001
0010
0001
0100
0010
1000
0001
0010
0001
0100
0010
1000
0010
0100
0001
,
0010
0100
1000
0100
0010
0100
0010
0001
1000
0010
0100
0001
0100
1000
0100
0010
,
1000
0100
0001
0100
1000
0010
0001
0010
0100
0001
0010
0100
0010
0001
1000
0010
,
0100
1000
0100
0010
1000
0001
0010
1000
0010
0100
1000
0001
1001
1000
0100
1000
,
0010
0100
0001
0010
0001
0100
0010
1000
0001
0010
0100
1000
1100
0100
1100
1000
,
0011
0001
0011
0010
0001
0100
0010
1000
0010
0100
0001
0010
0100
0001
0100
0010
,
0001
1000
0001
0100
0001
0010
0100
0010
0001
1000
0010
0001
0010
0100
0010
1000
,
1100
0001
0101
1000
1100
0001
0101
1000
1010
0001
0011
1000
1010
0010
0100
0001
,
0010
0001
0100
0010
1000
0001
1000
0001
0100
0010
1000
0001
0010
0001
0100
0010
,
1000
0100
1000
0010
0100
0010
1000
0001
0010
0100
0010
0001
1000
0001
0100
0010
,
1000
0001
0010
0100
1000
0100
1000
0010
0101
0101
0101
0101
0101
0101
0101
0101
,
0101
0100
0010
1000
0010
0100
0001
1000
0001
0010
0001
0100
0010
1000
1100
0010
,
0100
0001
1000
0100
1000
0010
0100
0001
1000
0100
1000
0010
0100
0010
1000
0010
,
0100
0001
0010
0100
0010
0001
1000
0010
0100
0001
1000
0100
1100
0010
0001
0010
,
0100
1000
0011
0011
0011
0011
0011
0011
0011
0100
1000
0001
0100
0010
1010
1000
,
0001
0000
0010
0000
0001
0000
0100
0000
0110
0000
0010
0000
1000
0000
0001
0000
1000
0100
1000
0100
1000
0100
1000
0100
0011
0000
0000
0000
1010
0000
0000
0000
,
1010
0100
0001
1000
1100
0100
1000
0011
0001
0100
1001
0001
0010
0100
0101
1000
,
1010
0010
0100
0001
0101
0100
0010
0110
0100
0010
1010
0001
1000
0100
0110
0010
,
0011
0001
1000
0001
0110
0001
1000
1100
0100
0010
0011
1000
0001
0100
0101
0010
,
0110
1000
0001
1000
1100
0100
1000
0110
1000
0100
0011
0001
0100
0010
1001
0000
,
0000
0000
0000
0000
1100
0100
0010
0011
0001
0010
0110
0100
1000
0001
0101
1000
,
0110
1000
0001
0010
1100
0010
0001
1010
0001
0100
1010
0100
0011
0000
1100
0110
,
0011
0000
0000
0000
0000
0000
1010
0000
0000
0000
0000
0000
0101
0000
0000
0110
0000
0000
1010
0000
0000
0000
0000
0000
1100
0000
0000
0000
0110
0000
0000
0000
0011
0000
0000
0000
1100
0000
0000
0000
1010
0000
0000
0000
0101
0000
0000
0000
,
0011
0000
0000
0000
1100
0000
0000
0000
1010
0000
0000
0000
0101
0000
0000
0000
0110
0000
0000
0000
0000
0000
0000
0000
1001
0000
0000
0000
0000
0000
0000
0000
0000
0000
0000
0000
1100
0000
0000
0100
0000
0000
0011
0000
0000
0100
0000
0000
,
1000
0001
1010
0001
1100
0001
0100
0010
1010
1000
1100
0100
0010
0001
0011
0001
,
1001
1000
1010
0010
0110
0100
0001
0100
0110
0010
1010
1000
0001
0010
0011
1000
,
0110
1000
0101
0010
0110
1000
0011
1000
0110
1000
0101
0001
0100
0010
1010
1000
,
0100
0010
0100
1000
0001
0100
0110
1000
0100
1000
0110
1000
0001
0100
0010
1000
,
0110
1000
1100
0100
1000
0001
0100
0010
1010
1000
0101
0001
0100
0010
0110
0100
,
0001
1000
0110
1000
0100
1000
0010
0100
0101
0010
0100
0001
1100
1000
0010
0100
,
0011
0001
0101
1000
0100
1000
0010
0100
0001
0010
0100
0001
0100
1000
0010
0001
,
1000
0100
0010
1000
0001
0010
1000
0001
0100
1000
0010
0100
0001
1000
1100
0100
,
0110
0100
1100
0100
0110
0010
0001
0100
0101
0001
0011
0100
1000
0001
1100
0100
,
0110
0010
0011
0001
0101
0100
0010
0100
0110
0010
1100
0010
0100
0001
1010
1000
,
0110
0010
0011
0100
1010
1000
0100
1000
0110
0001
0110
0100
0010
1000
0101
0100
,
0010
1000
0001
0010
0100
0010
0011
0100
1100
0010
0011
1000
0001
1000
0010
0100
,
0110
0010
1010
1000
0100
1000
0001
0100
0101
0010
0110
0100
0010
1000
0101
1000
,
0100
0010
0011
1000
0100
1000
0010
0100
1100
1000
0001
0100
1001
0100
0010
1000
,
0110
0001
0110
1000
0100
0010
0001
0010
0100
1000
0001
0010
1100
1000
0011
0001
,
1010
0000
0101
0000
1000
0000
0110
0000
0101
0000
1000
0000
0110
0000
0001
0000
1000
0100
0010
0001
1000
0010
0100
0001
1100
0000
1000
0000
0110
0000
1000
0000
,
0100
1000
0101
0010
0101
1000
0010
0001
1010
0100
0101
0010
0100
0010
1100
1000
,
0110
0100
0011
0001
1100
1000
0010
0100
0101
0010
0110
0100
0010
1000
1001
0001
,
0101
0001
0110
0010
0110
0010
0101
0100
0101
0100
1010
0010
1000
0100
1100
0100
,
0010
0001
0010
0100
0001
0100
0110
0010
0001
1000
0101
0100
0010
1000
0010
0100
,
0110
0010
1010
1000
0100
1000
0001
0100
0101
0010
1010
1000
0100
0001
1001
1000
,
0010
0001
1001
1000
0100
0010
0001
0010
0110
0100
1000
0001
0101
0100
0010
1000
,
1010
0010
1100
1000
0100
1000
0010
0100
0001
0010
0100
0001
1010
1000
0100
1000
,
0001
0000
0001
0000
0100
0000
0100
0000
1000
0000
1000
0000
0010
0000
0010
0000
1000
0001
1000
0001
0100
0010
0100
0010
1001
0000
0000
0000
0000
0000
0000
0000
,
0101
0000
0000
0000
1010
0000
0101
0000
0000
0000
0010
0001
1000
0000
0000
1001
,
0110
1001
0110
0000
0000
0000
1001
0000
0000
0000
1010
0000
1100
0000
0000
0000
,
0001
0000
0000
0110
1010
0000
1100
0000
0000
0000
0101
0000
1010
0000
0000
0011
,
1100
0000
0110
0000
0011
0000
0000
0000
0000
0000
0000
0000
1000
0100
0010
0001
1000
0010
0100
0001
0010
0100
1000
0001
1001
0000
0000
0000
0101
0000
0000
0000
,
1000
1010
1100
1010
0001
0101
0011
1100
,
0001
0000
0110
0000
1010
0110
0101
0110
1010
0000
1100
0000
0011
0000
0000
0000
,
1000
0000
0101
0000
1010
0000
0000
0000
0101
0000
0110
1010
0110
0101
0110
0110
,
1010
0110
0101
0110
2002
0000
0000
0000
,
3003
0000
0000
0000
;
