#TITLE:Z;
#SUBTITLE:;
#ARTIST:one five;
#TITLETRANSLIT:;
#SUBTITLETRANSLIT:;
#ARTISTTRANSLIT:;
#CREDIT:;
#BANNER:z_b.jpg;
#BACKGROUND:z.jpg;
#LYRICSPATH:;
#CDTITLE:cdtitle.png;
#MUSIC:z.mp3;
#OFFSET:-0.481;
#SAMPLESTART:65.000;
#SAMPLELENGTH:12.000;
#SELECTABLE:NO;
#DISPLAYBPM:*;
#BPMS:0.000=400.000,64.000=800.000,80.000=400.000,208.000=90.000,224.000=399.998,294.000=799.996,296.000=399.998,314.000=799.996,316.000=399.998,328.000=800.012,336.000=399.998,340.000=200.000,342.000=49.999,342.500=24.999,343.000=399.998,472.000=99.999;
#STOPS:288.250=0.460
,290.250=0.160
,291.250=0.160
,293.250=0.140
,299.250=0.300
,301.250=0.300
,303.250=0.300
,305.250=0.140
,308.250=0.440
,310.250=0.160
,311.250=0.160
,313.250=0.140
,319.250=0.300
,321.250=0.300
,323.250=0.300
,325.250=0.140
,343.000=1.060
;
#BGCHANGES:;
// cache tags:
#FIRSTBEAT:32.000;
#LASTBEAT:489.250;
#SONGFILENAME:Songs/Japanese Collaboration Mix/z/z.sm;
#HASMUSIC:1;
#HASBANNER:1;
#MUSICLENGTH:99.657;
// end cache tags

//---------------dance-single - Copied from Challeng----------------
#NOTES:
     dance-single:
     Copied from Challeng:
     Challenge:
     12:
     0.949,1.000,0.512,0.763,0.246,535.000,51.000,76.000,0.000,0.000:
0000
0000
0000
0000
,
0000
0000
0000
0000
,
0000
0000
0000
0000
,
0000
0000
0000
0000
,
0000
0000
0000
0000
,
0000
0000
0000
0000
,
0000
0000
0000
0000
,
0000
0000
0000
0000
,
1000
0010
0100
0010
,
1000
0010
0100
0010
,
1000
0001
0010
0100
,
0010
0001
0010
0100
,
1000
0100
0010
0100
,
1000
0100
0010
0100
,
1000
0001
0100
0010
,
0100
0001
0100
0010
,
2002
0000
0000
0000
,
0000
0000
0000
0000
,
0000
0000
0000
0000
,
0000
0000
0000
3003
,
0001
0100
0001
0100
,
0010
0100
0001
0100
,
0001
0010
0100
1000
,
0001
0000
0010
0000
0100
0000
1000
0010
,
1000
0100
1000
0100
,
0010
0100
1000
0001
,
0100
0010
1000
0001
,
1000
0000
0100
0000
0010
0001
0010
0000
,
0110
1000
0001
0100
,
0001
1000
1000
0100
,
0010
0001
0100
0001
,
0010
0000
0001
0000
0100
0000
0001
1000
,
0001
0010
0001
0010
,
0100
0010
0001
1000
,
0010
0100
0001
0100
,
0010
1000
0010
0000
0101
0000
0110
0000
,
0001
1000
0010
1000
,
0200
0010
1300
1010
,
0001
0100
0001
1000
,
0020
1000
0130
1010
,
0001
0100
0010
0100
,
0002
1000
0013
0110
,
0001
1000
0001
0000
0110
0000
0110
0000
,
2001
0000
0002
3000
1003
0000
0010
0100
,
0010
0000
0100
0000
0010
0000
1000
0001
,
2000
0000
0010
0000
3100
0000
0001
0100
,
0001
0100
0010
1000
,
0002
0000
0010
0000
0103
0000
0010
0100
,
0010
0000
0100
0010
0100
0000
0110
0000
,
0010
0100
0010
0000
1001
0000
1000
0001
,
1000
0000
1001
0000
0001
1000
0001
0000
,
1001
1010
0110
1001
,
0100
0000
0010
0000
0001
0000
1000
0000
0010
0000
1000
0000
0001
0010
0001
0000
0100
0000
0010
0000
1000
0000
0001
0000
0100
0000
0010
0000
1000
0010
1000
0000
,
0001
0000
1000
0000
0010
0000
1000
0000
0001
0000
0100
0000
0010
0100
0010
0000
1000
0000
0001
0000
0100
0000
0001
0000
1000
0000
0010
0000
1000
0001
1000
0001
,
1000
0000
0100
0000
0010
0000
0001
1000
0001
0000
0010
0000
0100
1000
0100
0000
0010
0001
0010
0000
0100
0000
1000
0010
1000
0000
0100
0000
0010
1000
0010
0000
,
1000
0100
1000
0000
0001
0000
0100
0000
0001
0100
0001
0000
1000
0000
0100
0000
1000
0100
1000
0000
0001
0010
0001
0000
0100
0001
0100
0010
1000
0010
1000
0000
,
0001
0100
0010
0100
,
1000
0010
0100
0001
,
1000
0100
1000
0001
,
0010
0100
1000
1000
,
0001
0100
0010
0100
,
0001
0010
0100
1000
,
0001
0100
0001
1000
,
0010
0000
0100
0000
0202
0000
0000
0303
,
1000
0000
0100
0000
0010
0000
0100
0001
,
0100
0000
0010
0000
1000
0000
0010
1000
,
0010
0000
0100
0000
0001
0000
0010
0100
,
0010
0000
0001
0000
1000
0100
1000
0000
,
1001
0010
1001
0100
,
1001
0010
1001
0100
,
0100
0010
0100
0000
0001
1000
0001
0000
,
0100
0010
0100
0010
0100
0000
0110
0000
,
2002
3003
0220
0030
0002
0303
2020
3000
,
0200
0330
2002
3003
0002
0000
2003
0000
,
3002
0000
0203
0300
2020
3000
0200
0030
,
0302
0003
2020
0030
0200
3300
0022
0030
,
2000
3003
0220
0300
2030
3000
0020
2030
,
0020
3000
0200
0030
0002
0303
2020
3030
,
0202
0303
2002
3003
0020
0000
0230
0000
,
0320
0030
2000
3000
0220
0030
0002
0303
,
2020
0030
0002
3000
0200
0303
2020
3030
,
0022
0033
0202
0303
0220
0330
2020
3030
,
2002
0000
0000
0000
,
0000
0000
0000
0000
,
0000
0000
0000
0000
,
0000
0000
0000
0000
0000
0000
0000
0000
0000
0000
0000
0000
0000
3003
0000
0000
,
1000
0100
0010
0001
,
1000
0010
0100
0001
,
1000
0100
0010
0001
,
0100
0000
0010
0000
1000
0000
0001
1000
,
0001
0100
0010
1000
,
0001
0010
0100
1000
,
0001
0010
0100
1000
,
0001
0000
1000
0000
0100
0010
0100
0010
,
0100
0010
0001
1000
,
0010
0010
1000
0010
,
0100
0001
0010
0100
,
1000
0000
0001
0000
0010
0000
0100
1000
,
0100
0010
0001
0010
,
0100
0000
0010
0000
0001
1000
0001
0000
,
0220
0000
0000
0000
,
0330
0000
0110
0000
,
1000
0001
1000
0010
,
1010
0000
0001
1000
0001
0000
0100
0000
,
0010
0100
0010
0000
1010
0000
0001
0000
,
0010
0100
0010
0000
0001
0000
1010
0000
,
0001
0000
0100
0001
0100
0000
1001
0000
,
1000
0001
1000
0001
1000
0000
0101
0000
,
0010
1000
0010
0000
1000
0000
0001
0000
,
0100
0001
0100
0000
0010
0000
0110
0000
,
1000
0000
0100
0000
1000
0001
1000
0000
,
0010
0000
0001
0000
0100
0010
0100
0000
,
0001
1000
0001
0000
0100
0010
0100
0000
,
0001
0100
0001
0000
1000
0010
1000
0000
,
0010
0100
0010
0100
0010
0100
0010
0000
,
1000
0001
1000
0001
1000
0001
1000
0000
,
1000
0100
1000
0100
1000
0010
1000
0010
,
0100
0010
0100
0010
0100
0001
0100
0001
,
1000
0000
0010
0000
,
0001
1000
0100
0010
,
0001
0000
0100
0000
,
1000
0010
0100
2002
,
0000
0000
0000
0000
0000
3003
0000
0000
0000
0000
0000
0000
0000
0000
0000
0000
;
