#TITLE:Dr. Doolittle;
#SUBTITLE:;
#ARTIST:Bambee;
#TITLETRANSLIT:;
#SUBTITLETRANSLIT:;
#ARTISTTRANSLIT:;
#CREDIT:;
#BANNER:drdoolittle.png;
#BACKGROUND:drdoo-bg.png;
#LYRICSPATH:;
#CDTITLE:!otteroTitle.png;
#MUSIC:B2.ogg;
#OFFSET:-0.889;
#SAMPLESTART:44.776;
#SAMPLELENGTH:12.000;
#SELECTABLE:YES;
#BPMS:0.000=138.000;
#STOPS:0.000=0.020
;
#BGCHANGES:;
// cache tags:
#FIRSTBEAT:7.000;
#LASTBEAT:407.000;
#SONGFILENAME:Songs/lvsb tourney pack/Dr. Doolittle- Otter/Dr. Doolittle.sm;
#HASMUSIC:1;
#HASBANNER:0;
#MUSICLENGTH:105.000;
// end cache tags

//---------------dance-single - ----------------
#NOTES:
     dance-single:
     :
     Hard:
     11:
     1.000,1.000,1.000,0.514,1.000,937.000,134.000,54.000,0.000,0.000:


0000
0000
0000
0000
,
0000
0000
0000
0000
0000
0000
0000
0000
0000
0000
0000
0000
1000
0100
0000
0010
,
0100
0000
1000
0010
0000
0100
0001
0000
0010
0100
1000
0010
0100
0001
0000
1000
,
0010
0000
0100
0001
0000
1000
0100
0000
0010
0100
1000
0100
0010
0001
0000
0100
,
0001
0000
0010
0100
0000
0010
0001
0000
1000
0001
0100
0001
1000
0100
0000
0010
,
0001
0000
1000
0100
0000
1000
0010
0000
1000
0001
0100
0010
1000
0100
0000
0010
,
0001
0000
0100
0001
0000
1000
0001
0000
1000
0100
0010
0001
0010
0100
0000
1000
,
0010
0000
0100
0001
0000
0010
0100
0000
1000
0010
1000
0001
1000
0100
0000
1000
,
0001
0000
0100
0010
0000
0100
0001
0000
1000
0100
0010
0100
1000
0010
0000
0100
,
0001
0000
1000
0100
0000
0010
0001
0000
0100
0001
0010
0001
1000
0000
0000
0010
,
0000
0000
0100
0000
0001
0000
0000
0010
0000
0000
0100
0000
1000
0000
0000
0001
,
0000
0000
0100
0000
0010
0000
0000
1000
0000
0000
0001
0000
0100
0000
0000
0010
,
0000
0000
0100
0000
0001
0000
0000
1000
0000
0000
0100
0000
0010
0000
0000
0100
,
0000
0000
1000
0000
0010
0000
0000
0100
0000
0000
0001
0000
0010
0000
0000
0100
,
0000
0000
1000
0000
0100
0000
0000
0010
0000
0000
0001
0000
0100
0000
0000
0010
,
0000
0000
1000
0000
0010
0000
0000
0100
0000
0000
0001
0000
0010
0000
0000
0100
,
0000
0000
1000
0000
0100
0000
0000
0010
0000
0000
0001
0000
0100
0000
0000
0001
,
0000
0000
0010
0000
0001
0000
0000
0010
0000
0000
0100
0000
1000
0100
0010
0001
,
0010
0100
1000
0010
0100
0001
0100
0010
1000
0100
0010
0100
1000
0100
0010
0001
,
0100
0010
0100
0001
0100
0010
1000
0100
0010
0001
0100
0010
1000
0100
0010
0001
,
0010
0100
1000
0001
0010
0100
1000
0001
0100
0010
1000
0001
0100
0010
1000
0001
,
0100
0010
1000
0100
0010
0001
0100
0001
0100
0000
1100
0000
0022
0000
0000
0033
,
0100
0000
0010
0000
1100
0000
0100
0000
0110
0000
0010
0000
0011
0000
0000
0100
,
0000
0000
0110
0000
0000
0000
0001
0000
0101
0000
0100
0000
0220
0000
0000
0330
,
0010
0000
1000
0000
0100
0000
0110
0000
0010
0000
0011
0000
0110
0000
0000
0100
,
0000
0000
1100
0000
0000
0000
0010
0000
0110
0000
0100
0000
0202
0000
0000
0303
,
1000
0000
0010
0000
0100
0000
0011
0000
0010
0000
0110
0000
1100
0000
0000
0010
,
0000
0000
0011
0000
0000
0000
0001
0000
1010
0000
0001
0000
2020
0000
0000
3030
,
0100
0001
0110
0100
1100
0100
0000
0000
,
0000
0000
1000
0000
0100
0000
0000
0010
0000
0000
0001
0000
0100
0010
0000
0010
,
1000
0000
1000
0100
0000
0100
0010
0000
0010
0001
0010
0100
1000
0100
0000
0010
,
0001
0000
1000
0010
0000
0001
0010
0000
0100
1000
0010
0100
0001
0010
0000
0100
,
1000
0000
0100
0010
0000
0001
0100
0000
0010
0100
0001
0100
0010
0100
0000
0001
,
0010
0000
0100
1000
0000
0010
1000
0000
0100
0010
0100
1000
0100
0010
0000
0001
,
1000
0000
0100
1000
0000
0001
0100
0000
0010
1000
0100
0010
0001
0010
0000
0001
,
0100
0000
0001
0010
0000
0100
1000
0000
0010
1000
0001
1000
0100
1000
0000
0010
,
1000
0000
1000
0010
0000
0010
0100
0000
0100
0001
1000
0001
0010
0001
0000
0100
,
0010
0000
0010
0100
0000
0001
0010
0000
0100
1000
0010
1000
0100
1000
0000
0001
,
0100
0001
0000
1000
0010
1000
0000
0001
1000
0100
0000
1000
0001
0100
0000
0010
,
0100
0001
0000
1000
0100
0010
0000
0001
0100
0010
0000
0010
0100
0001
0000
0010
,
0001
0010
0000
0100
1000
0100
0000
0010
0001
1000
0000
0010
1000
0001
0000
0100
,
0001
0100
0000
0010
1000
0010
0000
1000
0100
0010
0000
1000
0100
0010
0000
0001
,
1000
0100
0000
0001
1000
0100
0000
0010
1000
0100
0000
0010
1000
0100
0000
0001
,
0100
0010
0000
0001
0100
0010
0000
1000
0001
0100
0000
0010
1000
0100
0000
0010
,
0001
0100
0000
0001
0010
0001
0000
1000
0100
1000
0000
0010
1000
0001
0000
0100
,
0010
1000
0000
0100
0010
0001
0000
1000
0100
0010
0000
0001
0100
0010
1000
0100
,
0010
0001
0100
0010
1000
0100
0010
0100
1000
0010
0100
0001
0010
0100
0010
0001
,
0010
0100
1000
0010
0100
0001
0010
0001
1000
0001
0100
0001
0010
0100
1000
0001
,
1000
0010
1000
0100
1000
0001
1000
0100
0010
0001
0010
0100
1000
0001
0100
0010
,
1000
0010
0100
0001
0010
0100
1000
0100
0010
0000
0110
0000
2200
0000
0000
3300
,
0010
0000
0100
0000
0011
0000
0100
0000
1010
0000
0100
0000
0011
0000
0000
0010
,
0000
0000
1100
0000
0000
0000
0010
0000
0101
0000
0010
0000
2020
0000
0000
3030
,
0100
0000
0001
0000
1100
0000
0100
0000
0110
0000
0010
0000
0011
0000
0000
0100
,
0000
0000
1001
0000
0000
0000
0100
0000
0011
0000
0100
0000
2020
0000
0000
3030
,
0100
0000
0001
0000
0110
0000
0100
0000
1100
0000
0100
0000
0110
0000
0000
0010
,
0000
0000
0011
0000
0000
0000
0001
0000
0110
0000
1000
0000
0220
0000
0000
0330
,
1000
0001
0010
0101
0010
0101
0000
0000
,
0000
0000
0010
0000
1000
0000
0000
0001
0000
0000
0010
0000
0022
0000
0000
0033
,
0100
0000
0010
0000
1100
0000
0100
0000
0110
0000
0010
0000
0011
0000
0000
0100
,
0000
0000
0110
0000
0000
0000
0001
0000
0101
0000
0100
0000
0220
0000
0000
0330
,
0010
0000
1000
0000
0100
0000
0110
0000
0010
0000
0011
0000
0110
0000
0000
0100
,
0000
0000
1100
0000
0000
0000
0010
0000
0110
0000
0100
0000
0202
0000
0000
0303
,
1000
0000
0010
0000
0100
0000
0011
0000
0010
0000
0110
0000
1100
0000
0000
0010
,
0000
0000
0011
0000
0000
0000
0001
0000
1010
0000
0001
0000
2020
0000
0000
3030
,
0100
0000
0001
0000
0110
0000
0100
0000
1100
0000
0100
0000
0010
0001
0000
0001
,
0010
0000
0100
1000
0000
1000
0100
0000
0010
0001
0010
0100
1000
0100
0000
0100
,
0010
0000
0010
0001
0000
0001
0010
0000
0010
0100
1000
0010
0100
0001
0000
0001
,
0010
0000
0010
0100
0000
0100
0010
0000
0001
0100
0001
0010
0001
0100
0000
0100
,
0010
0000
0010
0100
0000
0100
0001
0000
0001
1000
0100
1000
0001
0100
0000
0001
,
0010
0000
0100
0010
0000
0001
0100
0000
0010
1000
0100
0010
0100
1000
0010
0100
,
0001
0010
0100
1000
0010
0100
0001
0010
0001
0100
0010
1000
0100
0010
0001
0010
,
0100
1000
0010
0100
0001
1000
0100
1000
0001
0100
0010
1000
0001
0010
0001
1000
,
0010
0100
0001
0010
0100
1000
0100
0010
0100
1000
0010
0100
0001
1000
0100
0010
,
0001
0000
0000
0100
0000
0000
0010
0000
0000
0100
0000
0000
0001
0000
1000
0000
0001
0000
0100
0000
0001
0000
0010
0000
0001
0000
1000
0000
0001
0000
0100
0000
0001
0000
0000
0000
0220
0000
0000
0000
0000
0000
0000
0000
0000
0330
0000
0000
,
1000
0000
0100
0000
0220
0000
0000
0330
0001
0000
0100
0000
0010
1000
0000
0100
,
1000
0000
0010
0100
0000
0001
0100
0000
0110
0000
0001
0000
2200
0000
0000
3300
,
0010
0000
0001
0000
0202
0000
0000
0303
0010
0000
1000
0000
0001
0100
0000
0001
,
0010
0000
0100
1000
0000
0001
0100
0000
0110
0000
1000
0000
0202
0000
0000
0303
,
0010
0000
0010
0000
2200
0000
0000
3300
0010
0000
0010
0000
0001
0010
0000
0010
,
0100
0000
0100
1000
0000
1000
0010
0000
0110
0000
0001
0000
2020
0000
0000
3030
,
0001
0000
0001
0000
1000
0000
0010
0100
0001
0010
0100
1000
1100
0000
0000
0000
,
0100
0000
0010
0100
0000
1000
0001
0000
0010
0000
0110
0000
2200
0000
0000
3300
,
0010
0000
0100
0000
0011
0000
0100
0000
1010
0000
0100
0000
0011
0000
0000
0010
,
0000
0000
1100
0000
0000
0000
0010
0000
0101
0000
0010
0000
2020
0000
0000
3030
,
0100
0000
0001
0000
1100
0000
0100
0000
0110
0000
0010
0000
0011
0000
0000
0100
,
0000
0000
1001
0000
0000
0000
0100
0000
0011
0000
0100
0000
2020
0000
0000
3030
,
0100
0000
0001
0000
0110
0000
0100
0000
1100
0000
0100
0000
0110
0000
0000
0010
,
0000
0000
0011
0000
0000
0000
0001
0000
0110
0000
1000
0000
0220
0000
0000
0330
,
1000
0001
0010
0101
0010
0101
0000
0000
,
0000
0000
0010
0000
0100
0000
0000
0001
0000
0000
0010
0000
0022
0000
0000
0033
,
0100
0000
0010
0000
1100
0000
0100
0000
0110
0000
0010
0000
0011
0000
0000
0100
,
0000
0000
0110
0000
0000
0000
0001
0000
0101
0000
0100
0000
0220
0000
0000
0330
,
0010
0000
1000
0000
0100
0000
0110
0000
0010
0000
0011
0000
0110
0000
0000
0100
,
0000
0000
1100
0000
0000
0000
0010
0000
0110
0000
0100
0000
0202
0000
0000
0303
,
1000
0000
0010
0000
0100
0000
0011
0000
0010
0000
0110
0000
1100
0000
0000
0010
,
0000
0000
0011
0000
0000
0000
0001
0000
1010
0000
0001
0000
2020
0000
0000
3030
,
0100
0000
0001
0000
0110
0000
0100
0000
1100
0000
0100
0000
0010
0001
0000
0010
,
0100
0000
1000
0001
0000
0100
0001
0000
1000
0010
1000
0010
1010
0000
0000
0110
,
0000
0000
0101
0000
0000
0000
0101
0000
0000
1010
0000
0000
0110
0000
0000
1100
,
0000
0000
1001
0000
0000
0000
0101
0000
0000
0110
0000
0000
1010
0000
0000
1100
,
0000
0000
1010
0000
0000
0000
0110
0000
0000
0001
0010
0100
1000
0010
0000
0100
,
0001
0000
1000
0100
0000
0010
0001
0000
1000
0010
0100
0001
1010
0000
0000
0000
;
