#TITLE:Upside Down;
#SUBTITLE:Hyper Euro Mix;
#ARTIST:Coo Coo;
#TITLETRANSLIT:;
#SUBTITLETRANSLIT:;
#ARTISTTRANSLIT:;
#CREDIT:;
#BANNER:UPSIDE DOWN-banner.PNG;
#BACKGROUND:UPSIDE DOWN-bg.png;
#LYRICSPATH:;
#CDTITLE:CDTITLE.jpg;
#MUSIC:103-upside-down-hyper-euro-mix-.mp3;
#OFFSET:-0.080;
#SAMPLESTART:40.139;
#SAMPLELENGTH:12.000;
#SELECTABLE:YES;
#BPMS:0.000=149.780;
#STOPS:;
#BGCHANGES:;
// cache tags:
#FIRSTBEAT:0.000;
#LASTBEAT:209.000;
#SONGFILENAME:Songs/Definitive Keyboard Megapack/Upside Down -  hyper euro mix(Leone510)/103-upside-down-hyper-euro-mix-.sm;
#HASMUSIC:1;
#HASBANNER:1;
#MUSICLENGTH:85.820;
// end cache tags

//---------------dance-single - ----------------
#NOTES:
     dance-single:
     :
     Hard:
     11:
     1.000,1.000,1.000,0.839,0.466,441.000,173.000,72.000,0.000,6.000:
1000
0000
0001
0000
1000
0000
0010
0000
1000
0100
0001
0010
0100
0000
0001
0000
,
1000
0000
0001
0000
0100
0000
0001
0000
1000
0001
0010
0100
1000
0000
0010
0000
,
0001
0100
0001
0010
1000
0001
0100
0010
,
0001
0010
1000
0001
0100
0010
1000
0100
0010
0001
1000
0100
0010
0100
0001
0000
,
0010
0000
0100
0000
0001
0000
0010
0000
0100
0001
0010
1000
0001
0000
0100
0000
,
0010
0000
0001
0000
1000
0000
0010
0000
0100
0001
0010
1000
0100
0000
0010
0000
,
0001
1000
0001
0100
0001
1000
0001
0100
,
0002
0000
2203
0000
0000
3300
0000
0000
,
0011
0000
0100
0000
0110
0000
1000
0000
0101
0000
1000
0011
0000
0001
0100
0001
,
1100
0000
0010
0000
1001
0000
0001
0000
1100
0000
0010
0101
0000
1000
0001
1000
,
0010
0000
0100
0000
0011
0000
1000
0000
0110
0000
0100
0011
0000
0010
0000
0010
,
0100
0011
1000
0000
0101
0000
1000
0000
0022
0000
0033
0000
2200
0000
3300
0000
,
1000
0000
0001
0000
1010
0000
0010
0000
1100
0000
0001
1100
0000
0100
0010
0100
,
0001
0000
1000
0000
0110
0000
0100
0000
0011
0000
1000
0011
0000
0100
0001
0010
,
1000
0000
0001
0000
1100
0000
0010
0000
0100
0000
0010
1001
0000
0100
0000
1000
,
0001
1000
0010
0000
0101
0000
0010
0000
2002
0000
3003
0000
0220
0000
0330
0000
,
0010
0000
0101
0000
0010
0000
1100
0000
0010
1000
0101
0010
0001
0000
1100
0000
,
0100
0000
0011
0000
1000
0000
1001
0000
0010
0001
0110
1000
0100
0000
1100
0000
,
0010
0000
0101
0000
0001
0000
0011
0000
0220
0330
0000
2200
3300
0000
0000
0000
,
0010
0000
1100
0000
0010
0000
0101
0000
0022
0033
0000
2002
3003
0000
0000
0000
,
0010
0000
0101
0000
0001
0000
1100
0000
0010
0100
1001
0100
0010
0000
0110
0000
,
1000
0000
0101
0000
0001
0000
1100
0000
0010
1000
0110
1000
0010
0000
1001
0000
,
0010
0000
0011
0000
0100
0000
1010
0000
0202
0303
0000
0220
0330
0000
0000
0000
,
0010
0000
1100
0000
0100
0000
0101
0000
0022
0033
0000
0220
0330
0000
0000
0000
,
0011
0000
1000
0000
0011
1000
0010
0100
1010
0000
0001
0000
1100
0000
0001
0000
,
1001
0000
0010
0000
1100
0001
0010
0001
1001
0000
0010
0000
0100
0000
0010
0000
,
1100
0001
0110
0001
0110
2000
0000
3020
,
0000
0000
0232
0000
0303
0000
2020
0000
3030
0000
0220
0330
2002
3003
0010
0000
,
1100
0000
0010
0000
0101
0010
0001
0010
1100
0000
1000
0000
0011
0000
0010
0000
,
0110
0000
1000
0000
0011
0100
0010
1000
0101
0000
0001
0000
1100
0000
0001
0000
,
1010
0001
1100
0001
0101
0002
0000
2203
,
3300
0000
0022
0000
0033
0000
2002
0000
3003
0000
0220
0330
2002
3003
0001
0000
,
1100
0010
0101
0001
1100
0010
0110
0001
,
1100
0010
0101
0001
1100
0010
0110
1000
,
0011
0100
0101
1000
1100
0010
0110
2000
,
0000
0000
3022
0000
0033
0000
0220
0000
0330
0000
2002
3003
0220
0330
0010
0000
,
1100
0101
0010
1100
0010
0110
0011
1000
,
0101
1000
0101
0010
1100
0010
1001
0010
,
0110
0010
1100
0010
0101
0001
0011
0100
,
0110
0000
0002
0000
0000
0000
2023
0000
3030
0000
0220
0330
2002
3103
0001
0010
,
1000
0110
1100
0110
1001
0110
1100
0011
,
1100
0000
0110
0000
0101
0000
1010
0000
0101
0010
1000
0001
1100
0010
0001
0000
,
1100
0100
1010
0010
1100
0010
1001
0010
,
0101
0010
0011
0100
0110
1000
1001
0001
,
1001
0000
0010
0000
0101
0000
1000
0000
0110
0000
1000
0011
0000
1000
0010
0001
,
1010
0000
0010
0000
1100
0000
0010
0000
1001
0000
0010
0110
0000
0100
0001
1000
,
0010
0000
0100
0000
0011
0000
1000
0000
0110
0000
0100
1001
0000
0100
0000
0001
,
1000
0110
0001
0000
0101
0000
1000
0000
0220
0000
0330
0000
2002
0000
3003
0000
,
0110
0000
1000
0000
0101
0000
0010
0000
1100
0000
0100
0011
0000
1000
0100
0010
,
0101
0000
1000
0000
0101
0000
0010
0000
1001
0000
0100
0011
0000
0100
0001
1000
,
0100
0000
0010
0000
0011
0000
1000
0000
1001
0000
0100
1001
0000
1000
0000
0010
,
1000
0011
0100
0000
1010
0000
0100
0000
2020
0000
3030
0000
0202
0000
0303
0000
;

//---------------dance-single - Copied from----------------
#NOTES:
     dance-single:
     Copied from:
     Challenge:
     13:
     1.000,1.000,1.000,1.000,1.000,548.000,234.000,89.000,0.000,50.000:
1010
0000
0001
0000
1101
0000
0010
0000
1001
0100
0001
0010
1100
0000
0001
0000
,
1010
0000
0001
0000
1110
0000
0001
0000
1100
0001
0010
0100
1001
0000
0010
0000
,
0101
0100
1011
0010
1100
0001
1101
0010
,
0101
0010
1000
0001
1100
0010
1000
0100
1010
0001
1000
0100
0011
0100
0001
0100
,
0011
0000
0100
0000
1101
0000
0010
0000
0110
0001
0010
1000
0101
0000
0100
0000
,
1010
0000
0001
0000
1110
0000
0010
0000
1100
0001
0010
1000
0101
0000
0010
0000
,
0101
1000
0111
0100
0011
1000
1101
0100
,
0002
0000
2203
0000
0000
3300
0000
0000
,
0011
1000
0010
0001
0110
0001
1000
0010
1100
0010
1000
0001
1010
0001
0100
0001
,
1100
0001
0010
0100
1001
0100
0001
0010
1100
0001
0010
0100
0011
1000
0001
1000
,
0110
0001
0100
1000
0011
0100
1000
0001
0110
1000
0100
0001
0000
0110
0000
0010
,
0100
0011
1000
0000
0111
0000
1000
0000
2022
0000
3033
0000
2202
0000
3303
0000
,
0011
1000
0010
0001
0110
0001
1000
0010
1100
0010
1000
0001
1010
0001
0100
0001
,
1100
0001
0010
0100
1001
0100
0001
0010
1100
0001
0010
0100
0011
1000
0001
1000
,
0110
0001
0100
1000
0011
0100
1000
0001
0110
1000
0100
0001
0000
0110
0000
0010
,
0100
0011
1000
0000
0111
0000
1000
0000
2022
0000
3033
0000
2202
0000
3303
0000
,
0011
0000
0100
0000
1010
0000
0100
0000
0011
1000
0101
0010
1001
0000
0100
0000
,
0101
0000
0010
0000
1100
0000
0001
0000
1010
0001
0110
1000
0101
0000
1000
0000
,
0110
0000
0101
0000
1001
0000
0011
0000
0220
0000
0330
2200
0000
3300
0000
0000
,
0011
0000
1100
0000
0011
0000
0101
0000
0022
0000
0033
2002
0000
3003
0000
0000
,
1010
0000
0100
0000
0101
0000
1000
0000
0011
0100
1001
0100
0011
0000
0100
0000
,
1010
0000
0001
0000
0110
0000
0100
0000
0011
1000
0110
1000
0011
0000
0100
0000
,
1001
0000
1010
0000
0110
0000
1010
0000
0202
0000
0303
0220
0000
0330
0000
0000
,
0011
0000
1100
0000
0101
0000
0101
0000
0022
0000
0033
0220
0000
0330
0000
0000
,
1011
0000
1000
0000
0011
1000
0010
0100
1010
0000
0001
0000
1100
0000
0001
0000
,
1011
0000
0010
0000
1100
0001
0010
0100
1001
0000
0010
0000
0101
0000
0010
0000
,
1110
0001
0111
0001
1110
2010
0000
3120
,
0000
0000
0232
0000
0000
0303
2020
0000
0000
3030
0220
0000
2332
0000
3013
0000
,
1101
0000
0010
0000
0101
0010
0001
0010
1100
0000
1000
0000
0011
0000
0010
0000
,
0111
0000
1000
0000
0011
0100
0010
1000
0101
0000
0001
0000
1100
0000
0001
0000
,
1110
0001
1101
0010
1101
0022
0000
2233
,
0000
3300
0022
0000
0000
0033
2002
0000
0000
3003
0220
0000
2332
0000
3103
0000
,
1100
0001
0010
1000
0101
0010
0001
0010
1100
0001
0010
1000
0110
1000
0001
0010
,
1100
0001
0010
1000
0101
0010
0001
0010
1100
0001
0010
1000
0110
0001
1000
0100
,
0011
1100
0101
1010
1100
0011
0110
2200
,
0000
0000
3322
0000
0000
0033
0220
0000
0000
0330
2002
0000
3223
0000
0331
0000
,
1100
0001
0100
1000
0110
0001
0100
0001
1010
0100
0010
1000
0011
0100
1000
0010
,
1100
0001
0010
0001
0110
1000
0010
0001
1100
0001
0010
0100
1001
0100
0010
0001
,
0110
1010
1100
0110
0101
1001
0011
0220
,
0000
0000
2332
0000
0000
0000
3223
0000
0330
0000
0220
0000
2332
0103
3001
0010
,
1100
0110
1101
0110
1001
0110
1101
0011
,
1100
0000
0110
0000
0111
0000
1010
0000
0101
0010
1000
0001
1100
0010
0001
0010
,
1100
0100
1011
0010
1100
0010
1101
0010
,
0101
0010
1000
0100
0011
1000
0100
0001
0110
0001
1000
0010
2002
0000
3003
0000
,
0011
1000
0010
0001
0110
0001
1000
0010
1100
0010
1000
0001
1010
0001
0100
0001
,
1100
0001
0010
0100
1001
0100
0001
0010
1100
0001
0010
0100
0011
1000
0001
1000
,
0110
0001
0100
1000
0011
0100
1000
0001
0110
1000
0100
0001
0000
0110
0000
0010
,
0100
0011
1000
0000
0111
0000
1000
0000
2022
0000
3033
0000
2202
0000
3303
0000
,
0011
1000
0010
0001
0110
0001
1000
0010
1100
0010
1000
0001
1010
0001
0100
0001
,
1100
0001
0010
0100
1001
0100
0001
0010
1100
0001
0010
0100
0011
1000
0001
1000
,
0110
0001
0100
1000
0011
0100
1000
0001
0110
1000
0100
0001
0000
0110
0000
0010
,
0100
0011
1000
0000
0111
0000
1000
0000
2022
0000
3033
0000
2202
0000
3303
0000
,
2002
3003
0000
0000
;
